<?xml version="1.0" standalone="no"?>
<!DOCTYPE svg PUBLIC "-//W3C//DTD SVG 1.1//EN" "http://www.w3.org/Graphics/SVG/1.1/DTD/svg11.dtd" >
<svg xmlns="http://www.w3.org/2000/svg" xmlns:xlink="http://www.w3.org/1999/xlink" version="1.1">
<metadata>
Created by FontForge 20201107 at Mon Dec  1 13:43:45 2025
 By 
Copyright (c) 2016 by THOMAS GILLETT. All rights reserved.
</metadata>
<defs>
<font id="Gordita-Regular" horiz-adv-x="1265" >
  <font-face 
    font-family="Gordita"
    font-weight="400"
    font-stretch="normal"
    units-per-em="2048"
    panose-1="0 0 0 0 0 0 0 0 0 0"
    ascent="1638"
    descent="-410"
    x-height="1018"
    cap-height="1493"
    bbox="-358 -614 2615 2140"
    underline-thickness="94"
    underline-position="-190"
    unicode-range="U+000D-FB04"
  />
<missing-glyph horiz-adv-x="1523" 
d="M172 0v1493l1258 2v-1495h-1258zM246 1409l1100 -1333v1333h-1100z" />
    <glyph glyph-name="ff" unicode="ff" horiz-adv-x="1306" 
d="M1178 1425q-64 0 -113 -41q-57 -50 -57 -174v-192h266v-129h-266v-889h-148v889h-469v-889h-147v889h-197v129h197v188q0 169 84 262q85 88 227 88q59 0 111 -18v-125q-38 12 -105 12q-63 0 -112 -41q-58 -51 -58 -174v-192h469v188q0 170 86 262q85 88 225 88
q61 0 111 -18v-125q-38 12 -104 12z" />
    <glyph glyph-name="fi" unicode="fi" horiz-adv-x="1177" 
d="M244 889h-197v129h197v188q0 169 84 262q85 88 227 88q59 0 111 -18v-125q-38 12 -105 12q-63 0 -112 -41q-58 -51 -58 -174v-192h619v-1018h-150v889h-469v-889h-147v889zM856 1303q-33 33 -33 79q0 47 33 80t78 33q47 0 80 -33q33 -38 33 -80q0 -41 -33 -79
q-33 -33 -80 -33q-45 0 -78 33z" />
    <glyph glyph-name="fl" unicode="fl" horiz-adv-x="1177" 
d="M244 889h-197v129h197v188q0 169 84 262q85 88 227 88q59 0 111 -18v-125q-38 12 -105 12q-63 0 -112 -41q-58 -51 -58 -174v-192h469v536h150v-1554h-150v889h-469v-889h-147v889z" />
    <glyph glyph-name="ffi" unicode="ffi" horiz-adv-x="1796" 
d="M860 889h-469v-889h-147v889h-197v129h197v188q0 169 84 262q85 88 227 88q59 0 111 -18v-125q-38 12 -105 12q-63 0 -112 -41q-58 -51 -58 -174v-192h469v188q0 170 86 262q85 88 225 88q61 0 113 -18v-125q-41 12 -106 12q-61 0 -113 -41q-57 -50 -57 -174v-192h620
v-1018h-149v889h-471v-889h-148v889zM1475 1303q-33 33 -33 79q0 47 33 80t77 33q42 0 80 -33q33 -38 33 -80q0 -41 -33 -79q-38 -33 -80 -33q-44 0 -77 33z" />
    <glyph glyph-name="ffl" unicode="ffl" horiz-adv-x="1796" 
d="M561 1425q-65 0 -112 -41q-60 -53 -60 -174v-192h471v188q0 170 86 262q85 88 225 88q61 0 113 -18v-125q-41 12 -106 12q-61 0 -113 -41q-57 -50 -57 -174v-192h471v536h149v-1554h-149v889h-471v-889h-148v889h-471v-889h-145v889h-197v129h197v188q0 169 84 262
q85 88 227 88q59 0 111 -18v-125q-38 12 -105 12z" />
    <glyph glyph-name=".notdef" horiz-adv-x="1523" 
d="M172 0v1493l1258 2v-1495h-1258zM246 1409l1100 -1333v1333h-1100z" />
    <glyph glyph-name=".null" horiz-adv-x="0" 
 />
    <glyph glyph-name="nonmarkingreturn" horiz-adv-x="634" 
 />
    <glyph glyph-name="NULL" horiz-adv-x="0" 
 />
    <glyph glyph-name="NULL" horiz-adv-x="0" 
 />
    <glyph glyph-name="CR" unicode="&#xd;" horiz-adv-x="532" 
 />
    <glyph glyph-name="space" unicode=" " horiz-adv-x="532" 
 />
    <glyph glyph-name="exclam" unicode="!" horiz-adv-x="544" 
d="M203 432l-8 799v262h155v-262l-8 -799h-139zM195 16q-33 29 -33 78q0 51 33 80q33 33 77 33q42 0 80 -33q33 -33 33 -80q0 -45 -33 -78q-32 -32 -80 -32q-49 0 -77 32z" />
    <glyph glyph-name="quotedbl" unicode="&#x22;" horiz-adv-x="768" 
d="M121 1337q0 146 86 146q88 0 88 -146q0 -21 -6 -59l-47 -393h-68l-49 393q-4 46 -4 59zM473 1337q0 146 88 146q86 0 86 -146q0 -9 -4 -59l-49 -393h-68l-47 393q-6 34 -6 59z" />
    <glyph glyph-name="numbersign" unicode="#" horiz-adv-x="1581" 
d="M1206 987l-100 -448h272v-125h-299l-90 -414h-139l90 414h-453l-90 -414h-141l92 414h-272v125h299l98 448h-270v125h299l82 381h141l-84 -381h455l82 381h139l-84 -381h272v-125h-299zM612 987l-98 -448h455l98 448h-455z" />
    <glyph glyph-name="dollar" unicode="$" horiz-adv-x="1198" 
d="M1102 422q0 -179 -119 -295q-120 -117 -307 -135v-187h-131v187q-123 12 -228 78q-102 58 -163 153q-60 86 -72 187l145 41q20 -112 111 -203q93 -89 207 -107v555l-64 13q-154 30 -256 127q-102 96 -102 256q0 176 125 288q124 108 297 123v197h131v-201
q92 -10 169.5 -45t125.5 -86q93 -100 114 -219l-141 -43q-19 76 -78 147q-70 80 -192 101v-525l10 -2q197 -42 289 -131q71 -64 100 -139q29 -79 29 -135zM496 864l49 -10v506q-111 -15 -189 -84q-77 -71 -77 -176q0 -90 55.5 -152.5t161.5 -83.5zM678 670l-4 2v-533
q113 15 192 84q76 67 76 185q0 147 -139 219q-37 18 -94 37q-4 1 -13.5 3t-13.5 3h-4z" />
    <glyph glyph-name="percent" unicode="%" horiz-adv-x="1648" 
d="M748 1171q0 -138 -99 -237q-98 -98 -239 -98q-140 0 -238 98t-98 237q0 140 98 238t238 98q141 0 239 -98q99 -99 99 -238zM412 0h-152l975 1493h149zM561 1022q62 62 62 149q0 88 -62 150q-64 61 -151 61t-148 -61q-63 -60 -63 -150q0 -89 63 -149q61 -61 148 -61
t151 61zM1575 326q0 -141 -100 -238q-95 -98 -238 -98t-238 98q-98 95 -98 238q0 142 98 237q99 99 238 99t238 -99q100 -97 100 -237zM1386 176q62 62 62 150q0 84 -62 149q-62 62 -149 62q-88 0 -150 -62q-61 -64 -61 -149q0 -89 61 -150t150 -61q88 0 149 61z" />
    <glyph glyph-name="ampersand" unicode="&#x26;" horiz-adv-x="1363" 
d="M1145 657h153q-29 -89 -98 -196q-70 -110 -149 -195l231 -266h-188l-146 168q-213 -180 -424 -180q-178 -5 -301.5 98.5t-122.5 265.5q0 108 70 207q31 42 76 84q68 59 180 131l-109 125q-46 53 -75 120t-29 128q-2 101 54 186t146.5 131t190.5 43q93 2 180.5 -44
t143 -128.5t53.5 -177.5q0 -72 -26.5 -133.5t-71.5 -101.5q-47 -44 -115 -84l-137 -86l332 -383q124 145 182 288zM766 1309q-69 63 -166 63t-166 -63q-72 -69 -72 -162q0 -63 41 -125q5 -8 37 -53q6 -7 23 -26t26 -30q27 -31 43 -47l17 -18l149 90q136 83 136 211
q0 92 -68 160zM543 125q152 0 317 143l-350 408q-65 -41 -72 -45q-22 -15 -65 -49q-47 -43 -60 -62q-55 -69 -55 -151q0 -107 78 -176q80 -68 207 -68z" />
    <glyph glyph-name="quotesingle" unicode="'" horiz-adv-x="415" 
d="M121 1337q0 146 86 146q88 0 88 -146q0 -21 -6 -59l-47 -393h-68l-49 393q-4 46 -4 59z" />
    <glyph glyph-name="parenleft" unicode="(" horiz-adv-x="757" 
d="M102 682v49q0 294 144 537q142 244 399 391l62 -96q-229 -148 -341 -353.5t-112 -480.5v-45q0 -275 111 -478t342 -353l-62 -101q-258 150 -399 393q-144 243 -144 537z" />
    <glyph glyph-name="parenright" unicode=")" horiz-adv-x="757" 
d="M655 731v-49q0 -296 -141 -539q-142 -242 -401 -391l-62 101q231 150 342 353t111 478v45q0 275 -112 480.5t-341 353.5l62 96q258 -145 401 -389q141 -243 141 -539z" />
    <glyph glyph-name="asterisk" unicode="*" horiz-adv-x="966" 
d="M580 1067l180 -252l-90 -67l-189 253l-184 -251l-88 65l180 252l-295 98l35 105l297 -96v319h115v-319l297 96l34 -105z" />
    <glyph glyph-name="plus" unicode="+" horiz-adv-x="1126" 
d="M635 649v-395h-143v395h-398v139h398v392h143v-392h397v-139h-397z" />
    <glyph glyph-name="comma" unicode="," horiz-adv-x="546" 
d="M150 -279v78q60 12 106 70q44 58 47 129q-21 -12 -49 -12q-53 0 -87 36t-34 91q0 52 39 88q40 37 94 37q68 0 107 -54q39 -48 39 -123q0 -131 -70 -225q-66 -97 -192 -115z" />
    <glyph glyph-name="hyphen" unicode="-" horiz-adv-x="831" 
d="M143 518v158h545v-158h-545z" />
    <glyph glyph-name="period" unicode="." horiz-adv-x="532" 
d="M170 23q-41 44 -41 98q0 55 41 96q39 39 96 39t96 -39q41 -41 41 -96q0 -54 -41 -98q-39 -39 -96 -39t-96 39z" />
    <glyph glyph-name="slash" unicode="/" horiz-adv-x="937" 
d="M223 -10h-157l651 1562h157z" />
    <glyph glyph-name="zero" unicode="0" horiz-adv-x="1464" 
d="M729 -16q-117 0 -219 42.5t-176 116.5q-75 81 -123 172q-100 190 -100 426q-2 169 58 331.5t169 273.5q74 75 177 118t220 43q118 0 219.5 -42t175.5 -117q68 -71 123 -170q99 -191 99 -428q3 -169 -57 -331.5t-169 -271.5q-74 -77 -176.5 -120t-220.5 -43zM901 1325
q-74 39 -170 39t-170 -39q-81 -38 -131 -100q-52 -61 -89 -142.5t-52 -167.5q-53 -264 53 -499q77 -178 219 -248q77 -39 172 -39t170 37q83 44 131 100q104 125 142 307q53 265 -54 502q-78 177 -221 250z" />
    <glyph glyph-name="one" unicode="1" horiz-adv-x="817" 
d="M610 0h-155v1327l-361 -213l-69 119l434 260h151v-1493z" />
    <glyph glyph-name="two" unicode="2" horiz-adv-x="1220" 
d="M1110 0h-1008v47q0 309 347 524l225 140q64 37 104 69q23 17 80 74q78 87 78 211q0 118 -94 209q-93 90 -234 90q-113 0 -192 -55q-76 -56 -115 -135q-25 -68 -31 -148l-155 23q0 98 48 193.5t136 164.5q126 102 313 102q99 0 191 -36t158 -97q64 -63 100.5 -142.5
t36.5 -164.5q0 -147 -78 -254q-77 -106 -236 -205l-235 -147q-247 -154 -256 -320h817v-143z" />
    <glyph glyph-name="three" unicode="3" horiz-adv-x="1241" 
d="M614 -14q-110 0 -205 36t-161 99q-138 132 -156 299l152 29q5 -60 33.5 -117t75 -102.5t114.5 -73t147 -27.5q43 0 89 10.5t94.5 35.5t86.5 60.5t62.5 91.5t24.5 124q0 129 -99 208q-96 78 -256 78q-78 0 -139 -22l-74 125l490 510h-766v143h967v-137l-463 -475
q184 6 321 -93q84 -57 130 -143.5t46 -187.5q0 -142 -69 -248q-67 -106 -187 -166q-114 -57 -258 -57z" />
    <glyph glyph-name="four" unicode="4" horiz-adv-x="1298" 
d="M985 358v-358h-151v358h-777v172l731 963h197v-999h252v-136h-252zM834 1331l-637 -837h637v837z" />
    <glyph glyph-name="five" unicode="5" horiz-adv-x="1210" 
d="M1055 1346h-631l-115 -496q61 58 152 82q88 24 160 24q215 0 352 -131t137 -350q0 -115 -44 -210.5t-120 -155.5q-158 -123 -358 -123q-126 0 -236 49.5t-184 142.5q-75 97 -90 215l151 35q22 -135 121 -213q100 -84 244 -84q46 0 94 11.5t96 38t85.5 64.5t61 96.5
t23.5 129.5q0 182 -114 266q-108 82 -246 82q-82 0 -172 -41q-87 -44 -143 -112l-146 57l176 770h746v-147z" />
    <glyph glyph-name="six" unicode="6" horiz-adv-x="1286" 
d="M848 1360q-127 0 -232.5 -47t-175.5 -131q-146 -172 -170 -426q70 113 197 168q108 47 215 47q113 0 210 -38.5t161 -105.5q131 -137 131 -333q0 -120 -45.5 -219.5t-122.5 -161.5q-158 -127 -361 -127q-131 0 -256 67q-129 72 -192 183q-54 101 -74 184q-20 98 -20 227
q0 361 186 608q92 119 234 185.5t313 66.5q190 0 307 -69l-59 -142q-50 31 -118 47.5t-128 16.5zM659 834q-137 0 -251 -91q-56 -46 -87.5 -114.5t-31.5 -143.5q0 -108 55 -190q56 -83 137 -123q78 -41 178 -41q97 0 179.5 38.5t137 121.5t54.5 196q0 142 -102 244
q-103 103 -269 103z" />
    <glyph glyph-name="seven" unicode="7" horiz-adv-x="1124" 
d="M207 0l694 1348h-848v145h1016v-145l-688 -1348h-174z" />
    <glyph glyph-name="eight" unicode="8" horiz-adv-x="1277" 
d="M793 2q-113 -27 -231.5 -14.5t-217.5 63.5q-105 52 -167 143.5t-62 213.5q0 123 82 217q79 95 231 145q-134 38 -205 137q-73 98 -73 205q0 93 45.5 170t117.5 125t157 74t169 26q87 0 172 -25.5t156.5 -72.5t116 -124.5t44.5 -172.5q0 -113 -73 -207q-75 -97 -205 -135
q150 -43 231 -141q82 -98 82 -221q0 -156 -104.5 -262t-265.5 -144zM639 1368q-114 0 -219 -65q-52 -31 -83.5 -84t-31.5 -113q0 -54 22.5 -100.5t58 -78t80 -53.5t89 -32.5t84.5 -10.5q102 0 215 66q54 33 86.5 88t32.5 119q0 61 -30.5 113t-82.5 83q-108 68 -221 68z
M639 127q130 0 242 68q57 33 90 89t33 124q0 69 -33 127t-90 92q-110 69 -242 69t-242 -67q-57 -35 -91 -92.5t-34 -124.5q0 -70 33 -127t90 -90q112 -68 244 -68z" />
    <glyph glyph-name="nine" unicode="9" horiz-adv-x="1288" 
d="M471 135q123 0 224 46t169 128t109 192t51 240q-69 -109 -193 -168q-120 -57 -231 -57q-112 0 -208 40.5t-159 109.5q-129 145 -129 331q-1 122 44.5 221.5t121 162t169.5 95.5t196 33q128 0 250 -67q124 -70 188 -185q52 -88 78 -192q23 -98 23 -227q0 -375 -175 -609
q-87 -117 -221 -180t-301 -63q-74 0 -176 24q-99 20 -170 66l57 141q71 -41 148 -61q80 -21 135 -21zM625 653q145 0 254 92q54 44 85 116t31 149q0 111 -53 190q-56 83 -137 123q-84 41 -178 41q-143 0 -254 -90q-52 -45 -82.5 -115.5t-30.5 -154.5q0 -143 99 -247
t266 -104z" />
    <glyph glyph-name="colon" unicode=":" horiz-adv-x="561" 
d="M184 799q-41 41 -41 98q0 58 41 96q41 41 97 41q55 0 96 -41t41 -96q0 -54 -41 -98q-39 -39 -96 -39q-58 0 -97 39zM184 23q-41 41 -41 98q0 58 41 96q39 39 97 39q57 0 96 -39q41 -41 41 -96q0 -54 -41 -98q-39 -39 -96 -39q-58 0 -97 39z" />
    <glyph glyph-name="semicolon" unicode=";" horiz-adv-x="575" 
d="M188 799q-38 41 -38 98q0 58 38 96q41 41 99 41q55 0 96 -41q39 -39 39 -96q0 -56 -39 -98q-39 -39 -96 -39q-60 0 -99 39zM166 -279v78q62 12 108 70q42 59 45 129q-18 -12 -49 -12q-53 0 -86.5 36t-33.5 91q0 53 38 88q40 37 95 37q67 0 106 -54q39 -48 39 -123
q0 -131 -70 -225q-66 -97 -192 -115z" />
    <glyph glyph-name="less" unicode="&#x3c;" horiz-adv-x="1220" 
d="M76 651v137l989 472v-150l-825 -387l825 -389v-150z" />
    <glyph glyph-name="equal" unicode="=" horiz-adv-x="1179" 
d="M147 860v148h885v-148h-885zM147 430v145h885v-145h-885z" />
    <glyph glyph-name="greater" unicode="&#x3e;" horiz-adv-x="1220" 
d="M158 184v148l823 389l-823 387v152l987 -472v-137z" />
    <glyph glyph-name="question" unicode="?" horiz-adv-x="1036" 
d="M563 432h-145q-2 16 -2 35q0 78 24 133q25 60 58 100q5 6 12 15t12.5 14.5l9.5 9.5q3 3 16 17t23 24q8 9 20 21t15 16l43 43q11 11 26 27t19 20q15 15 39 45q38 48 55 105q9 45 9 61q0 102 -72 174q-70 70 -209 70t-217 -90q-76 -91 -70 -232l-151 7q-2 18 -2 45
q0 121 61 215q56 94 162 149q103 53 217 53q96 0 179.5 -31t142.5 -85q55 -54 85.5 -126t30.5 -147q0 -110 -63 -198q-46 -62 -66 -82q-11 -14 -92 -99l-14 -12q-16 -16 -37.5 -38t-26.5 -27l-45 -60q-47 -68 -47 -172zM406 174q-33 -29 -33 -80q0 -49 33 -78q28 -32 77 -32
q52 0 80 32q33 33 33 78q0 47 -33 80t-80 33q-44 0 -77 -33z" />
    <glyph glyph-name="at" unicode="@" horiz-adv-x="1648" 
d="M1440 571q24 76 24 154q0 118 -46.5 221.5t-127.5 173.5q-173 146 -413 146q-139 0 -256 -54q-131 -59 -211 -145q-90 -87 -144 -213q-51 -119 -51 -256q0 -190 84 -334q82 -146 233 -229q150 -84 332 -84q216 0 400 131l55 -88q-81 -66 -211 -107q-122 -41 -244 -41
q-157 0 -297 55.5t-243 155.5q-102 100 -160 240.5t-58 298.5q0 156 62 301q61 140 164 246q101 104 246 166q140 61 299 61q138 0 264.5 -45.5t222.5 -128.5q97 -85 152 -208t55 -263q0 -129 -55 -254q-56 -127 -160 -188q-86 -50 -158 -50q-64 0 -112.5 38t-69.5 100
q-105 -135 -266 -135q-119 -3 -211.5 97.5t-89.5 219.5q0 109 47 205.5t135 156.5q86 62 196 62q73 0 136.5 -37.5t95.5 -101.5l22 133h140l-80 -477q-5 -14 -3 -37t7.5 -45t26 -38t53.5 -16q74 0 133 68t82 145zM846 858q-114 0 -187 -88t-73 -205q0 -87 53 -149
q56 -62 139 -62q74 0 133 47q63 48 93 115q30 71 30 139q0 85 -53 144t-135 59z" />
    <glyph glyph-name="A" unicode="A" horiz-adv-x="1478" 
d="M1307 0l-164 381h-813l-164 -381h-160l643 1493h178l646 -1493h-166zM1083 524l-348 807l-346 -807h694z" />
    <glyph glyph-name="B" unicode="B" horiz-adv-x="1396" 
d="M764 0h-557v1493h536q208 3 345 -98.5t137 -276.5q0 -56 -21 -123q-9 -34 -37 -77q-25 -40 -70 -78.5t-100 -63.5q77 -20 138 -63.5t94 -98.5q61 -102 61 -204q0 -103 -41 -183.5t-116 -130.5q-149 -96 -369 -96zM731 1350h-369v-521h357q175 0 260 76q86 77 86 195
q0 66 -28 115.5t-76 78t-105.5 42.5t-124.5 14zM737 690h-375v-547h406q51 0 100 8.5t97.5 28.5t84 51t58 79.5t22.5 109.5q0 172 -180 235q-91 35 -213 35z" />
    <glyph glyph-name="C" unicode="C" horiz-adv-x="1599" 
d="M848 -16q-152 0 -290 56t-239 155q-99 99 -157 239q-60 148 -60 307q0 167 62 312q63 146 162 243q104 101 241.5 157t286.5 56q115 0 219 -30.5t178 -83.5q69 -46 131 -115q101 -117 140 -262l-150 -53q-21 85 -88 180q-46 63 -96 104q-59 49 -144 78q-85 33 -194 33
q-116 0 -223.5 -44.5t-186.5 -123.5q-81 -81 -127.5 -196t-46.5 -244q0 -178 76 -318q74 -142 211 -221q133 -80 299 -80q97 0 183.5 29.5t144.5 75.5q58 45 98 102q39 53 63 102q27 65 35 90l150 -53q-39 -135 -137 -254q-53 -64 -129 -121q-76 -55 -184.5 -87.5
t-227.5 -32.5z" />
    <glyph glyph-name="D" unicode="D" horiz-adv-x="1542" 
d="M207 0v1493h444q177 0 320 -57q146 -55 250 -156t161.5 -238t57.5 -292q0 -164 -62 -306q-58 -134 -168 -237q-107 -98 -252.5 -152.5t-306.5 -54.5h-444zM365 1346v-1199h280q186 0 330 78q148 79 223 211q80 136 80 309q0 126 -45 237.5t-127 193.5q-80 80 -200.5 125
t-260.5 45h-280z" />
    <glyph glyph-name="E" unicode="E" 
d="M207 0v1493h934v-145h-776v-517h710v-145h-710v-541h784v-145h-942z" />
    <glyph glyph-name="F" unicode="F" horiz-adv-x="1210" 
d="M365 1346v-537h702v-143h-702v-666h-158v1493h926v-147h-768z" />
    <glyph glyph-name="G" unicode="G" horiz-adv-x="1634" 
d="M1513 1065l-149 -53q-33 96 -102 176q-49 52 -99 86q-128 88 -313 88q-170 0 -303 -84q-137 -87 -209 -225q-74 -139 -74 -303q0 -125 41 -238t115 -199q76 -86 188.5 -134t243.5 -48q204 0 356 117q73 57 118.5 143t51.5 187h-622v145h790v-57q0 -140 -48 -264.5
t-136 -217.5q-91 -94 -223.5 -146t-288.5 -52q-165 0 -307 57t-238 160q-96 102 -149.5 241.5t-53.5 296.5q0 213 99 389t270 277q169 100 383 100q131 0 244.5 -35t193.5 -100q158 -122 221 -307z" />
    <glyph glyph-name="H" unicode="H" horiz-adv-x="1579" 
d="M1214 0v684h-849v-684h-158v1493h158v-662h849v662h158v-1493h-158z" />
    <glyph glyph-name="I" unicode="I" horiz-adv-x="571" 
d="M207 0v1493h158v-1493h-158z" />
    <glyph glyph-name="J" unicode="J" horiz-adv-x="1187" 
d="M840 1493h155v-1028q0 -208 -127 -344q-126 -135 -325 -135q-214 0 -340 129q-127 130 -127 346v147h155v-141q0 -169 97 -256q90 -78 209 -78q132 0 217 94q86 92 86 234v1032z" />
    <glyph glyph-name="K" unicode="K" horiz-adv-x="1290" 
d="M365 0h-158v1493h158v-659h10l669 659h218l-732 -715l766 -778h-221l-700 719h-10v-719z" />
    <glyph glyph-name="L" unicode="L" horiz-adv-x="1112" 
d="M207 0v1493h158v-1346h708v-147h-866z" />
    <glyph glyph-name="M" unicode="M" horiz-adv-x="1974" 
d="M1540 1493h225v-1493h-155v1280l-555 -1280h-142l-551 1270v-1270h-155v1493h223l557 -1280z" />
    <glyph glyph-name="N" unicode="N" horiz-adv-x="1632" 
d="M1270 1493h153v-1493h-170l-891 1270v-1270h-155v1493h182l881 -1255v1255z" />
    <glyph glyph-name="O" unicode="O" horiz-adv-x="1705" 
d="M1604 750q0 -208 -97 -388q-98 -175 -270 -276q-175 -102 -387 -102q-155 0 -297 59q-142 60 -238 162q-95 95 -155 239q-58 147 -58 297q0 211 99 387q96 178 270 279q169 100 385 100q160 0 297 -57q141 -63 238 -160q101 -107 155 -241q58 -140 58 -299zM1442 741
q0 124 -43 237.5t-121 199.5t-189.5 135t-238.5 49q-162 0 -301 -82q-136 -86 -209 -223q-74 -142 -74 -307q0 -123 43.5 -237t120.5 -198q78 -86 189 -135t237 -49q164 0 301 84q135 78 211 221q74 139 74 305z" />
    <glyph glyph-name="P" unicode="P" horiz-adv-x="1298" 
d="M682 584h-317v-584h-158v1493h500q106 1 194 -23.5t148.5 -67t102 -100t60.5 -122.5t19 -136q0 -194 -137 -325q-68 -64 -175 -99.5t-237 -35.5zM694 1346h-329v-617h321q200 0 297 100q88 88 88 211q0 46 -10.5 87.5t-38 82.5t-69 70.5t-108 47.5t-151.5 18z" />
    <glyph glyph-name="Q" unicode="Q" horiz-adv-x="1710" 
d="M1610 82l-103 -119l-194 176q-202 -155 -463 -155q-158 0 -297 59q-142 60 -238 162q-95 95 -155 239q-58 147 -58 297q0 215 99 387q96 178 270 279q166 100 383 100q162 0 299 -57q135 -60 238 -160q96 -102 155 -241q58 -140 58 -299q0 -292 -183 -506zM266 750
q0 -166 74 -308q74 -141 209 -227q137 -84 305 -84q197 0 344 111l-285 250l105 114l289 -262q135 170 135 397q0 124 -43 237.5t-121 199.5t-189.5 135t-238.5 49q-162 0 -301 -82q-136 -86 -209 -223q-74 -142 -74 -307z" />
    <glyph glyph-name="R" unicode="R" horiz-adv-x="1372" 
d="M1300 0h-190l-442 604h-303v-604h-158v1493h518q130 0 233.5 -34.5t165.5 -96.5q125 -125 125 -305t-116.5 -291.5t-292.5 -134.5zM365 1346v-598h346q197 0 293 96q86 86 86 209q0 58 -19 108t-60.5 93t-117 67.5t-178.5 24.5h-350z" />
    <glyph glyph-name="S" unicode="S" horiz-adv-x="1222" 
d="M621 -14q-104 0 -201 35.5t-164 95.5q-69 60 -112 136.5t-52 154.5l148 41q24 -133 135 -224q109 -92 246 -92t229 66q48 33 76 87t28 120q0 139 -125 212q-60 35 -141 52l-196 39q-57 11 -132 43q-74 36 -122 84q-105 102 -105 258q0 124 68 219q64 93 174 147
q107 49 231 49q93 0 171.5 -22t132.5 -57.5t95 -83.5t63 -96t32 -99l-144 -45q-8 34 -23.5 67.5t-44.5 69t-67 61.5t-94.5 43t-122.5 17q-124 3 -219 -73.5t-94 -190.5q0 -89 55.5 -152t161.5 -84l188 -37q194 -38 291 -131q67 -61 98 -137q31 -79 31 -137
q1 -194 -142 -317.5t-353 -118.5z" />
    <glyph glyph-name="T" unicode="T" horiz-adv-x="1236" 
d="M696 1346v-1346h-155v1346h-500v147h1155v-147h-500z" />
    <glyph glyph-name="U" unicode="U" horiz-adv-x="1497" 
d="M1153 1493h158v-909q0 -281 -148 -441q-148 -157 -415 -157q-268 0 -412 159q-148 160 -148 428v920h156v-911q0 -237 119 -346q112 -103 293 -103q192 0 295 115q102 117 102 325v920z" />
    <glyph glyph-name="V" unicode="V" horiz-adv-x="1464" 
d="M1419 1493l-600 -1493h-174l-600 1493h172l516 -1317l518 1317h168z" />
    <glyph glyph-name="W" unicode="W" horiz-adv-x="2187" 
d="M692 0h-172l-467 1493h164l391 -1268h4l394 1268h178l397 -1274h2l393 1274h158l-469 -1493h-174l-397 1282z" />
    <glyph glyph-name="X" unicode="X" horiz-adv-x="1361" 
d="M1165 0l-485 653l-481 -653h-185l574 764l-547 729h182l461 -614l457 614h182l-547 -727l572 -766h-183z" />
    <glyph glyph-name="Y" unicode="Y" horiz-adv-x="1413" 
d="M709 778l477 715h178l-578 -862v-631h-159v629l-578 864h189z" />
    <glyph glyph-name="Z" unicode="Z" horiz-adv-x="1226" 
d="M1147 143v-143h-1077v143l888 1207h-858v143h1043v-143l-893 -1207h897z" />
    <glyph glyph-name="bracketleft" unicode="[" horiz-adv-x="788" 
d="M197 -231v1873h522v-126h-377v-1618h377v-129h-522z" />
    <glyph glyph-name="backslash" unicode="\" horiz-adv-x="937" 
d="M63 1552h158l649 -1562h-153z" />
    <glyph glyph-name="bracketright" unicode="]" horiz-adv-x="788" 
d="M72 -231v129h377v1618h-377v126h522v-1873h-522z" />
    <glyph glyph-name="asciicircum" unicode="^" horiz-adv-x="1122" 
d="M846 860l-285 483l-285 -483h-174l396 633h127l395 -633h-174z" />
    <glyph glyph-name="underscore" unicode="_" horiz-adv-x="1017" 
d="M1018 -291h-1018v125h1018v-125z" />
    <glyph glyph-name="grave" unicode="`" horiz-adv-x="454" 
d="M424 1192h-143l-244 328h180z" />
    <glyph glyph-name="a" unicode="a" horiz-adv-x="1083" 
d="M500 588h282v67q0 123 -66 185.5t-194 62.5q-125 0 -192 -67q-62 -62 -74 -140l-143 31q2 43 40.5 108t102.5 117q48 37 119 60.5t151 23.5q280 0 371 -211q31 -73 31 -168v-286q0 -249 16 -371h-147q-15 84 -15 178q-129 -196 -344 -196q-153 0 -245 86q-97 85 -97 215
v10q0 79 37 138.5t98 92.5t128.5 48.5t140.5 15.5zM782 430v35h-284q-95 0 -166 -35q-39 -18 -62.5 -53.5t-23.5 -81.5q0 -85 63 -133q61 -49 156 -49q134 0 227 90q90 87 90 227z" />
    <glyph glyph-name="b" unicode="b" horiz-adv-x="1282" 
d="M1188 510q0 -139 -59 -258t-168 -193q-110 -73 -252 -73q-253 0 -396 229v-215h-145v1552h149v-753q153 237 392 237q104 0 195.5 -44t154.5 -120q61 -74 95 -168.5t34 -193.5zM680 115q160 0 260 112q96 116 96 279q0 109 -42 198.5t-124 143.5q-79 55 -190 55
q-101 2 -187 -53.5t-133.5 -146t-44.5 -191.5q0 -164 103 -279q103 -118 262 -118z" />
    <glyph glyph-name="c" unicode="c" horiz-adv-x="1171" 
d="M246 514q0 -109 44 -198t128 -144q83 -57 196 -57q124 0 209 63q32 23 64 62q45 59 67 118l138 -45q-36 -124 -156 -221q-60 -51 -145.5 -80.5t-178.5 -29.5q-144 -2 -263.5 66t-188 189t-66.5 269q0 146 72 272q71 124 190 191t262 67q171 0 304 -94q134 -100 163 -231
l-135 -45q-10 35 -34 72.5t-63.5 76t-102 63.5t-136.5 25q-161 0 -264 -112q-104 -113 -104 -277z" />
    <glyph glyph-name="d" unicode="d" horiz-adv-x="1282" 
d="M94 510q0 99 34.5 193.5t96.5 168.5q63 76 153.5 120t192.5 44q143 0 242 -71q88 -63 154 -160v747h147v-1552h-145v217q-139 -231 -398 -231q-104 0 -194.5 42t-153.5 115q-61 73 -95 168.5t-34 198.5zM602 115q154 -1 262 119.5t105 277.5q0 101 -47 190t-131 146
q-85 55 -189 55q-165 0 -258 -112q-98 -113 -98 -285q0 -107 42.5 -194t123.5 -142q82 -55 190 -55z" />
    <glyph glyph-name="e" unicode="e" horiz-adv-x="1157" 
d="M1067 463h-823q9 -151 112 -248q103 -100 252 -100q116 0 198.5 56t117.5 161l131 -41q-44 -146 -166 -228q-125 -81 -279 -81q-143 0 -264 71q-120 70 -184 193q-68 121 -68 264q0 139 64 258q61 121 178 195q113 73 254 73q153 0 262 -69q110 -67 164 -187
q53 -112 53 -268q0 -26 -2 -49zM246 590h674q-15 138 -103 229q-86 86 -227 86q-128 0 -228 -92q-98 -93 -116 -223z" />
    <glyph glyph-name="f" unicode="f" horiz-adv-x="690" 
d="M561 1425q-63 0 -112 -41q-58 -51 -58 -174v-192h266v-129h-266v-889h-147v889h-197v129h197v188q0 169 84 262q85 88 227 88q59 0 111 -18v-125q-38 12 -105 12z" />
    <glyph glyph-name="g" unicode="g" horiz-adv-x="1284" 
d="M967 14v213q-136 -231 -394 -231q-138 0 -251 72q-108 69 -168 188q-58 119 -58 258q0 135 58 254q60 120 170 193q109 75 249 75t244 -71q84 -60 152 -160v213h147v-993q0 -261 -143 -398q-146 -137 -387 -137q-191 0 -324 100q-136 105 -162 250l136 45q11 -44 34 -86
t62.5 -84t105 -68t146.5 -26q162 0 268 90q55 45 85 123t30 180zM604 127q157 0 260 115q105 114 105 274q2 99 -46 189t-133.5 145t-185.5 53q-166 0 -260 -110q-96 -108 -96 -281q-3 -161 96.5 -273.5t259.5 -111.5z" />
    <glyph glyph-name="h" unicode="h" horiz-adv-x="1206" 
d="M1051 0h-150v592q0 141 -72 225t-208 84q-134 0 -220 -92q-84 -93 -84 -229v-580h-149v1552h149v-716q119 200 349 200q180 0 284 -110q101 -116 101 -297v-629z" />
    <glyph glyph-name="i" unicode="i" horiz-adv-x="485" 
d="M164 1303q-33 38 -33 79q0 42 33 80q33 33 80 33q45 0 78 -33q32 -32 32 -80q0 -47 -32 -79q-33 -33 -78 -33q-47 0 -80 33zM168 0v1018h149v-1018h-149z" />
    <glyph glyph-name="j" unicode="j" horiz-adv-x="501" 
d="M145 1382q0 46 33.5 79.5t79.5 33.5q42 0 80 -33q31 -36 31 -80q0 -43 -31 -79q-38 -33 -80 -33q-48 0 -78 35q-35 30 -35 77zM184 1018h148v-1235q0 -143 -73.5 -217t-215.5 -74q-39 0 -94 14v123q30 -6 71 -6q78 0 121 42.5t43 119.5v1233z" />
    <glyph glyph-name="k" unicode="k" horiz-adv-x="1038" 
d="M324 510h-7v-510h-149v1554h149v-950l484 414h211l-537 -457l561 -561h-207z" />
    <glyph glyph-name="l" unicode="l" horiz-adv-x="485" 
d="M168 0v1554h149v-1554h-149z" />
    <glyph glyph-name="m" unicode="m" horiz-adv-x="1857" 
d="M1008 0h-146v598q0 133 -65 219q-69 84 -197 84q-131 0 -207 -94t-76 -227v-580h-149v1018h145v-176q67 100 145 147t185 47q111 0 196 -53t130 -152q129 205 358 205q179 0 279 -112q96 -113 96 -295v-629h-148v592q0 141 -65 223q-67 86 -199 86q-128 0 -205 -92
q-77 -89 -77 -223v-586z" />
    <glyph glyph-name="n" unicode="n" horiz-adv-x="1206" 
d="M1051 0h-150v592q0 141 -72 225t-208 84q-134 0 -220 -92q-84 -93 -84 -229v-580h-149v1018h145v-187q123 205 353 205q180 0 284 -110q101 -116 101 -297v-629z" />
    <glyph glyph-name="o" unicode="o" horiz-adv-x="1239" 
d="M616 -18q-141 0 -264 69q-120 71 -188 191q-70 119 -70 264q0 228 152 377q150 153 375 153q142 3 264 -68t193 -193t69 -263q1 -109 -40.5 -208t-113 -170t-170.5 -112.5t-207 -39.5zM621 115q160 0 268 114q104 113 104 277t-106 282q-108 117 -271 117
q-161 0 -266 -114q-104 -113 -104 -279q-2 -105 46 -196.5t135.5 -147t193.5 -53.5z" />
    <glyph glyph-name="p" unicode="p" horiz-adv-x="1282" 
d="M1188 510q0 -139 -59 -258t-168 -193q-110 -73 -252 -73q-252 0 -392 223v-711h-149v1520h145v-221q155 239 396 239q104 0 195.5 -44t154.5 -120q61 -74 95 -168.5t34 -193.5zM680 115q160 0 260 112q96 116 96 279q0 109 -42 198.5t-124 143.5q-79 55 -190 55
q-101 2 -187 -53.5t-133.5 -146t-44.5 -191.5q0 -164 103 -279q103 -118 262 -118z" />
    <glyph glyph-name="q" unicode="q" horiz-adv-x="1282" 
d="M94 510q0 99 34.5 193.5t96.5 168.5q63 76 153.5 120t192.5 44q143 0 246 -73q88 -66 152 -162v217h145v-1520h-147v717q-137 -229 -396 -229q-104 0 -194.5 42t-153.5 115q-61 73 -95 168.5t-34 198.5zM602 115q154 -1 262 119.5t105 277.5q0 101 -47 190t-131 146
q-85 55 -189 55q-165 0 -258 -112q-98 -113 -98 -285q0 -107 42.5 -194t123.5 -142q82 -55 190 -55z" />
    <glyph glyph-name="r" unicode="r" horiz-adv-x="724" 
d="M168 1018h145v-201q35 72 91 123t118 74q56 20 121 20q39 0 49 -4v-158q-20 5 -57 5q-87 0 -151 -33t-99 -89.5t-51.5 -120.5t-16.5 -136v-498h-149v1018z" />
    <glyph glyph-name="s" unicode="s" horiz-adv-x="935" 
d="M840 289q0 -137 -105 -219q-106 -86 -256 -86q-116 0 -198 41t-127 106q-52 70 -62 156l135 35q14 -83 76.5 -146t173.5 -63q85 0 150 47q61 43 61 121q0 61 -49 98q-45 37 -117 53l-155 35q-254 56 -254 266q0 76 35 138.5t92 97.5q107 67 219 67q210 -3 305 -135
q48 -66 61 -137l-135 -39q-15 60 -59 115q-55 65 -172 65q-84 0 -140 -47q-57 -45 -57 -115q0 -57 37.5 -88.5t110.5 -50.5l163 -37q53 -12 98.5 -34t84.5 -55t61.5 -81.5t22.5 -107.5z" />
    <glyph glyph-name="t" unicode="t" horiz-adv-x="724" 
d="M524 -8q-288 0 -288 272v623h-189v131h189v293h147v-293h258v-131h-258v-621q0 -143 166 -143q38 0 92 8v-123q-53 -16 -117 -16z" />
    <glyph glyph-name="u" unicode="u" horiz-adv-x="1204" 
d="M156 1018h147v-592q0 -142 74 -225q69 -84 209 -84q131 0 217 92t86 229v580h147v-1018h-145v186q-123 -206 -350 -206q-179 0 -285 112q-100 112 -100 297v629z" />
    <glyph glyph-name="v" unicode="v" horiz-adv-x="1114" 
d="M635 0h-158l-432 1018h164l348 -854l354 854h158z" />
    <glyph glyph-name="w" unicode="w" horiz-adv-x="1650" 
d="M823 827l-270 -827h-164l-340 1018h156l268 -844l277 844h151l277 -846h2l270 846h154l-344 -1018h-164l-271 827h-2z" />
    <glyph glyph-name="x" unicode="x" horiz-adv-x="1050" 
d="M840 0l-316 414l-315 -414h-174l403 518l-387 500h174l301 -395l301 395h172l-385 -498l402 -520h-176z" />
    <glyph glyph-name="y" unicode="y" horiz-adv-x="1132" 
d="M401 -502h-161l264 572l-463 948h170l373 -787l354 787h160z" />
    <glyph glyph-name="z" unicode="z" horiz-adv-x="980" 
d="M256 127h639v-127h-815v127l635 764h-621v127h799v-127z" />
    <glyph glyph-name="braceleft" unicode="{" horiz-adv-x="804" 
d="M41 641v131q114 3 186 53q85 59 64 205l-31 213q-12 68 -7.5 122.5t16 96.5t38.5 73t59.5 52t79 34t98 18.5t115.5 5.5h74v-129h-61q-137 0 -200 -33t-71 -103q-6 -73 11 -176l26 -174q1 -27 3 -62.5t-11.5 -77t-34 -77.5t-65 -65.5t-105.5 -40.5v-2q51 -9 90.5 -29.5
t62.5 -47t39 -57.5t20 -62t6 -61.5t-3 -54.5l-28 -184q-17 -103 -11 -176q6 -69 70 -103q66 -32 201 -32h61v-129h-74q-114 0 -191.5 18t-133 62.5t-73.5 124t-1 196.5l31 213q35 250 -250 258z" />
    <glyph glyph-name="bar" unicode="|" horiz-adv-x="538" 
d="M197 -221v1921h145v-1921h-145z" />
    <glyph glyph-name="braceright" unicode="}" horiz-adv-x="804" 
d="M764 772v-131q-285 -8 -250 -258l31 -213q34 -236 -74 -322q-55 -42 -131.5 -60.5t-192.5 -18.5h-75v129h63q135 0 198.5 32.5t69.5 102.5q8 66 -10 176l-26 184q-2 30 -3.5 65.5t12 74.5t35 73t66 61t105.5 38v2q-51 9 -90.5 31.5t-62.5 50.5t-39 61.5t-19.5 66
t-5.5 62.5t4 51l24 174q18 110 10 176q-6 69 -67 103q-71 33 -201 33h-63v129h75q113 0 190.5 -18.5t132.5 -62.5t73.5 -124t1.5 -197l-31 -213q-18 -148 64 -205q72 -50 186 -53z" />
    <glyph glyph-name="asciitilde" unicode="~" horiz-adv-x="1220" 
d="M821 438q-55 0 -119 27q-50 19 -108 57q-65 42 -102 60q-56 24 -99 24t-75.5 -19t-73.5 -63l-92 88q44 67 109.5 106.5t139.5 39.5q53 0 129 -27q73 -31 109 -59q58 -37 98 -58q51 -26 92 -26q43 0 77 21t75 67l92 -88q-42 -70 -108.5 -110t-143.5 -40z" />
    <glyph glyph-name="uni00A0" unicode="&#xa0;" horiz-adv-x="532" 
 />
    <glyph glyph-name="exclamdown" unicode="&#xa1;" horiz-adv-x="503" 
d="M174 846q-33 29 -33 78q0 51 33 80q32 32 78 32t79.5 -33t33.5 -79q0 -40 -33 -78q-33 -33 -80 -33q-49 0 -78 33zM322 586l8 -797v-262h-156v262l8 797h140z" />
    <glyph glyph-name="cent" unicode="&#xa2;" horiz-adv-x="1187" 
d="M963 358l137 -45q-31 -115 -139 -209q-117 -105 -289 -120v-179h-123v183q-193 21 -322 168q-125 146 -125 350t127 352q130 146 320 172v184h123v-180q158 -12 276 -104q119 -96 148 -219l-138 -45q-20 67 -84 137q-80 83 -204 98v-784q155 22 231 133q39 50 62 108z
M256 514q0 -146 80 -258q82 -111 215 -135v776q-133 -24 -213 -133q-82 -107 -82 -250z" />
    <glyph glyph-name="sterling" unicode="&#xa3;" horiz-adv-x="1234" 
d="M1001 367l148 -17q0 -196 -166 -299q-85 -51 -197 -51h-671v145q107 53 174 158q67 104 67 219q0 64 -18 137h-217v144h170q-7 20 -19 52.5t-16 45.5q-16 46 -23 92q-12 55 -12 103q-1 85 34.5 163t95.5 132.5t140.5 86t165.5 29.5q197 0 306 -100q110 -101 116 -260
l-149 -27q-6 93 -58 162q-65 82 -210 82q-118 0 -199 -78q-80 -80 -80 -194q0 -41 6 -68q2 -19 17 -72q3 -12 12 -39q10 -30 12 -34q0 -2 1.5 -7t5 -14.5t5.5 -17.5l15 -37h417v-144h-372q16 -72 16 -129q0 -238 -188 -385h436q137 0 190 78q45 64 45 144z" />
    <glyph glyph-name="currency" unicode="&#xa4;" horiz-adv-x="1263" 
d="M1090 514q0 -150 -99 -270l160 -162l-92 -92l-166 166q-115 -78 -262 -78q-145 0 -260 78l-166 -166l-92 92l161 164q-96 113 -96 268q0 153 94 272l-159 160l92 94l164 -166q116 82 262 82q145 0 264 -79l164 163l92 -94l-160 -160q99 -120 99 -272zM317 514
q0 -132 91 -217q86 -86 223 -86t229 86q90 84 90 217q0 134 -92 223q-88 88 -227 88q-138 0 -223 -88q-91 -91 -91 -223z" />
    <glyph glyph-name="yen" unicode="&#xa5;" horiz-adv-x="1404" 
d="M1243 385v-127h-463v-258h-157v258h-461v127h461v188h-461v127h416l-506 793h190l443 -723l448 723h180l-508 -793h418v-127h-463v-188h463z" />
    <glyph glyph-name="brokenbar" unicode="&#xa6;" horiz-adv-x="532" 
d="M338 954h-143v746h143v-746zM195 -221v743h143v-743h-143z" />
    <glyph glyph-name="section" unicode="&#xa7;" horiz-adv-x="1239" 
d="M217 1214q0 75 34 133.5t90 92.5t121.5 51.5t135.5 17.5q99 0 185.5 -29t142.5 -77q111 -97 129 -205l-135 -33q-18 82 -107 146q-84 63 -219 63q-116 0 -182 -63q-37 -37 -37 -90q0 -60 61.5 -99.5t188.5 -72.5l184 -48q108 -24 199 -69q48 -25 77 -51q68 -65 68 -152
q0 -71 -43 -125t-102.5 -81t-130.5 -38q71 -35 112 -88t41 -118q0 -74 -33.5 -134t-91.5 -96q-112 -74 -256 -74q-105 0 -196 33.5t-150 89.5q-115 109 -137 232l135 35q22 -98 109 -172q95 -82 243 -82q115 0 183 71q38 38 38 90q0 67 -86 113q-42 23 -131 49
q-39 12 -75 21l-99 24q-55 15 -96 27q-26 8 -90 31q-40 16 -82 41q-124 75 -121 186q0 108 90 172q85 57 187 72q-70 36 -112 89.5t-42 116.5zM772 565q100 0 164 43q63 41 63 103q0 56 -65 100q-64 43 -232 84q-145 33 -227 33q-101 0 -162 -43q-65 -44 -65 -103
q0 -55 67 -98q70 -47 230 -86q132 -33 227 -33z" />
    <glyph glyph-name="dieresis" unicode="&#xa8;" horiz-adv-x="636" 
d="M213 1223q-35 -34 -79 -34t-79 34q-34 34 -34 80.5t34 80.5q35 34 79 34t79 -34q34 -34 34 -80.5t-34 -80.5zM575 1223q-34 -34 -77.5 -34t-77.5 34q-35 34 -35 80.5t35 80.5q34 34 77.5 34t77.5 -34t34 -80.5t-34 -80.5z" />
    <glyph glyph-name="copyright" unicode="&#xa9;" horiz-adv-x="1720" 
d="M1153 45q-138 -60 -293 -60t-293 60q-140 61 -241 162q-101 104 -162 244q-60 145 -60 294q0 152 60 297q63 145 162 244q106 106 241 162q137 61 293 61t293 -61q137 -57 242 -162q99 -99 159 -244q60 -138 60 -297q0 -156 -60 -294q-58 -140 -159 -244
q-100 -100 -242 -162zM1192 1327q-148 90 -332 90t-332 -90q-150 -89 -237 -244q-86 -157 -86 -338q0 -141 51 -260q47 -120 137 -213q86 -89 209 -143q124 -53 258 -53q135 0 256 53q119 51 211 143q90 93 137 213q52 122 52 260q0 181 -86 338q-86 155 -238 244zM1159 616
l135 -45q-38 -120 -151 -206q-118 -89 -279 -89q-203 0 -334 134q-133 133 -133 333q-2 133 62.5 244t174 173t236.5 59q152 0 271 -82q120 -88 147 -209l-131 -43q-17 62 -86 131q-79 76 -207 76q-138 0 -229 -99q-90 -104 -90 -241q0 -145 88 -246q84 -100 231 -100
q138 0 211 79q60 62 84 131z" />
    <glyph glyph-name="ordfeminine" unicode="&#xaa;" horiz-adv-x="1079" 
d="M768 856h-4q-33 -59 -99 -95t-147 -36q-153 0 -248 109q-96 105 -96 258q0 143 94 251q45 53 111 84t139 31q80 0 145 -36.5t101 -98.5h4v123h135v-711h-135v121zM768 1094q0 96 -66 168q-65 71 -159 71q-103 0 -166 -69q-64 -67 -64 -174q0 -98 66 -170q64 -70 164 -70
q99 0 162 72q63 69 63 172zM154 524h725v-125h-725v125z" />
    <glyph glyph-name="guillemotleft" unicode="&#xab;" horiz-adv-x="1081" 
d="M90 573l344 347l90 -91l-241 -251l241 -252l-90 -90zM510 573l344 347l90 -91l-242 -251l242 -252l-90 -90z" />
    <glyph glyph-name="logicalnot" unicode="&#xac;" horiz-adv-x="1255" 
d="M956 502v354h-837v139h979v-493h-142z" />
    <glyph glyph-name="uni00AD" unicode="&#xad;" horiz-adv-x="831" 
d="M143 518v158h545v-158h-545z" />
    <glyph glyph-name="registered" unicode="&#xae;" horiz-adv-x="1173" 
d="M586 522q-129 0 -244 68q-110 64 -176 178q-64 113 -64 248q0 99 37.5 190t104.5 158q65 67 155 105t187 38q128 3 241.5 -64.5t180 -182t63.5 -244.5q3 -130 -63.5 -245.5t-179.5 -183t-242 -65.5zM586 1434q-167 0 -287 -123q-119 -122 -119 -295q-3 -111 52.5 -209.5
t151 -156t202.5 -54.5q107 -3 202 54.5t151.5 156t53.5 209.5q0 170 -119 295q-120 123 -288 123zM391 1311h201q100 0 156.5 -50.5t56.5 -130.5q0 -66 -38 -110t-101 -59l163 -242h-112l-154 225h-76v-225h-96v592zM680 1065q28 27 30 64t-30 65t-92 25h-101v-185h101
q67 3 92 31z" />
    <glyph glyph-name="degree" unicode="&#xb0;" horiz-adv-x="870" 
d="M434 840q-139 0 -233 98q-99 99 -99 238q0 134 99 233q96 96 233 96q142 0 238 -96q96 -101 96 -233q0 -142 -96 -238q-98 -98 -238 -98zM434 1380q-86 0 -145 -59q-60 -60 -60 -145q0 -88 60 -148q58 -61 145 -61t148 61q59 62 59 148q0 82 -61 143q-64 61 -146 61z" />
    <glyph glyph-name="plusminus" unicode="&#xb1;" horiz-adv-x="1241" 
d="M549 778v344h145v-344h412v-139h-412v-350h-145v350h-414v139h414zM139 156v-138h965v138h-965z" />
    <glyph glyph-name="uni00B2" unicode="&#xb2;" horiz-adv-x="890" 
d="M127 811v41q3 95 47 158q27 44 70 80q37 33 39 34q23 18 47 33q35 21 45 29q4 2 10.5 5.5t17.5 10.5t21 12q13 7 27.5 15.5t17.5 9.5q145 88 145 184q0 64 -45 109q-49 43 -123 43q-86 0 -131 -45t-51 -125l-127 18q6 116 87 195.5t225 79.5q131 0 217 -80
q82 -76 82 -191q0 -74 -45 -145t-121 -119l-150 -92q-131 -81 -137 -139h459v-121h-627z" />
    <glyph glyph-name="uni00B3" unicode="&#xb3;" horiz-adv-x="860" 
d="M745 1067q0 -83 -49 -147q-44 -61 -121 -97q-75 -32 -153 -32q-132 0 -219 75t-99 207l125 21q8 -87 58.5 -135t136.5 -48q74 0 131 45q55 46 55 119q0 67 -53 109q-56 41 -125 41q-48 0 -86 -21l-63 101l295 254h-449v120h602v-141l-237 -203q107 -15 180 -88
q71 -74 71 -180z" />
    <glyph glyph-name="acute" unicode="&#xb4;" horiz-adv-x="456" 
d="M246 1520h182l-246 -328h-141z" />
    <glyph glyph-name="uni00B5" unicode="&#xb5;" horiz-adv-x="1259" 
d="M338 1018v-592q0 -144 72 -225q69 -84 208 -84q131 0 220 92q84 93 84 229v580h147v-1018h-145v186q-120 -206 -351 -206q-146 0 -237 73v-366h-148v1331h150z" />
    <glyph glyph-name="paragraph" unicode="&#xb6;" horiz-adv-x="966" 
d="M598 727h-143q-158 0 -271 113q-112 112 -112 272q0 161 112 270q111 111 271 111h295v-1493h-152v727z" />
    <glyph glyph-name="middot" unicode="&#xb7;" horiz-adv-x="559" 
d="M182 506q-39 39 -39 98q0 57 39 96t97 39q56 0 98 -39q39 -39 39 -96q0 -59 -39 -98q-42 -39 -98 -39q-58 0 -97 39z" />
    <glyph glyph-name="uni00B9" unicode="&#xb9;" horiz-adv-x="579" 
d="M303 1679h119v-868h-133v725l-178 -102l-60 98z" />
    <glyph glyph-name="ordmasculine" unicode="&#xba;" horiz-adv-x="1058" 
d="M528 725q-156 0 -262 106q-108 105 -108 259q0 157 108 262q106 106 264 106q156 0 263 -104q108 -108 108 -258q0 -160 -108 -265q-106 -106 -265 -106zM528 1333q-99 0 -163 -67q-66 -69 -66 -170q0 -102 66 -174q69 -72 165 -72q99 0 166 70q64 70 64 170t-66 172
q-62 71 -166 71zM168 524h723v-125h-723v125z" />
    <glyph glyph-name="guillemotright" unicode="&#xbb;" horiz-adv-x="1069" 
d="M227 236l-92 90l244 247l-244 256l92 91l344 -347zM635 236l-90 90l243 247l-243 256l90 91l344 -347z" />
    <glyph glyph-name="onequarter" unicode="&#xbc;" horiz-adv-x="1644" 
d="M305 625v725l-180 -105l-57 98l249 150h121v-868h-133zM1313 1493l-975 -1493h-152l975 1493h152zM1243 870h162v-559h158v-121h-158v-190h-131v190h-475v148zM934 311h340v408z" />
    <glyph glyph-name="onehalf" unicode="&#xbd;" horiz-adv-x="1662" 
d="M307 625v725l-180 -105l-57 98l249 150h121v-868h-133zM322 0h-152l973 1493h151zM1104 121h461v-121h-629v41q7 100 47 158q36 52 70 80q49 41 86 65q8 6 47 29q4 2 20 11.5t27 16.5q21 11 45 29q145 84 145 184q0 63 -45 105q-51 45 -121 45q-86 0 -131 -45t-51 -125
l-129 18q9 118 88 197q81 78 226 78q129 0 215 -80q81 -78 81 -191q0 -76 -44.5 -147t-120.5 -119l-150 -90q-128 -76 -137 -139z" />
    <glyph glyph-name="threequarters" unicode="&#xbe;" horiz-adv-x="1845" 
d="M727 881q0 -83 -47 -148q-51 -66 -121 -96q-70 -33 -153 -33q-134 0 -222 76q-86 74 -98 207l125 20q9 -88 59.5 -135t137.5 -47q75 0 129 45q57 45 57 117q0 68 -55 108q-52 41 -123 41q-48 0 -88 -18l-62 100l295 254h-448v121h600v-141l-238 -205q109 -12 180 -86
q72 -75 72 -180zM1370 1493h152l-975 -1493h-152zM1008 338l444 532h162v-559h158v-121h-158v-190h-131v190h-475v148zM1483 311v408l-340 -408h340z" />
    <glyph glyph-name="questiondown" unicode="&#xbf;" horiz-adv-x="1013" 
d="M649 924q0 -45 -33 -78q-29 -33 -77 -33q-46 0 -79.5 32.5t-33.5 78.5t33.5 79t79.5 33t78 -33t32 -79zM459 586h145q2 -14 2 -33q0 -77 -22 -133q-27 -62 -60 -101q-28 -36 -32 -40q-5 -4 -18.5 -17.5t-22.5 -21.5q-16 -18 -35 -37l-43 -43q-11 -11 -26 -27t-19 -20
q-15 -15 -39 -45q-40 -50 -53 -105q-11 -37 -11 -63q0 -100 72 -172q75 -72 209 -72q140 0 217 92q79 91 70 232l151 -7q2 -20 2 -45q0 -120 -59 -215q-57 -92 -162 -151q-108 -51 -219 -51q-96 0 -179.5 31t-142.5 85q-116 113 -116 273q0 112 63 196q19 27 66 86
q10 10 40.5 41.5t51.5 52.5l14 15q16 16 37.5 38t26.5 27q27 31 45 62q47 66 47 168z" />
    <glyph glyph-name="Agrave" unicode="&#xc0;" horiz-adv-x="1478" 
d="M811 1630h-141l-246 328h180zM827 1493l646 -1493h-166l-164 381h-813l-164 -381h-160l643 1493h178zM1083 524l-348 807l-346 -807h694z" />
    <glyph glyph-name="Aacute" unicode="&#xc1;" horiz-adv-x="1478" 
d="M872 1958h183l-246 -328h-143zM827 1493l646 -1493h-166l-164 381h-813l-164 -381h-160l643 1493h178zM1083 524l-348 807l-346 -807h694z" />
    <glyph glyph-name="Acircumflex" unicode="&#xc2;" horiz-adv-x="1478" 
d="M659 1956h150l262 -328h-160l-172 225h-4l-172 -225h-157zM827 1493l646 -1493h-166l-164 381h-813l-164 -381h-160l643 1493h178zM1083 524l-348 807l-346 -807h694z" />
    <glyph glyph-name="Atilde" unicode="&#xc3;" horiz-adv-x="1478" 
d="M864 1669q-70 0 -127 45q-58 47 -123 47q-60 0 -75 -92h-109q3 99 47 160q43 61 137 61q42 2 128.5 -46t123.5 -46q63 0 84 88h94q-3 -98 -45 -157q-45 -60 -135 -60zM827 1493l646 -1493h-166l-164 381h-813l-164 -381h-160l643 1493h178zM1083 524l-348 807l-346 -807
h694z" />
    <glyph glyph-name="Adieresis" unicode="&#xc4;" horiz-adv-x="1478" 
d="M623 1669q-34 -34 -78 -34t-78 34q-35 34 -35 81t35 81q34 34 78 34t78 -34t34 -81t-34 -81zM1004 1669q-34 -34 -78 -34t-78 34t-34 81t34 81t78 34t78 -34q35 -34 35 -81t-35 -81zM827 1493l646 -1493h-166l-164 381h-813l-164 -381h-160l643 1493h178zM1083 524
l-348 807l-346 -807h694z" />
    <glyph glyph-name="Aring" unicode="&#xc5;" horiz-adv-x="1478" 
d="M6 0l600 1393q-62 34 -98.5 94t-36.5 131q0 106 78 178q79 76 186 76q110 0 189 -76q80 -74 80 -178q0 -68 -36.5 -127.5t-97.5 -93.5l603 -1397h-166l-164 381h-813l-164 -381h-160zM735 1765q-65 0 -108 -43t-43 -104q0 -64 43 -107q45 -45 108 -45q64 0 109 45
q45 42 45 107q0 60 -45 102q-45 45 -109 45zM389 524h694l-348 807z" />
    <glyph glyph-name="AE" unicode="&#xc6;" horiz-adv-x="1996" 
d="M1874 1348h-778v-517h710v-145h-710v-541h786l-2 -145h-938v381h-571l-217 -381h-170l856 1493h1034v-145zM922 1352l-471 -828h491v828h-20z" />
    <glyph glyph-name="Ccedilla" unicode="&#xc7;" horiz-adv-x="1599" 
d="M1376 532l150 -53q-31 -121 -125 -239q-50 -64 -119 -117q-69 -55 -165.5 -91.5t-205.5 -43.5q66 -81 66 -172q0 -129 -88 -205q-91 -76 -225 -76q-73 0 -144 23v116q57 -16 129 -16q94 0 144.5 47t50.5 133q0 83 -64 150q-140 10 -264.5 69.5t-216.5 157.5
q-94 100 -145.5 235.5t-51.5 290.5q0 167 62 312q63 148 164 243q102 99 237 156q134 57 291 57q114 0 217.5 -31t177.5 -83q69 -46 131 -115q101 -117 140 -262l-150 -53q-21 85 -88 180q-46 63 -96 104q-59 49 -144 78q-85 33 -192 33q-117 0 -224 -44.5t-188 -123.5
q-81 -81 -127.5 -196t-46.5 -244q-2 -172 75 -315t212.5 -225t298.5 -79q97 0 183.5 29.5t144.5 75.5q58 45 98 102q39 53 63 102q27 65 35 90z" />
    <glyph glyph-name="Egrave" unicode="&#xc8;" 
d="M778 1630h-143l-244 328h182zM1075 831v-145h-710v-541h784v-145h-942v1493h936v-145h-778v-517h710z" />
    <glyph glyph-name="Eacute" unicode="&#xc9;" 
d="M784 1958h181l-244 -328h-143zM365 1348v-517h710v-145h-710v-541h784v-145h-942v1493h936v-145h-778z" />
    <glyph glyph-name="Ecircumflex" unicode="&#xca;" 
d="M602 1956h148l262 -328h-158l-174 225h-4l-170 -225h-160zM1075 831v-145h-710v-541h784v-145h-942v1493h936v-145h-778v-517h710z" />
    <glyph glyph-name="Edieresis" unicode="&#xcb;" 
d="M561 1669q-34 -34 -77.5 -34t-77.5 34q-35 34 -35 81t35 81q34 34 77.5 34t77.5 -34t34 -81t-34 -81zM942 1669q-34 -34 -78 -34t-78 34t-34 81t34 81t78 34t78 -34q35 -34 35 -81t-35 -81zM1075 831v-145h-710v-541h784v-145h-942v1493h934v-145h-776v-517h710z" />
    <glyph glyph-name="Igrave" unicode="&#xcc;" horiz-adv-x="571" 
d="M358 1630h-143l-244 328h181zM365 1493v-1493h-158v1493h158z" />
    <glyph glyph-name="Iacute" unicode="&#xcd;" horiz-adv-x="571" 
d="M420 1958h180l-244 -328h-143zM207 0v1493h158v-1493h-158z" />
    <glyph glyph-name="Icircumflex" unicode="&#xce;" horiz-adv-x="571" 
d="M209 1956h147l262 -328h-157l-174 225h-4l-170 -225h-160zM365 1493v-1493h-158v1493h158z" />
    <glyph glyph-name="Idieresis" unicode="&#xcf;" horiz-adv-x="571" 
d="M174 1669q-35 -34 -79.5 -34t-78.5 34t-34 81t34 81t78.5 34t79.5 -34q34 -34 34 -81t-34 -81zM555 1669q-34 -34 -78 -34t-78 34q-35 34 -35 81t35 81q34 34 78 34t78 -34t34 -81t-34 -81zM365 1493v-1493h-158v1493h158z" />
    <glyph glyph-name="Eth" unicode="&#xd0;" horiz-adv-x="1564" 
d="M229 1493h445q176 0 319 -57q146 -55 250 -156t161.5 -238t57.5 -292q0 -218 -106 -392q-107 -173 -285 -264q-178 -94 -397 -94h-445v686h-200v145h200v662zM387 147h281q182 0 329 78q145 77 224 211t79 309q0 171 -77.5 308.5t-221.5 214.5q-141 78 -335 78h-279v-515
h365v-145h-365v-539z" />
    <glyph glyph-name="Ntilde" unicode="&#xd1;" horiz-adv-x="1634" 
d="M983 1669q-72 0 -129 45q-58 47 -123 47q-61 0 -76 -92h-106q0 98 45 160q46 61 137 61q42 2 129 -46t123 -46q66 0 84 88h94q-3 -98 -45 -157q-45 -60 -133 -60zM207 0v1493h184l881 -1255v1255h155v-1493h-172l-890 1270v-1270h-158z" />
    <glyph glyph-name="Ograve" unicode="&#xd2;" horiz-adv-x="1708" 
d="M936 1630h-143l-244 328h180zM1606 750q0 -212 -99 -388q-92 -171 -270 -276q-173 -102 -385 -102q-158 0 -297 59q-140 58 -238 162q-97 94 -157 239q-58 147 -58 297q0 211 99 387q101 179 270 279t385 100q163 0 297 -57q136 -60 240 -160q96 -102 155 -241
q58 -140 58 -299zM1442 741q0 124 -43 237.5t-121 199.5t-189 135t-237 49q-125 0 -235.5 -48t-186.5 -132q-77 -84 -120.5 -196.5t-43.5 -235.5q0 -166 74 -308q73 -139 211 -227q137 -84 305 -84q166 0 303 84q133 78 209 221q74 139 74 305z" />
    <glyph glyph-name="Oacute" unicode="&#xd3;" horiz-adv-x="1708" 
d="M979 1958h180l-246 -328h-141zM1606 750q0 -212 -99 -388q-92 -171 -270 -276q-173 -102 -385 -102q-158 0 -297 59q-140 58 -238 162q-97 94 -157 239q-58 147 -58 297q0 211 99 387q101 179 270 279t385 100q163 0 297 -57q136 -60 240 -160q96 -102 155 -241
q58 -140 58 -299zM1442 741q0 124 -43 237.5t-121 199.5t-189 135t-237 49q-125 0 -235.5 -48t-186.5 -132q-77 -84 -120.5 -196.5t-43.5 -235.5q0 -166 74 -308q73 -139 211 -227q137 -84 305 -84q166 0 303 84q133 78 209 221q74 139 74 305z" />
    <glyph glyph-name="Ocircumflex" unicode="&#xd4;" horiz-adv-x="1708" 
d="M776 1956h148l262 -328h-158l-174 225h-4l-170 -225h-158zM1606 750q0 -212 -99 -388q-92 -171 -270 -276q-173 -102 -385 -102q-158 0 -297 59q-140 58 -238 162q-97 94 -157 239q-58 147 -58 297q0 211 99 387q101 179 270 279t385 100q163 0 297 -57q136 -60 240 -160
q96 -102 155 -241q58 -140 58 -299zM1442 741q0 124 -43 237.5t-121 199.5t-189 135t-237 49q-125 0 -235.5 -48t-186.5 -132q-77 -84 -120.5 -196.5t-43.5 -235.5q0 -166 74 -308q73 -139 211 -227q137 -84 305 -84q166 0 303 84q133 78 209 221q74 139 74 305z" />
    <glyph glyph-name="Otilde" unicode="&#xd5;" horiz-adv-x="1708" 
d="M981 1669q-68 0 -129 45q-58 47 -121 47q-61 0 -76 -92h-108q3 99 47 160q43 61 135 61q42 2 129.5 -46t124.5 -46q63 0 84 88h92q0 -96 -43 -157q-45 -60 -135 -60zM1606 750q0 -212 -99 -388q-92 -171 -270 -276q-173 -102 -385 -102q-158 0 -297 59q-140 58 -238 162
q-97 94 -157 239q-58 147 -58 297q0 211 99 387q101 179 270 279t385 100q163 0 297 -57q136 -60 240 -160q96 -102 155 -241q58 -140 58 -299zM1442 741q0 124 -43 237.5t-121 199.5t-189 135t-237 49q-125 0 -235.5 -48t-186.5 -132q-77 -84 -120.5 -196.5t-43.5 -235.5
q0 -166 74 -308q73 -139 211 -227q137 -84 305 -84q166 0 303 84q133 78 209 221q74 139 74 305z" />
    <glyph glyph-name="Odieresis" unicode="&#xd6;" horiz-adv-x="1705" 
d="M743 1669q-35 -34 -78.5 -34t-78.5 34q-34 34 -34 81t34 81q35 34 78.5 34t78.5 -34q34 -34 34 -81t-34 -81zM1124 1669q-34 -34 -77.5 -34t-77.5 34q-35 34 -35 81t35 81q34 34 77.5 34t77.5 -34t34 -81t-34 -81zM1604 750q0 -208 -97 -388q-98 -175 -270 -276
q-175 -102 -387 -102q-155 0 -297 59q-142 60 -238 162q-95 95 -155 239q-58 147 -58 297q0 211 99 387q96 178 270 279q169 100 385 100q160 0 297 -57q141 -63 238 -160q101 -107 155 -241q58 -140 58 -299zM1442 741q0 124 -43 237.5t-121 199.5t-189.5 135t-238.5 49
q-162 0 -301 -82q-136 -86 -209 -223q-74 -142 -74 -307q0 -123 43.5 -237t120.5 -198q78 -86 189 -135t237 -49q164 0 301 84q135 78 211 221q74 139 74 305z" />
    <glyph glyph-name="multiply" unicode="&#xd7;" horiz-adv-x="1185" 
d="M231 1145l363 -367l360 367l97 -98l-363 -361l363 -362l-97 -99l-360 365l-363 -365l-94 99l363 362l-363 361z" />
    <glyph glyph-name="Oslash" unicode="&#xd8;" horiz-adv-x="1716" 
d="M1614 1473l-193 -213q90 -102 139.5 -233.5t49.5 -276.5q0 -208 -97 -388q-99 -175 -272 -276q-173 -102 -385 -102q-259 0 -457 151l-196 -211l-97 92l193 211q-190 212 -190 514q0 209 96 387q101 179 270 279q172 100 385 100q262 0 463 -155l195 213zM270 750
q0 -228 138 -404l811 891q-152 125 -363 125q-161 0 -303 -82q-133 -84 -207 -223q-76 -146 -76 -307zM1446 741q0 233 -133 400l-811 -889q154 -121 358 -121q166 0 303 84q133 78 209 221q74 133 74 305z" />
    <glyph glyph-name="Ugrave" unicode="&#xd9;" horiz-adv-x="1499" 
d="M831 1630h-143l-244 328h181zM1311 1493v-909q0 -284 -148 -441t-413 -157q-270 0 -414 159q-148 160 -148 428v920h158v-911q0 -240 119 -346q112 -103 291 -103q195 0 295 115q104 116 104 325v920h156z" />
    <glyph glyph-name="Uacute" unicode="&#xda;" horiz-adv-x="1499" 
d="M874 1958h181l-246 -328h-141zM1155 573v920h156v-909q0 -284 -148 -441t-413 -157q-270 0 -414 159q-148 160 -148 428v920h158v-911q0 -240 119 -346q112 -103 291 -103q195 0 295 115q104 116 104 325z" />
    <glyph glyph-name="Ucircumflex" unicode="&#xdb;" horiz-adv-x="1499" 
d="M672 1956h147l262 -328h-157l-174 225h-5l-170 -225h-157zM1311 1493v-909q0 -284 -148 -441t-413 -157q-270 0 -414 159q-148 160 -148 428v920h158v-911q0 -240 119 -346q112 -103 291 -103q195 0 295 115q104 116 104 325v920h156z" />
    <glyph glyph-name="Udieresis" unicode="&#xdc;" horiz-adv-x="1497" 
d="M637 1669q-34 -34 -78 -34t-78 34q-35 34 -35 81t35 81q34 34 78 34t78 -34t34 -81t-34 -81zM1018 1669q-34 -34 -78 -34t-78 34t-34 81t34 81t78 34t78 -34q35 -34 35 -81t-35 -81zM1311 1493v-909q0 -281 -148 -441q-148 -157 -415 -157q-268 0 -412 159
q-148 160 -148 428v920h156v-911q0 -237 119 -346q112 -103 293 -103q192 0 295 115q102 117 102 325v920h158z" />
    <glyph glyph-name="Yacute" unicode="&#xdd;" horiz-adv-x="1413" 
d="M831 1958h183l-246 -328h-143zM1186 1493h180l-580 -862v-631h-157v629l-580 864h189l473 -715z" />
    <glyph glyph-name="Thorn" unicode="&#xde;" horiz-adv-x="1296" 
d="M1229 760q0 -197 -137 -328q-67 -64 -174 -99.5t-238 -35.5h-315v-297h-158v1493h158v-285l342 -2q128 0 231 -36.5t166 -100.5q125 -128 125 -309zM1071 754q0 155 -117 241q-93 66 -260 66h-329v-621h321q95 0 173 27.5t124 73.5q88 91 88 213z" />
    <glyph glyph-name="germandbls" unicode="&#xdf;" horiz-adv-x="1214" 
d="M1151 276q0 -131 -98 -213q-98 -79 -236 -79q-78 0 -143.5 25t-104.5 67q-80 86 -80 188l136 33q2 -30 11.5 -58.5t29.5 -59t59.5 -49.5t93.5 -19q72 0 127 43q53 39 53 112q0 80 -61 125q-10 8 -20.5 15t-20.5 14t-14 10q-11 7 -68 33q-6 2 -10 6l-19 8q-71 35 -129 72
q-79 67 -79 174q-5 77 59 154q6 9 39 38q9 7 22 17.5t17 13.5q18 14 43 31l20 16q56 38 92 76q41 47 41 117q0 107 -84 176q-81 63 -198 63q-101 0 -174 -53.5t-106.5 -135.5t-33.5 -179v-1057h-147v1071q0 221 125 352q121 133 336 133q167 0 297 -88q63 -46 100 -118
t37 -160q0 -107 -59 -182q-48 -58 -121 -107l-21 -14q-84 -60 -100 -80q-29 -29 -29 -74q0 -58 45 -88q15 -13 47 -29q16 -9 70 -32l18 -9q104 -43 170 -118q68 -77 68 -181z" />
    <glyph glyph-name="agrave" unicode="&#xe0;" horiz-adv-x="1083" 
d="M618 1192h-143l-244 328h181zM782 588v67q0 123 -66 185.5t-194 62.5q-125 0 -192 -67q-62 -62 -74 -140l-143 31q2 43 40.5 108t102.5 117q48 37 119 60.5t151 23.5q280 0 371 -211q31 -73 31 -168v-286q0 -249 16 -371h-147q-15 84 -15 178q-129 -196 -344 -196
q-153 0 -245 86q-97 85 -97 215v10q0 79 37 138.5t98 92.5t128.5 48.5t140.5 15.5h282zM782 465h-284q-95 0 -166 -35q-39 -18 -62.5 -53.5t-23.5 -81.5q0 -85 63 -133q61 -49 156 -49q134 0 227 90q90 87 90 227v35z" />
    <glyph glyph-name="aacute" unicode="&#xe1;" horiz-adv-x="1083" 
d="M641 1520h180l-243 -328h-144zM782 588v67q0 123 -66 185.5t-194 62.5q-125 0 -192 -67q-62 -62 -74 -140l-143 31q2 43 40.5 108t102.5 117q48 37 119 60.5t151 23.5q280 0 371 -211q31 -73 31 -168v-286q0 -249 16 -371h-147q-15 84 -15 178q-129 -196 -344 -196
q-153 0 -245 86q-97 85 -97 215v10q0 79 37 138.5t98 92.5t128.5 48.5t140.5 15.5h282zM782 465h-284q-95 0 -166 -35q-39 -18 -62.5 -53.5t-23.5 -81.5q0 -85 63 -133q61 -49 156 -49q134 0 227 90q90 87 90 227v35z" />
    <glyph glyph-name="acircumflex" unicode="&#xe2;" horiz-adv-x="1083" 
d="M459 1520h147l262 -328h-157l-174 225h-5l-170 -225h-159zM782 588v67q0 123 -66 185.5t-194 62.5q-125 0 -192 -67q-62 -62 -74 -140l-143 31q2 43 40.5 108t102.5 117q48 37 119 60.5t151 23.5q280 0 371 -211q31 -73 31 -168v-286q0 -249 16 -371h-147q-15 84 -15 178
q-129 -196 -344 -196q-153 0 -245 86q-97 85 -97 215v10q0 79 37 138.5t98 92.5t128.5 48.5t140.5 15.5h282zM782 465h-284q-95 0 -166 -35q-39 -18 -62.5 -53.5t-23.5 -81.5q0 -85 63 -133q61 -49 156 -49q134 0 227 90q90 87 90 227v35z" />
    <glyph glyph-name="atilde" unicode="&#xe3;" horiz-adv-x="1083" 
d="M645 1192q-71 0 -129 47q-61 45 -121 45q-63 0 -78 -90h-106q0 98 45 158q46 61 137 61q42 2 129.5 -45.5t124.5 -46.5q62 0 84 88h92q0 -97 -43 -158q-44 -59 -135 -59zM782 588v67q0 123 -66 185.5t-194 62.5q-125 0 -192 -67q-62 -62 -74 -140l-143 31q2 43 40.5 108
t102.5 117q48 37 119 60.5t151 23.5q280 0 371 -211q31 -73 31 -168v-286q0 -249 16 -371h-147q-15 84 -15 178q-129 -196 -344 -196q-153 0 -245 86q-97 85 -97 215v10q0 79 37 138.5t98 92.5t128.5 48.5t140.5 15.5h282zM782 465h-284q-95 0 -166 -35q-39 -18 -62.5 -53.5
t-23.5 -81.5q0 -85 63 -133q61 -49 156 -49q134 0 227 90q90 87 90 227v35z" />
    <glyph glyph-name="adieresis" unicode="&#xe4;" horiz-adv-x="1083" 
d="M426 1223q-35 -34 -79 -34t-79 34q-34 34 -34 80.5t34 80.5q35 34 79 34t79 -34q34 -34 34 -80.5t-34 -80.5zM788 1223q-34 -34 -77.5 -34t-77.5 34q-35 34 -35 80.5t35 80.5q34 34 77.5 34t77.5 -34t34 -80.5t-34 -80.5zM500 588h282v67q0 123 -66 185.5t-194 62.5
q-125 0 -192 -67q-62 -62 -74 -140l-143 31q2 43 40.5 108t102.5 117q48 37 119 60.5t151 23.5q280 0 371 -211q31 -73 31 -168v-286q0 -249 16 -371h-147q-15 84 -15 178q-129 -196 -344 -196q-153 0 -245 86q-97 85 -97 215v10q0 79 37 138.5t98 92.5t128.5 48.5
t140.5 15.5zM782 430v35h-284q-95 0 -166 -35q-39 -18 -62.5 -53.5t-23.5 -81.5q0 -85 63 -133q61 -49 156 -49q134 0 227 90q90 87 90 227z" />
    <glyph glyph-name="aring" unicode="&#xe5;" horiz-adv-x="1083" 
d="M928 657v-286q0 -249 16 -371h-147q-15 84 -15 178q-129 -196 -344 -196q-153 0 -245 86q-97 85 -97 215v10q0 79 37 138.5t98 92.5t128.5 48.5t140.5 15.5h282v67q0 123 -66 185.5t-194 62.5q-125 0 -192 -67q-62 -62 -74 -140l-143 31q7 89 102 186q52 55 125 86
q-80 74 -80 181q0 103 78 178q82 76 188 76q109 0 191 -76q76 -73 76 -178q0 -102 -74 -176q122 -52 178 -179q31 -73 31 -168zM526 1327q-65 0 -108 -43q-45 -45 -45 -104q0 -62 45 -107q46 -43 108 -43q66 0 109 43q45 42 45 107q0 60 -45 102q-45 45 -109 45zM782 465
h-284q-95 0 -166 -35q-39 -18 -62.5 -53.5t-23.5 -81.5q0 -85 63 -133q61 -49 156 -49q134 0 227 90q90 87 90 227v35z" />
    <glyph glyph-name="ae" unicode="&#xe6;" horiz-adv-x="1843" 
d="M786 586v69q0 122 -66.5 185t-193.5 63q-125 0 -190 -59q-67 -61 -82 -148l-141 31q2 43 41 108t104 117q47 37 118.5 60.5t151.5 23.5q135 0 229 -57t132 -156q57 96 164 156q108 57 225 57q228 0 352 -145q125 -146 125 -379q0 -26 -2 -49h-825q6 -145 112 -248
q103 -100 254 -100q116 0 198.5 56t117.5 161l131 -41q-44 -146 -166 -228q-128 -81 -281 -81q-135 0 -250 65q-113 64 -180 174q-137 -239 -413 -239h-5q-156 0 -251 86q-99 83 -99 215v10q0 78 36 137t99 92q117 64 269 64h286zM930 590h676q-12 140 -101 229
q-86 86 -229 86q-127 0 -232 -94q-102 -94 -114 -221zM786 465h-288q-95 0 -166 -35q-39 -18 -62.5 -53.5t-23.5 -81.5q0 -82 63 -133q64 -49 158 -49q136 0 229 90q90 87 90 227v35z" />
    <glyph glyph-name="ccedilla" unicode="&#xe7;" horiz-adv-x="1171" 
d="M952 358l140 -45q-37 -115 -136 -204q-118 -106 -276 -123q65 -80 65 -170q0 -130 -90 -205q-88 -76 -225 -76q-69 0 -143 23v116q57 -16 131 -16q93 0 142.5 46.5t49.5 133.5q0 83 -59 148q-201 21 -328 166q-129 144 -129 354q0 146 72 272q71 124 190 191t262 67
q171 0 304 -94q134 -100 163 -231l-135 -45q-10 35 -34 72.5t-63.5 76t-103 63.5t-137.5 25q-159 0 -262 -112q-104 -113 -104 -277q0 -109 43.5 -198.5t128.5 -143.5q80 -57 196 -57q61 0 116.5 17.5t90.5 45.5q36 23 64 62q43 54 67 118z" />
    <glyph glyph-name="egrave" unicode="&#xe8;" horiz-adv-x="1157" 
d="M672 1192h-144l-243 328h180zM1067 463h-823q9 -151 112 -248q103 -100 252 -100q116 0 198.5 56t117.5 161l131 -41q-44 -146 -166 -228q-125 -81 -279 -81q-143 0 -264 71q-120 70 -184 193q-68 121 -68 264q0 139 64 258q61 121 178 195q113 73 254 73q153 0 262 -69
q110 -67 164 -187q53 -112 53 -268q0 -26 -2 -49zM246 590h674q-15 138 -103 229q-86 86 -227 86q-128 0 -228 -92q-98 -93 -116 -223z" />
    <glyph glyph-name="eacute" unicode="&#xe9;" horiz-adv-x="1157" 
d="M713 1520h180l-246 -328h-141zM1067 463h-823q9 -151 112 -248q103 -100 252 -100q116 0 198.5 56t117.5 161l131 -41q-44 -146 -166 -228q-125 -81 -279 -81q-143 0 -264 71q-120 70 -184 193q-68 121 -68 264q0 139 64 258q61 121 178 195q113 73 254 73q153 0 262 -69
q110 -67 164 -187q53 -112 53 -268q0 -26 -2 -49zM246 590h674q-15 138 -103 229q-86 86 -227 86q-128 0 -228 -92q-98 -93 -116 -223z" />
    <glyph glyph-name="ecircumflex" unicode="&#xea;" horiz-adv-x="1157" 
d="M518 1520h148l262 -328h-158l-174 225h-4l-170 -225h-160zM1067 463h-823q9 -151 112 -248q103 -100 252 -100q116 0 198.5 56t117.5 161l131 -41q-44 -146 -166 -228q-125 -81 -279 -81q-143 0 -264 71q-120 70 -184 193q-68 121 -68 264q0 139 64 258q61 121 178 195
q113 73 254 73q153 0 262 -69q110 -67 164 -187q53 -112 53 -268q0 -26 -2 -49zM246 590h674q-15 138 -103 229q-86 86 -227 86q-128 0 -228 -92q-98 -93 -116 -223z" />
    <glyph glyph-name="edieresis" unicode="&#xeb;" horiz-adv-x="1157" 
d="M483 1223q-34 -34 -77.5 -34t-77.5 34t-34 80.5t34 80.5t77.5 34t77.5 -34q35 -34 35 -80.5t-35 -80.5zM848 1223q-35 -34 -79 -34t-79 34q-34 34 -34 80.5t34 80.5q35 34 79 34t79 -34q34 -34 34 -80.5t-34 -80.5zM1067 463h-823q9 -151 112 -248q103 -100 252 -100
q116 0 198.5 56t117.5 161l131 -41q-44 -146 -166 -228q-125 -81 -279 -81q-143 0 -264 71q-120 70 -184 193q-68 121 -68 264q0 139 64 258q61 121 178 195q113 73 254 73q153 0 262 -69q110 -67 164 -187q53 -112 53 -268q0 -26 -2 -49zM246 590h674q-15 138 -103 229
q-86 86 -227 86q-128 0 -228 -92q-98 -93 -116 -223z" />
    <glyph glyph-name="igrave" unicode="&#xec;" horiz-adv-x="485" 
d="M315 1192h-143l-244 328h181zM317 1018v-1018h-149v1018h149z" />
    <glyph glyph-name="iacute" unicode="&#xed;" horiz-adv-x="485" 
d="M379 1520h180l-246 -328h-141zM168 0v1018h149v-1018h-149z" />
    <glyph glyph-name="icircumflex" unicode="&#xee;" horiz-adv-x="485" 
d="M164 1520h149l262 -328h-157l-174 225h-4l-170 -225h-160zM317 1018v-1018h-149v1018h149z" />
    <glyph glyph-name="idieresis" unicode="&#xef;" horiz-adv-x="485" 
d="M143 1223q-34 -34 -77.5 -34t-77.5 34t-34 80.5t34 80.5t77.5 34t77.5 -34q35 -34 35 -80.5t-35 -80.5zM500 1223q-35 -34 -79 -34t-79 34q-34 34 -34 80.5t34 80.5q35 34 79 34t79 -34q34 -34 34 -80.5t-34 -80.5zM317 1018v-1018h-149v1018h149z" />
    <glyph glyph-name="eth" unicode="&#xf0;" horiz-adv-x="1249" 
d="M993 1485l47 -113l-192 -92q141 -138 216 -319.5t75 -391.5q0 -261 -148 -426q-150 -159 -381 -159q-107 0 -204 39.5t-164 107.5q-69 71 -108.5 165t-39.5 198q0 97 38.5 187t105.5 157q68 66 161 104.5t195 38.5q69 0 164 -33q126 -44 215 -155l4 2q-55 254 -262 428
l-330 -156l-45 111l270 122q-139 90 -309 140l57 119q216 -64 390 -191zM616 113q97 -2 184.5 51.5t138.5 141.5t48 181q0 97 -35 160q-48 94 -141 152q-89 57 -205 57q-156 0 -258 -108q-102 -105 -102 -263q0 -98 47 -182.5t133 -136.5q83 -53 190 -53z" />
    <glyph glyph-name="ntilde" unicode="&#xf1;" horiz-adv-x="1208" 
d="M737 1192q-72 0 -127 47q-61 45 -123 45q-60 0 -75 -90h-107q0 98 45 158q43 61 137 61q42 2 129 -45.5t123 -46.5q62 0 84 88h95q-3 -97 -46 -158q-44 -59 -135 -59zM903 0v592q0 141 -72 225t-208 84q-134 0 -220 -92q-86 -95 -86 -229v-580h-149v1018h147v-187
q123 205 351 205q182 0 286 -110q101 -116 101 -297v-629h-150z" />
    <glyph glyph-name="ograve" unicode="&#xf2;" horiz-adv-x="1239" 
d="M696 1192h-143l-246 328h182zM616 -18q-141 0 -264 69q-120 71 -188 191q-70 119 -70 264q0 228 152 377q150 153 375 153q142 3 264 -68t193 -193t69 -263q1 -109 -40.5 -208t-113 -170t-170.5 -112.5t-207 -39.5zM621 115q160 0 268 114q104 113 104 277t-106 282
q-108 117 -271 117q-161 0 -266 -114q-104 -113 -104 -279q-2 -105 46 -196.5t135.5 -147t193.5 -53.5z" />
    <glyph glyph-name="oacute" unicode="&#xf3;" horiz-adv-x="1239" 
d="M756 1520h180l-246 -328h-141zM616 -18q-141 0 -264 69q-120 71 -188 191q-70 119 -70 264q0 228 152 377q150 153 375 153q142 3 264 -68t193 -193t69 -263q1 -109 -40.5 -208t-113 -170t-170.5 -112.5t-207 -39.5zM621 115q160 0 268 114q104 113 104 277t-106 282
q-108 117 -271 117q-161 0 -266 -114q-104 -113 -104 -279q-2 -105 46 -196.5t135.5 -147t193.5 -53.5z" />
    <glyph glyph-name="ocircumflex" unicode="&#xf4;" horiz-adv-x="1239" 
d="M545 1520h147l262 -328h-157l-172 225h-7l-169 -225h-158zM616 -18q-141 0 -264 69q-120 71 -188 191q-70 119 -70 264q0 228 152 377q150 153 375 153q142 3 264 -68t193 -193t69 -263q1 -109 -40.5 -208t-113 -170t-170.5 -112.5t-207 -39.5zM621 115q160 0 268 114
q104 113 104 277t-106 282q-108 117 -271 117q-161 0 -266 -114q-104 -113 -104 -279q-2 -105 46 -196.5t135.5 -147t193.5 -53.5z" />
    <glyph glyph-name="otilde" unicode="&#xf5;" horiz-adv-x="1239" 
d="M750 1192q-72 0 -127 47q-61 45 -123 45q-61 0 -76 -90h-107q0 98 45 158q43 61 138 61q42 2 128.5 -45.5t123.5 -46.5q62 0 84 88h94q-3 -99 -45 -158q-44 -59 -135 -59zM616 -18q-141 0 -264 69q-120 71 -188 191q-70 119 -70 264q0 228 152 377q150 153 375 153
q142 3 264 -68t193 -193t69 -263q1 -109 -40.5 -208t-113 -170t-170.5 -112.5t-207 -39.5zM621 115q160 0 268 114q104 113 104 277t-106 282q-108 117 -271 117q-161 0 -266 -114q-104 -113 -104 -279q-2 -105 46 -196.5t135.5 -147t193.5 -53.5z" />
    <glyph glyph-name="odieresis" unicode="&#xf6;" horiz-adv-x="1239" 
d="M518 1223q-35 -34 -79 -34t-79 34q-34 34 -34 80.5t34 80.5q35 34 79 34t79 -34q34 -34 34 -80.5t-34 -80.5zM881 1223q-34 -34 -78 -34t-78 34q-35 34 -35 80.5t35 80.5q34 34 78 34t78 -34t34 -80.5t-34 -80.5zM616 -18q-141 0 -264 69q-120 71 -188 191
q-70 119 -70 264q0 228 152 377q150 153 375 153q142 3 264 -68t193 -193t69 -263q1 -109 -40.5 -208t-113 -170t-170.5 -112.5t-207 -39.5zM621 115q160 0 268 114q104 113 104 277t-106 282q-108 117 -271 117q-161 0 -266 -114q-104 -113 -104 -279q-2 -105 46 -196.5
t135.5 -147t193.5 -53.5z" />
    <glyph glyph-name="divide" unicode="&#xf7;" horiz-adv-x="1173" 
d="M668 1174q34 -34 34 -82q0 -45 -34 -82q-35 -35 -80 -35q-47 0 -82 35t-35 82q0 50 35 82q31 34 82 34q49 0 80 -34zM133 651v146h907v-146h-907zM668 440q34 -37 34 -82q0 -48 -34 -82q-31 -34 -80 -34q-51 0 -82 34q-35 32 -35 82q0 47 35 82q33 33 82 33q47 0 80 -33z
" />
    <glyph glyph-name="oslash" unicode="&#xf8;" horiz-adv-x="1247" 
d="M1151 997l-129 -141q127 -148 127 -344q2 -109 -39 -208t-112.5 -170t-170 -112.5t-206.5 -39.5q-174 0 -306 100l-129 -141l-88 79l129 142q-129 147 -129 344q0 109 40.5 208.5t111.5 170.5q70 70 168.5 110.5t206.5 40.5q174 0 309 -100l131 141zM248 512
q0 -134 78 -244l516 566q-95 71 -219 71q-160 3 -269 -114t-106 -279zM999 506q0 136 -75 242l-518 -564q100 -71 219 -71q160 0 268 114q106 115 106 279z" />
    <glyph glyph-name="ugrave" unicode="&#xf9;" horiz-adv-x="1206" 
d="M678 1192h-141l-246 328h180zM156 389v629h149v-592q0 -144 72 -225q69 -84 209 -84q133 0 219 92q86 95 86 229v580h145v-1018h-145v186q-120 -206 -348 -206q-181 0 -287 112q-100 112 -100 297z" />
    <glyph glyph-name="uacute" unicode="&#xfa;" horiz-adv-x="1206" 
d="M731 1520h180l-245 -328h-142zM305 1018v-592q0 -144 72 -225q69 -84 209 -84q133 0 219 92q86 95 86 229v580h145v-1018h-145v186q-120 -206 -348 -206q-181 0 -287 112q-100 112 -100 297v629h149z" />
    <glyph glyph-name="ucircumflex" unicode="&#xfb;" horiz-adv-x="1206" 
d="M518 1520h148l264 -328h-160l-172 225h-4l-172 -225h-158zM156 389v629h149v-592q0 -144 72 -225q69 -84 209 -84q133 0 219 92q86 95 86 229v580h145v-1018h-145v186q-120 -206 -348 -206q-181 0 -287 112q-100 112 -100 297z" />
    <glyph glyph-name="udieresis" unicode="&#xfc;" horiz-adv-x="1204" 
d="M492 1223q-34 -34 -78 -34t-78 34t-34 80.5t34 80.5t78 34t78 -34q35 -34 35 -80.5t-35 -80.5zM856 1223q-35 -34 -79 -34t-79 34q-34 34 -34 80.5t34 80.5q35 34 79 34t79 -34q34 -34 34 -80.5t-34 -80.5zM156 389v629h147v-592q0 -142 74 -225q69 -84 209 -84
q131 0 217 92t86 229v580h147v-1018h-145v186q-123 -206 -350 -206q-182 0 -285 112q-100 112 -100 297z" />
    <glyph glyph-name="yacute" unicode="&#xfd;" horiz-adv-x="1134" 
d="M584 1520h180l-244 -328h-143zM940 1018h160l-697 -1520h-161l264 572l-465 948h172l373 -787z" />
    <glyph glyph-name="thorn" unicode="&#xfe;" horiz-adv-x="1208" 
d="M315 1552v-692q49 76 142 125q91 49 182 49q103 0 193.5 -44t152.5 -120q60 -72 93.5 -166.5t33.5 -193.5q0 -211 -127 -367q-61 -75 -151.5 -118t-194.5 -43q-97 0 -182.5 46.5t-141.5 133.5v-572h-147v1962h147zM299 510q0 -219 152 -332q76 -55 178 -55q76 0 140.5 34
t107.5 91q86 119 86 262q0 147 -86 260q-42 57 -106.5 89t-141.5 32q-154 0 -242 -107t-88 -274z" />
    <glyph glyph-name="ydieresis" unicode="&#xff;" horiz-adv-x="1132" 
d="M473 1223q-34 -34 -78 -34t-78 34t-34 80.5t34 80.5t78 34t78 -34q35 -34 35 -80.5t-35 -80.5zM838 1223q-35 -34 -79 -34t-79 34q-34 34 -34 80.5t34 80.5q35 34 79 34t79 -34q34 -34 34 -80.5t-34 -80.5zM401 -502h-161l264 572l-463 948h170l373 -787l354 787h160z
" />
    <glyph glyph-name="Amacron" unicode="&#x100;" horiz-adv-x="1478" 
d="M1059 1686h-641v135h641v-135zM827 1493l646 -1493h-166l-164 381h-813l-164 -381h-160l643 1493h178zM1083 524l-348 807l-346 -807h694z" />
    <glyph glyph-name="amacron" unicode="&#x101;" horiz-adv-x="1083" 
d="M840 1221h-645v133h645v-133zM782 588v67q0 123 -66 185.5t-194 62.5q-125 0 -192 -67q-62 -62 -74 -140l-143 31q2 43 40.5 108t102.5 117q48 37 119 60.5t151 23.5q280 0 371 -211q31 -73 31 -168v-286q0 -249 16 -371h-147q-15 84 -15 178q-129 -196 -344 -196
q-153 0 -245 86q-97 85 -97 215v10q0 79 37 138.5t98 92.5t128.5 48.5t140.5 15.5h282zM782 465h-284q-95 0 -166 -35q-39 -18 -62.5 -53.5t-23.5 -81.5q0 -85 63 -133q61 -49 156 -49q134 0 227 90q90 87 90 227v35z" />
    <glyph glyph-name="Abreve" unicode="&#x102;" horiz-adv-x="1478" 
d="M739 1630q-172 0 -260 144q-46 73 -49 178h117q5 -93 56.5 -148t135.5 -55t135.5 54t57.5 149h115q-3 -144 -93 -234q-85 -88 -215 -88zM827 1493l646 -1493h-166l-164 381h-813l-164 -381h-160l643 1493h178zM1083 524l-348 807l-346 -807h694z" />
    <glyph glyph-name="abreve" unicode="&#x103;" horiz-adv-x="1083" 
d="M520 1188q-175 0 -262 143q-45 74 -51 178h119q5 -92 57 -147t137 -55q84 0 135.5 53.5t57.5 148.5h114q-3 -144 -92 -233q-91 -88 -215 -88zM782 588v67q0 123 -66 185.5t-194 62.5q-125 0 -192 -67q-62 -62 -74 -140l-143 31q2 43 40.5 108t102.5 117q48 37 119 60.5
t151 23.5q280 0 371 -211q31 -73 31 -168v-286q0 -249 16 -371h-147q-15 84 -15 178q-129 -196 -344 -196q-153 0 -245 86q-97 85 -97 215v10q0 79 37 138.5t98 92.5t128.5 48.5t140.5 15.5h282zM782 465h-284q-95 0 -166 -35q-39 -18 -62.5 -53.5t-23.5 -81.5
q0 -85 63 -133q61 -49 156 -49q134 0 227 90q90 87 90 227v35z" />
    <glyph glyph-name="Aogonek" unicode="&#x104;" horiz-adv-x="1478" 
d="M1505 -346v-115q-28 -4 -53 -4q-107 0 -180 55q-74 56 -74 156q0 124 164 254h-55l-164 381h-813l-164 -381h-160l643 1493h178l646 -1493q-59 -52 -93 -104q-39 -56 -39 -115q0 -130 164 -127zM1083 524l-348 807l-346 -807h694z" />
    <glyph glyph-name="aogonek" unicode="&#x105;" horiz-adv-x="1083" 
d="M979 -346v-115q-32 -4 -55 -4q-108 0 -181 55t-73 156q0 122 166 254h-39q-15 84 -15 178q-129 -196 -344 -196q-153 0 -245 86q-97 85 -97 215v10q0 79 37 138.5t98 92.5t128.5 48.5t140.5 15.5h282v67q0 123 -66 185.5t-194 62.5q-125 0 -192 -67q-62 -62 -74 -140
l-143 31q2 43 40.5 108t102.5 117q48 37 119 60.5t151 23.5q280 0 371 -211q31 -73 31 -168v-286q0 -256 16 -371q-56 -50 -92 -104q-39 -56 -39 -115q0 -130 166 -127zM782 465h-284q-95 0 -166 -35q-39 -18 -62.5 -53.5t-23.5 -81.5q0 -85 63 -133q61 -49 156 -49
q134 0 227 90q90 87 90 227v35z" />
    <glyph glyph-name="Cacute" unicode="&#x106;" horiz-adv-x="1601" 
d="M987 1958h180l-245 -328h-142zM848 -16q-152 0 -288.5 55.5t-237.5 155.5q-102 99 -160 239q-60 148 -60 307q0 167 62 312q63 148 164 243q102 99 237 156q134 57 291 57q114 0 217.5 -30.5t179.5 -83.5t129 -115q107 -121 140 -262l-150 -53q-22 90 -88 180
q-39 56 -96 104q-53 47 -144 78q-82 33 -192 33q-117 0 -225 -44.5t-187 -123.5q-80 -82 -127 -196.5t-47 -243.5q0 -172 76 -318q77 -142 211 -221q136 -80 301 -80q97 0 183.5 29.5t144.5 75.5q58 48 96 102q39 53 63 102q27 65 35 90l152 -53q-39 -135 -137 -254
q-62 -72 -131 -121q-77 -55 -184.5 -87.5t-227.5 -32.5z" />
    <glyph glyph-name="cacute" unicode="&#x107;" horiz-adv-x="1181" 
d="M752 1520h180l-246 -328h-143zM252 514q0 -110 44 -199t130 -143q80 -57 199 -57q125 0 206 63q36 23 64 62q45 56 68 118l139 -45q-40 -127 -156 -221q-60 -51 -145 -80.5t-178 -29.5q-111 0 -208.5 38.5t-168.5 108.5q-71 71 -111.5 169t-40.5 208q0 148 74 272
q71 123 194 191q119 67 267 67q167 0 303 -94q135 -101 164 -231l-138 -45q-10 35 -33.5 72.5t-62.5 76t-102 63.5t-137 25q-104 2 -190.5 -51.5t-134.5 -143.5t-46 -194z" />
    <glyph glyph-name="Ccircumflex" unicode="&#x108;" horiz-adv-x="1601" 
d="M776 1956h148l264 -328h-160l-172 225h-6l-170 -225h-158zM848 -16q-152 0 -288.5 55.5t-237.5 155.5q-102 99 -160 239q-60 148 -60 307q0 167 62 312q63 148 164 243q102 99 237 156q134 57 291 57q114 0 217.5 -30.5t179.5 -83.5t129 -115q107 -121 140 -262l-150 -53
q-22 90 -88 180q-39 56 -96 104q-53 47 -144 78q-82 33 -192 33q-117 0 -225 -44.5t-187 -123.5q-80 -82 -127 -196.5t-47 -243.5q0 -172 76 -318q77 -142 211 -221q136 -80 301 -80q97 0 183.5 29.5t144.5 75.5q58 48 96 102q39 53 63 102q27 65 35 90l152 -53
q-39 -135 -137 -254q-62 -72 -131 -121q-77 -55 -184.5 -87.5t-227.5 -32.5z" />
    <glyph glyph-name="ccircumflex" unicode="&#x109;" horiz-adv-x="1181" 
d="M551 1520h147l265 -328h-160l-172 225h-6l-170 -225h-160zM252 514q0 -110 44 -199t130 -143q80 -57 199 -57q125 0 206 63q40 28 64 64q46 56 68 116l139 -45q-40 -127 -156 -221q-60 -51 -145 -80.5t-178 -29.5q-111 0 -208.5 38.5t-168.5 108.5q-71 71 -111.5 169
t-40.5 208q0 148 74 272q71 123 194 191q119 67 267 67q167 0 303 -94q135 -101 164 -231l-138 -45q-21 71 -96 149q-41 40 -104 64t-135 24q-104 2 -190.5 -51.5t-134.5 -143.5t-46 -194z" />
    <glyph glyph-name="Cdotaccent" unicode="&#x10a;" horiz-adv-x="1601" 
d="M934 1669q-35 -35 -80 -35q-43 0 -78 35q-37 34 -37 82t37 82q32 35 78 35q48 0 80 -35q35 -32 35 -82t-35 -82zM848 -16q-152 0 -288.5 55.5t-237.5 155.5q-102 99 -160 239q-60 148 -60 307q0 167 62 312q63 148 164 243q102 99 237 156q134 57 291 57
q114 0 217.5 -30.5t179.5 -83.5t129 -115q107 -121 140 -262l-150 -53q-22 90 -88 180q-39 56 -96 104q-53 47 -144 78q-82 33 -192 33q-117 0 -225 -44.5t-187 -123.5q-80 -82 -127 -196.5t-47 -243.5q0 -172 76 -318q77 -142 211 -221q136 -80 301 -80q97 0 183.5 29.5
t144.5 75.5q58 48 96 102q39 53 63 102q27 65 35 90l152 -53q-39 -135 -137 -254q-62 -72 -131 -121q-77 -55 -184.5 -87.5t-227.5 -32.5z" />
    <glyph glyph-name="cdotaccent" unicode="&#x10b;" horiz-adv-x="1179" 
d="M707 1223q-38 -35 -82 -35q-43 0 -78 35t-35 84q0 47 35 82q34 34 78 34q45 0 82 -34q32 -35 32 -82q0 -49 -32 -84zM250 514q0 -110 44 -199t130 -143q83 -57 199 -57q125 0 206 63q36 23 64 62q42 52 70 118l137 -45q-40 -127 -156 -221q-60 -51 -145 -80.5t-178 -29.5
q-226 0 -376.5 148.5t-150.5 375.5q0 146 72 272q74 123 194 191q122 67 267 67q167 0 303 -94q135 -101 164 -231l-138 -45q-10 35 -33.5 72.5t-62.5 76t-102 63.5t-137 25q-104 2 -190.5 -51.5t-134.5 -143.5t-46 -194z" />
    <glyph glyph-name="Ccaron" unicode="&#x10c;" horiz-adv-x="1601" 
d="M1030 1962h158l-262 -330h-148l-256 330h160l170 -225h4zM848 -16q-152 0 -288.5 55.5t-237.5 155.5q-102 99 -160 239q-60 148 -60 307q0 167 62 312q63 148 164 243q102 99 237 156q134 57 291 57q114 0 217.5 -30.5t179.5 -83.5t129 -115q107 -121 140 -262l-150 -53
q-22 90 -88 180q-39 56 -96 104q-53 47 -144 78q-82 33 -192 33q-117 0 -225 -44.5t-187 -123.5q-80 -82 -127 -196.5t-47 -243.5q0 -172 76 -318q77 -142 211 -221q136 -80 301 -80q97 0 183.5 29.5t144.5 75.5q58 48 96 102q39 53 63 102q27 65 35 90l152 -53
q-39 -135 -137 -254q-62 -72 -131 -121q-77 -55 -184.5 -87.5t-227.5 -32.5z" />
    <glyph glyph-name="ccaron" unicode="&#x10d;" horiz-adv-x="1179" 
d="M633 1294l174 226h158l-263 -328h-149l-256 328h160l172 -226h4zM250 514q0 -110 44 -199t130 -143q83 -57 199 -57q125 0 206 63q36 23 64 62q42 52 70 118l137 -45q-40 -127 -156 -221q-60 -51 -145 -80.5t-178 -29.5q-226 0 -376.5 148.5t-150.5 375.5q0 146 72 272
q74 123 194 191q122 67 267 67q167 0 303 -94q135 -101 164 -231l-138 -45q-10 35 -33.5 72.5t-62.5 76t-102 63.5t-137 25q-104 2 -190.5 -51.5t-134.5 -143.5t-46 -194z" />
    <glyph glyph-name="Dcaron" unicode="&#x10e;" horiz-adv-x="1542" 
d="M840 1962h157l-262 -330h-149l-254 330h160l170 -225h4zM651 0h-444v1493h444q177 0 320 -57q146 -55 250 -156t161.5 -238t57.5 -292q0 -164 -62 -306q-58 -134 -168 -237q-107 -98 -252.5 -152.5t-306.5 -54.5zM647 1346h-278v-1199h280q183 0 330 78q144 76 223 211
q78 132 78 309q0 127 -44 238t-126 193q-80 80 -201 125t-262 45z" />
    <glyph glyph-name="dcaron" unicode="&#x10f;" horiz-adv-x="1320" 
d="M1282 1554h164l-66 -428h-127zM94 510q0 99 34.5 193.5t96.5 168.5q63 76 153.5 120t192.5 44q143 0 242 -71q88 -63 154 -160v747h147v-1552h-145v217q-139 -231 -398 -231q-104 0 -194.5 42t-153.5 115q-61 73 -95 168.5t-34 198.5zM602 115q154 -1 262 119.5
t105 277.5q0 101 -47 190t-131 146q-85 55 -189 55q-165 0 -258 -112q-98 -113 -98 -285q0 -107 42.5 -194t123.5 -142q82 -55 190 -55z" />
    <glyph glyph-name="Dcroat" unicode="&#x110;" horiz-adv-x="1564" 
d="M229 1493h445q176 0 319 -57q146 -55 250 -156t161.5 -238t57.5 -292q0 -218 -106 -392q-107 -173 -285 -264q-178 -94 -397 -94h-445v686h-200v145h200v662zM387 147h281q182 0 329 78q145 77 224 211t79 309q0 171 -77.5 308.5t-221.5 214.5q-141 78 -335 78h-279v-515
h365v-145h-365v-539z" />
    <glyph glyph-name="dslash" unicode="&#x111;" horiz-adv-x="1282" 
d="M1241 1341v-133h-127v-1208h-145v217q-139 -231 -398 -231q-142 0 -252 73q-109 72 -165 193q-60 120 -60 258q0 131 60 254q57 121 168 197q109 75 249 75q133 0 230 -63q93 -63 164 -168v403h-371v133h371v211h149v-211h127zM602 115q154 -1 262 119.5t105 277.5
q0 101 -47 190t-131 146q-85 55 -189 55q-161 0 -260 -114t-96 -283q0 -107 42.5 -194t123.5 -142q82 -55 190 -55z" />
    <glyph glyph-name="Emacron" unicode="&#x112;" horiz-adv-x="1267" 
d="M1001 1686h-643v135h643v-135zM367 1348v-517h710v-145h-710v-541h784v-145h-944v1493h938v-145h-778z" />
    <glyph glyph-name="emacron" unicode="&#x113;" horiz-adv-x="1157" 
d="M909 1221h-643v133h643v-133zM1067 463h-823q9 -151 112 -248q103 -100 252 -100q116 0 198.5 56t117.5 161l131 -41q-44 -146 -166 -228q-125 -81 -279 -81q-143 0 -264 71q-120 70 -184 193q-68 121 -68 264q0 139 64 258q61 121 178 195q113 73 254 73q153 0 262 -69
q110 -67 164 -187q53 -112 53 -268q0 -26 -2 -49zM246 590h674q-15 138 -103 229q-86 86 -227 86q-128 0 -228 -92q-98 -93 -116 -223z" />
    <glyph glyph-name="Edotaccent" unicode="&#x116;" 
d="M758 1669q-34 -34 -79 -34t-79 34q-37 34 -37 82t37 82q32 35 78 35q48 0 80 -35q35 -32 35 -82t-35 -82zM1075 831v-145h-710v-541h784v-145h-942v1493h936v-145h-778v-517h710z" />
    <glyph glyph-name="edotaccent" unicode="&#x117;" horiz-adv-x="1157" 
d="M678 1223q-35 -34 -80 -34t-80 34q-35 38 -35 84q0 44 35 82q37 34 80 34q46 0 80 -34q35 -38 35 -82q0 -46 -35 -84zM1067 463h-823q9 -151 112 -248q103 -100 252 -100q116 0 198.5 56t117.5 161l131 -41q-44 -146 -166 -228q-125 -81 -279 -81q-143 0 -264 71
q-120 70 -184 193q-68 121 -68 264q0 139 64 258q61 121 178 195q113 73 254 73q153 0 262 -69q110 -67 164 -187q53 -112 53 -268q0 -26 -2 -49zM246 590h674q-15 138 -103 229q-86 86 -227 86q-128 0 -228 -92q-98 -93 -116 -223z" />
    <glyph glyph-name="Eogonek" unicode="&#x118;" horiz-adv-x="1267" 
d="M1186 -346v-115q-32 -4 -56 -4q-105 0 -178 55q-75 54 -75 156q0 123 165 254h-835v1493h936v-145h-776v-517h710v-145h-710v-541h784v-145q-52 -46 -92 -104q-39 -64 -39 -115q0 -130 166 -127z" />
    <glyph glyph-name="eogonek" unicode="&#x119;" horiz-adv-x="1157" 
d="M1067 463h-823q9 -151 112 -248q103 -100 252 -100q116 0 198.5 56t117.5 161l131 -41q-32 -108 -115 -184.5t-195 -106.5q-53 -47 -92 -106q-39 -56 -39 -113q0 -130 166 -127v-115q-28 -4 -55 -4q-105 0 -178 55q-76 57 -76 156q0 115 145 236h-6q-143 0 -264 71
q-120 70 -184 193q-68 121 -68 264q0 139 64 258q61 121 178 195q113 73 254 73q153 0 262 -69q110 -67 164 -187q53 -112 53 -268q0 -26 -2 -49zM246 590h674q-15 138 -103 229q-86 86 -227 86q-128 0 -228 -92q-98 -93 -116 -223z" />
    <glyph glyph-name="Ecaron" unicode="&#x11a;" horiz-adv-x="1267" 
d="M854 1962h158l-262 -330h-148l-254 330h156l172 -225h4zM367 1348v-517h710v-145h-710v-541h784v-145h-944v1493h938v-145h-778z" />
    <glyph glyph-name="ecaron" unicode="&#x11b;" horiz-adv-x="1157" 
d="M594 1294l174 226h158l-262 -328h-148l-256 328h160l170 -226h4zM1067 463h-823q9 -151 112 -248q103 -100 252 -100q116 0 198.5 56t117.5 161l131 -41q-44 -146 -166 -228q-125 -81 -279 -81q-143 0 -264 71q-120 70 -184 193q-68 121 -68 264q0 139 64 258
q61 121 178 195q113 73 254 73q153 0 262 -69q110 -67 164 -187q53 -112 53 -268q0 -26 -2 -49zM246 590h674q-15 138 -103 229q-86 86 -227 86q-128 0 -228 -92q-98 -93 -116 -223z" />
    <glyph glyph-name="Gcircumflex" unicode="&#x11c;" horiz-adv-x="1638" 
d="M782 1956h150l262 -328h-160l-172 225h-4l-172 -225h-158zM1518 1065l-150 -53q-31 91 -102 176q-49 52 -99 86q-128 88 -315 88q-123 0 -233.5 -48.5t-188.5 -133.5q-78 -86 -121 -197.5t-43 -232.5q0 -127 41.5 -239.5t116 -197t186.5 -133.5t246 -49q204 0 356 117
q73 57 118.5 143t51.5 187h-624v145h790v-57q0 -141 -47.5 -265.5t-136.5 -216.5q-89 -94 -221.5 -146t-290.5 -52q-164 0 -305.5 57t-239.5 160q-98 102 -151.5 241.5t-53.5 296.5q0 213 99 389q98 174 272 277q172 100 385 100q131 0 244.5 -35t193.5 -100
q161 -128 222 -307z" />
    <glyph glyph-name="gcircumflex" unicode="&#x11d;" horiz-adv-x="1284" 
d="M532 1520h148l262 -328h-158l-174 225h-4l-172 -225h-158zM967 14v213q-136 -231 -394 -231q-138 0 -251 72q-108 69 -168 188q-58 119 -58 258q0 135 58 254q60 120 170 193q109 75 249 75t244 -71q84 -60 152 -160v213h147v-993q0 -261 -143 -398q-146 -137 -387 -137
q-191 0 -324 100q-136 105 -162 250l136 45q11 -44 34 -86t62.5 -84t105 -68t146.5 -26q162 0 268 90q55 45 85 123t30 180zM604 127q157 0 260 115q105 114 105 274q2 99 -46 189t-133.5 145t-185.5 53q-166 0 -260 -110q-96 -108 -96 -281q-3 -161 96.5 -273.5
t259.5 -111.5z" />
    <glyph glyph-name="Gbreve" unicode="&#x11e;" horiz-adv-x="1638" 
d="M862 1630q-172 0 -260 144q-46 73 -49 178h117q5 -93 56.5 -148t135.5 -55t135.5 54t57.5 149h114q-3 -145 -92 -234q-85 -88 -215 -88zM1518 1065l-150 -53q-31 91 -102 176q-49 52 -99 86q-128 88 -315 88q-123 0 -233.5 -48.5t-188.5 -133.5q-78 -86 -121 -197.5
t-43 -232.5q0 -127 41.5 -239.5t116 -197t186.5 -133.5t246 -49q204 0 356 117q73 57 118.5 143t51.5 187h-624v145h790v-57q0 -141 -47.5 -265.5t-136.5 -216.5q-89 -94 -221.5 -146t-290.5 -52q-164 0 -305.5 57t-239.5 160q-98 102 -151.5 241.5t-53.5 296.5
q0 213 99 389q98 174 272 277q172 100 385 100q131 0 244.5 -35t193.5 -100q161 -128 222 -307z" />
    <glyph glyph-name="gbreve" unicode="&#x11f;" horiz-adv-x="1284" 
d="M610 1188q-172 0 -262 143q-46 76 -49 178h117q5 -92 57 -147t137 -55q84 0 136.5 53.5t58.5 148.5h115q-6 -143 -93 -233q-91 -88 -217 -88zM967 14v213q-136 -231 -394 -231q-138 0 -251 72q-108 69 -168 188q-58 119 -58 258q0 135 58 254q60 120 170 193
q109 75 249 75t244 -71q84 -60 152 -160v213h147v-993q0 -261 -143 -398q-146 -137 -387 -137q-191 0 -324 100q-136 105 -162 250l136 45q11 -44 34 -86t62.5 -84t105 -68t146.5 -26q162 0 268 90q55 45 85 123t30 180zM604 127q157 0 260 115q105 114 105 274
q2 99 -46 189t-133.5 145t-185.5 53q-166 0 -260 -110q-96 -108 -96 -281q-3 -161 96.5 -273.5t259.5 -111.5z" />
    <glyph glyph-name="Gdotaccent" unicode="&#x120;" horiz-adv-x="1634" 
d="M950 1669q-35 -34 -79.5 -34t-79.5 34q-35 35 -35 82t35 82t79 35q48 0 80 -35q35 -35 35 -82t-35 -82zM1513 1065l-149 -53q-33 96 -102 176q-49 52 -99 86q-128 88 -313 88q-170 0 -303 -84q-137 -87 -209 -225q-74 -139 -74 -303q0 -125 41 -238t115 -199
q76 -86 188.5 -134t243.5 -48q204 0 356 117q73 57 118.5 143t51.5 187h-622v145h790v-57q0 -140 -48 -264.5t-136 -217.5q-91 -94 -223.5 -146t-288.5 -52q-165 0 -307 57t-238 160q-96 102 -149.5 241.5t-53.5 296.5q0 213 99 389t270 277q169 100 383 100
q131 0 244.5 -35t193.5 -100q158 -122 221 -307z" />
    <glyph glyph-name="gdotaccent" unicode="&#x121;" horiz-adv-x="1284" 
d="M686 1223q-35 -34 -80 -34t-80 34q-34 37 -34 84q0 45 34 82q37 34 80 34q46 0 80 -34q35 -38 35 -82q0 -46 -35 -84zM967 14v213q-136 -231 -394 -231q-138 0 -251 72q-108 69 -168 188q-58 119 -58 258q0 135 58 254q60 120 170 193q109 75 249 75t244 -71
q84 -60 152 -160v213h147v-993q0 -261 -143 -398q-146 -137 -387 -137q-191 0 -324 100q-136 105 -162 250l136 45q11 -44 34 -86t62.5 -84t105 -68t146.5 -26q162 0 268 90q55 45 85 123t30 180zM604 127q157 0 260 115q105 114 105 274q2 99 -46 189t-133.5 145t-185.5 53
q-166 0 -260 -110q-96 -108 -96 -281q-3 -161 96.5 -273.5t259.5 -111.5z" />
    <glyph glyph-name="Gcommaaccent" unicode="&#x122;" horiz-adv-x="1634" 
d="M1513 1065l-149 -53q-33 96 -102 176q-49 52 -99 86q-128 88 -313 88q-170 0 -303 -84q-137 -87 -209 -225q-74 -139 -74 -303q0 -125 41 -238t115 -199q76 -86 188.5 -134t243.5 -48q204 0 356 117q73 57 118.5 143t51.5 187h-622v145h790v-57q0 -140 -48 -264.5
t-136 -217.5q-91 -94 -223.5 -146t-288.5 -52q-165 0 -307 57t-238 160q-96 102 -149.5 241.5t-53.5 296.5q0 213 99 389t270 277q169 100 383 100q131 0 244.5 -35t193.5 -100q158 -122 221 -307zM719 -614v63q52 9 90 59q36 44 39 105q-20 -10 -41 -10q-44 0 -72 30
t-28 76q0 49 32 74q31 31 78 31q58 0 88 -43q33 -42 33 -103q0 -105 -57 -190q-62 -81 -162 -92z" />
    <glyph glyph-name="gcommaaccent" unicode="&#x123;" horiz-adv-x="1284" 
d="M709 1599v-63q-51 -12 -88 -61q-39 -45 -39 -105q17 10 41 10q44 0 72 -30.5t28 -75.5q0 -48 -33 -74q-36 -31 -78 -31q-54 0 -90 45q-30 44 -30 103q0 108 57 188q55 79 160 94zM967 14v213q-136 -231 -394 -231q-138 0 -251 72q-108 69 -168 188q-58 119 -58 258
q0 135 58 254q60 120 170 193q109 75 249 75t244 -71q84 -60 152 -160v213h147v-993q0 -261 -143 -398q-146 -137 -387 -137q-191 0 -324 100q-136 105 -162 250l136 45q11 -44 34 -86t62.5 -84t105 -68t146.5 -26q162 0 268 90q55 45 85 123t30 180zM604 127q157 0 260 115
q105 114 105 274q2 99 -46 189t-133.5 145t-185.5 53q-166 0 -260 -110q-96 -108 -96 -281q-3 -161 96.5 -273.5t259.5 -111.5z" />
    <glyph glyph-name="Hbar" unicode="&#x126;" horiz-adv-x="1593" 
d="M371 684v-684h-156v1108h-168v139h168v246h156v-246h852v246h155v-246h168v-139h-168v-1108h-155v684h-852zM1223 1108h-852v-277h852v277z" />
    <glyph glyph-name="hbar" unicode="&#x127;" horiz-adv-x="1206" 
d="M901 0v592q0 141 -72 225t-208 84q-134 0 -220 -92q-84 -93 -84 -229v-580h-149v1208h-127v133h127v211h149v-211h371v-133h-371v-372q119 200 349 200q180 0 284 -110q101 -116 101 -297v-629h-150z" />
    <glyph glyph-name="Itilde" unicode="&#x128;" horiz-adv-x="571" 
d="M414 1669q-70 0 -127 45q-58 47 -123 47q-61 0 -76 -92h-108q0 95 47 160q43 61 137 61q42 2 128.5 -46t123.5 -46q63 0 84 88h94q-3 -98 -45 -157q-45 -60 -135 -60zM207 0v1493h158v-1493h-158z" />
    <glyph glyph-name="itilde" unicode="&#x129;" horiz-adv-x="485" 
d="M371 1192q-71 0 -129 47q-61 45 -121 45q-63 0 -78 -90h-106q3 99 45 158q46 61 137 61q42 2 129.5 -45.5t124.5 -46.5q62 0 84 88h92q0 -93 -43 -158q-44 -59 -135 -59zM168 0v1018h149v-1018h-149z" />
    <glyph glyph-name="Imacron" unicode="&#x12a;" horiz-adv-x="571" 
d="M569 1686h-567v135h567v-135zM207 0v1493h158v-1493h-158z" />
    <glyph glyph-name="imacron" unicode="&#x12b;" horiz-adv-x="485" 
d="M524 1221h-563v133h563v-133zM168 0v1018h149v-1018h-149z" />
    <glyph glyph-name="Ibreve" unicode="&#x12c;" horiz-adv-x="571" 
d="M287 1630q-86 0 -146 35q-70 35 -115.5 111t-48.5 176h117q5 -93 57 -148t136 -55q83 0 135 54t59 149h113q-3 -145 -92 -234q-85 -88 -215 -88zM207 0v1493h158v-1493h-158z" />
    <glyph glyph-name="ibreve" unicode="&#x12d;" horiz-adv-x="485" 
d="M246 1188q-85 0 -148 35q-70 35 -116 110.5t-50 175.5h119q5 -92 57.5 -147t137.5 -55q84 0 135 53.5t57 148.5h115q-3 -144 -92 -233q-91 -88 -215 -88zM168 0v1018h149v-1018h-149z" />
    <glyph glyph-name="Iogonek" unicode="&#x12e;" horiz-adv-x="571" 
d="M399 -346v-115q-32 -4 -55 -4q-104 0 -180 55q-74 56 -74 156q0 122 166 254h-49v1493h158v-1493q-54 -48 -93 -104q-39 -59 -39 -115q0 -130 166 -127z" />
    <glyph glyph-name="iogonek" unicode="&#x12f;" horiz-adv-x="485" 
d="M322 1303q-33 -33 -78 -33q-47 0 -80 33q-33 38 -33 79q0 42 33 80q33 33 80 33q45 0 78 -33q32 -32 32 -80q0 -47 -32 -79zM186 -219q0 -130 166 -127v-115q-28 -4 -55 -4q-105 0 -178 55q-76 57 -76 156q0 122 166 254h-41v1018h149v-1018q-52 -46 -92 -104
q-39 -64 -39 -115z" />
    <glyph glyph-name="Idot" unicode="&#x130;" horiz-adv-x="571" 
d="M367 1669q-35 -34 -80 -34t-80 34q-35 35 -35 82t35 82q32 35 80 35q45 0 80 -35q32 -32 32 -82t-32 -82zM365 1493v-1493h-158v1493h158z" />
    <glyph glyph-name="dotlessi" unicode="&#x131;" horiz-adv-x="485" 
d="M317 1018v-1018h-149v1018h149z" />
    <glyph glyph-name="IJ" unicode="&#x132;" horiz-adv-x="1300" 
d="M1110 1493v-1028q0 -208 -127 -344q-129 -135 -328 -135q-214 0 -340 129q-127 133 -127 346v71h158v-65q0 -170 96 -256q90 -78 209 -78q129 0 217 94q84 93 84 234v1032h158zM346 754h-158v739h158v-739z" />
    <glyph glyph-name="Kcommaaccent" unicode="&#x136;" horiz-adv-x="1290" 
d="M1044 1493h218l-732 -715l766 -778h-221l-700 719h-10v-719h-158v1493h158v-659h10zM565 -614v63q52 9 90 59q37 46 37 105q-17 -10 -39 -10q-44 0 -73 30t-29 76q0 44 33 74q36 31 78 31q60 0 90 -43q32 -40 32 -103q0 -105 -57 -190q-62 -81 -162 -92z" />
    <glyph glyph-name="kcommaaccent" unicode="&#x137;" horiz-adv-x="1038" 
d="M317 604l484 414h211l-537 -457l561 -561h-207l-505 510h-7v-510h-149v1554h149v-950zM444 -614v63q50 9 88 59q39 45 39 105q-20 -10 -41 -10q-44 0 -72 30t-28 76q0 48 33 74q31 31 78 31q56 0 90 -43q31 -45 31 -103q0 -108 -58 -190q-61 -80 -160 -92z" />
    <glyph glyph-name="Lacute" unicode="&#x139;" horiz-adv-x="1112" 
d="M426 1958h180l-244 -328h-143zM1073 147v-147h-866v1493h158v-1346h708z" />
    <glyph glyph-name="lacute" unicode="&#x13a;" horiz-adv-x="487" 
d="M381 2013h180l-244 -327h-143zM168 0v1554h149v-1554h-149z" />
    <glyph glyph-name="Lcommaaccent" unicode="&#x13b;" horiz-adv-x="1112" 
d="M207 0v1493h158v-1346h708v-147h-866zM518 -614v63q50 9 88 59q39 45 39 105q-20 -10 -41 -10q-44 0 -72 30t-28 76q0 48 33 74q36 31 77 31q57 0 91 -43q30 -43 30 -103q0 -110 -57 -190q-61 -80 -160 -92z" />
    <glyph glyph-name="lcommaaccent" unicode="&#x13c;" horiz-adv-x="485" 
d="M317 1554v-1554h-149v1554h149zM131 -614v63q49 8 90 59q37 46 37 105q-20 -10 -41 -10q-44 0 -72 30t-28 76q0 48 33 74q36 31 77 31q60 0 90 -43q31 -45 31 -103q0 -110 -57 -190q-58 -80 -160 -92z" />
    <glyph glyph-name="Lcaron" unicode="&#x13d;" horiz-adv-x="1153" 
d="M918 1536h163l-65 -428h-125zM1073 147v-147h-866v1493h158v-1346h708z" />
    <glyph glyph-name="lcaron" unicode="&#x13e;" horiz-adv-x="522" 
d="M317 1554v-1554h-149v1554h149zM457 1126h125l65 428h-164z" />
    <glyph glyph-name="Ldot" unicode="&#x13f;" horiz-adv-x="1142" 
d="M207 0v1493h158v-1346h708v-147h-866zM881 643q-33 29 -33 78q0 47 33 80t77 33q42 0 80 -33q33 -38 33 -80q0 -45 -33 -78t-80 -33q-48 0 -77 33z" />
    <glyph glyph-name="ldot" unicode="&#x140;" horiz-adv-x="708" 
d="M317 1554v-1554h-149v1554h149zM512 643q-31 31 -31 78q0 44 31 80q38 33 80 33t80 -33q33 -38 33 -80q0 -45 -33 -78t-80 -33t-80 33z" />
    <glyph glyph-name="Lslash" unicode="&#x141;" horiz-adv-x="1144" 
d="M238 1493h157v-627l422 215v-151l-422 -215v-568h707v-147h-864v635l-199 -103v152l199 102v707z" />
    <glyph glyph-name="lslash" unicode="&#x142;" horiz-adv-x="677" 
d="M268 1554h152v-727l194 146v-156l-194 -143v-674h-152v563l-192 -145v155l192 144v837z" />
    <glyph glyph-name="Nacute" unicode="&#x143;" horiz-adv-x="1632" 
d="M829 1958h181l-244 -328h-143zM207 0v1493h182l881 -1255v1255h155v-1493h-172l-891 1270v-1270h-155z" />
    <glyph glyph-name="nacute" unicode="&#x144;" horiz-adv-x="1208" 
d="M745 1520h181l-244 -328h-143zM905 0v592q0 139 -71 225q-72 84 -209 84q-133 0 -222 -92q-86 -92 -86 -229v-580h-149v1018h145v-187q129 205 355 205q183 0 284 -110q103 -115 103 -297v-629h-150z" />
    <glyph glyph-name="Ncommaaccent" unicode="&#x145;" horiz-adv-x="1632" 
d="M207 0v1493h182l881 -1255v1255h153v-1493h-170l-891 1270v-1270h-155zM713 -614v63q52 9 90 59q37 46 37 105q-17 -10 -39 -10q-44 0 -73.5 30t-29.5 76q0 47 35 74q31 31 76 31q60 0 90 -43q33 -42 33 -103q0 -105 -60 -190q-58 -80 -159 -92z" />
    <glyph glyph-name="ncommaaccent" unicode="&#x146;" horiz-adv-x="1206" 
d="M901 0v592q0 141 -72 225t-208 84q-134 0 -220 -92q-84 -93 -84 -229v-580h-149v1018h145v-187q123 205 353 205q180 0 284 -110q101 -116 101 -297v-629h-150zM506 -614v63q52 9 90 59q36 44 39 105q-20 -10 -41 -10q-44 0 -73 30t-29 76q0 47 34 74q31 31 78 31
q58 0 88 -43q33 -42 33 -103q0 -107 -59 -190q-58 -80 -160 -92z" />
    <glyph glyph-name="Ncaron" unicode="&#x147;" horiz-adv-x="1632" 
d="M991 1958h158l-262 -330h-150l-254 330h160l170 -225h4zM207 0v1493h182l881 -1255v1255h155v-1493h-172l-891 1270v-1270h-155z" />
    <glyph glyph-name="ncaron" unicode="&#x148;" horiz-adv-x="1208" 
d="M614 1294l172 226h158l-262 -328h-147l-259 328h162l170 -226h6zM905 0v592q0 139 -71 225q-72 84 -209 84q-133 0 -222 -92q-86 -92 -86 -229v-580h-149v1018h145v-187q129 205 355 205q183 0 284 -110q103 -115 103 -297v-629h-150z" />
    <glyph glyph-name="Eng" unicode="&#x14a;" horiz-adv-x="1632" 
d="M1270 -2l-908 1276v-1274h-155v1493h182l881 -1239v1239h153v-1731q0 -123 -67 -196q-68 -74 -228 -74q-64 0 -114 16v123q50 -8 92 -8q164 0 164 144v231z" />
    <glyph glyph-name="eng" unicode="&#x14b;" horiz-adv-x="1206" 
d="M901 -233v825q0 141 -72 225t-208 84q-134 0 -220 -92q-84 -93 -84 -229v-580h-149v1018h145v-187q123 205 353 205q180 0 284 -110q101 -116 101 -297v-867q0 -270 -289 -270q-64 0 -117 16v123q50 -8 92 -8q164 0 164 144z" />
    <glyph glyph-name="Omacron" unicode="&#x14c;" horiz-adv-x="1708" 
d="M1176 1686h-644v135h644v-135zM1606 750q0 -212 -99 -388q-92 -171 -270 -276q-173 -102 -385 -102q-158 0 -297 59q-140 58 -238 162q-97 94 -157 239q-58 147 -58 297q0 211 99 387q101 179 270 279t385 100q163 0 297 -57q136 -60 240 -160q96 -102 155 -241
q58 -140 58 -299zM1442 741q0 124 -43 237.5t-121 199.5t-189 135t-237 49q-164 0 -303 -82q-136 -86 -209 -223q-74 -142 -74 -307q0 -166 74 -308q73 -139 211 -227q137 -84 305 -84q166 0 303 84q133 78 209 221q74 139 74 305z" />
    <glyph glyph-name="omacron" unicode="&#x14d;" horiz-adv-x="1239" 
d="M944 1221h-645v133h645v-133zM616 -18q-141 0 -264 69q-120 71 -188 191q-70 119 -70 264q0 228 152 377q150 153 375 153q142 3 264 -68t193 -193t69 -263q1 -109 -40.5 -208t-113 -170t-170.5 -112.5t-207 -39.5zM621 115q160 0 268 114q104 113 104 277t-106 282
q-108 117 -271 117q-161 0 -266 -114q-104 -113 -104 -279q-2 -105 46 -196.5t135.5 -147t193.5 -53.5z" />
    <glyph glyph-name="Ohungarumlaut" unicode="&#x150;" horiz-adv-x="1705" 
d="M825 1958h181l-246 -328h-142zM1153 1958h180l-243 -328h-142zM1604 750q0 -208 -97 -388q-98 -175 -270 -276q-175 -102 -387 -102q-155 0 -297 59q-142 60 -238 162q-95 95 -155 239q-58 147 -58 297q0 211 99 387q96 178 270 279q169 100 385 100q160 0 297 -57
q141 -63 238 -160q101 -107 155 -241q58 -140 58 -299zM1442 741q0 124 -43 237.5t-121 199.5t-189.5 135t-238.5 49q-162 0 -301 -82q-136 -86 -209 -223q-74 -142 -74 -307q0 -123 43.5 -237t120.5 -198q78 -86 189 -135t237 -49q164 0 301 84q135 78 211 221
q74 139 74 305z" />
    <glyph glyph-name="ohungarumlaut" unicode="&#x151;" horiz-adv-x="1239" 
d="M594 1520h180l-246 -328h-141zM922 1520h180l-244 -328h-141zM616 -18q-141 0 -264 69q-120 71 -188 191q-70 119 -70 264q0 228 152 377q150 153 375 153q142 3 264 -68t193 -193t69 -263q1 -109 -40.5 -208t-113 -170t-170.5 -112.5t-207 -39.5zM621 115q160 0 268 114
q104 113 104 277t-106 282q-108 117 -271 117q-161 0 -266 -114q-104 -113 -104 -279q-2 -105 46 -196.5t135.5 -147t193.5 -53.5z" />
    <glyph glyph-name="OE" unicode="&#x152;" horiz-adv-x="2498" 
d="M852 -14q-158 0 -297 59q-138 57 -238 160q-98 95 -155 237q-60 142 -60 295v17q0 153 62 295q57 135 158 239q103 103 241 160q139 59 293 59q370 0 584 -313h2v299h934v-145h-779v-517h713v-145h-713v-541h787v-145h-942v299h-4q-211 -313 -586 -313zM856 133
q123 0 234.5 47.5t189.5 128.5q77 83 120.5 194t43.5 230v21q0 121 -43.5 231.5t-120.5 194.5q-78 84 -189 132t-235 48q-171 0 -305 -82q-138 -85 -211 -221q-74 -139 -74 -303v-15q0 -122 43.5 -232.5t120.5 -193.5q78 -84 189 -132t237 -48z" />
    <glyph glyph-name="oe" unicode="&#x153;" horiz-adv-x="2048" 
d="M1958 463h-821q6 -150 110 -248q103 -100 252 -100q116 0 198.5 56t117.5 161l131 -41q-44 -146 -166 -228q-125 -81 -279 -81q-140 0 -258 71q-116 72 -180 191q-72 -122 -186 -191q-118 -71 -261 -71q-141 0 -264 69q-120 71 -188 191q-70 119 -70 264q0 228 152 377
q150 153 375 153q145 0 260 -69q118 -73 184 -193q64 124 172 193q106 69 244 69q153 0 262 -69q110 -67 164 -187q53 -112 53 -268q0 -26 -2 -49zM621 115q159 0 264 114q104 113 104 277q0 163 -104 282q-105 117 -269 117q-161 0 -266 -114q-104 -113 -104 -279
q-2 -105 46 -196.5t135.5 -147t193.5 -53.5zM1139 590h671q-15 139 -102 229q-86 86 -227 86q-128 0 -228 -92q-96 -96 -114 -223z" />
    <glyph glyph-name="Racute" unicode="&#x154;" horiz-adv-x="1372" 
d="M537 1630l206 328h181l-244 -328h-143zM207 1493h518q130 0 233.5 -34.5t165.5 -96.5q125 -125 125 -305t-116.5 -291.5t-292.5 -134.5l460 -631h-190l-442 604h-303v-604h-158v1493zM365 748h346q197 0 293 96q86 86 86 209q0 58 -19 108t-60.5 93t-117 67.5
t-178.5 24.5h-350v-598z" />
    <glyph glyph-name="racute" unicode="&#x155;" horiz-adv-x="724" 
d="M555 1520h182l-245 -328h-144zM317 498v-498h-149v1018h145v-201q35 72 91 123t118 74q56 20 121 20q39 0 49 -4v-158q-20 5 -57 5q-87 0 -151 -33t-99 -89.5t-51.5 -120.5t-16.5 -136z" />
    <glyph glyph-name="Rcommaaccent" unicode="&#x156;" horiz-adv-x="1372" 
d="M207 1493h518q130 0 233.5 -34.5t165.5 -96.5q125 -125 125 -305t-116.5 -291.5t-292.5 -134.5l460 -631h-190l-442 604h-303v-604h-158v1493zM365 748h346q197 0 293 96q86 86 86 209q0 58 -19 108t-60.5 93t-117 67.5t-178.5 24.5h-350v-598zM526 -614v63q52 9 90 59
q36 44 39 105q-20 -10 -41 -10q-44 0 -73 30t-29 76q0 47 35 74q31 31 78 31q58 0 88 -43q32 -40 32 -103q0 -107 -59 -190q-58 -80 -160 -92z" />
    <glyph glyph-name="rcommaaccent" unicode="&#x157;" horiz-adv-x="724" 
d="M313 1018v-201q35 72 91 123t118 74q56 20 121 20q39 0 49 -4v-158q-20 5 -57 5q-87 0 -151 -33t-99 -89.5t-51.5 -120.5t-16.5 -136v-498h-149v1018h145zM168 -614v63q52 9 90 59q36 44 39 105q-20 -10 -41 -10q-45 0 -73.5 30t-28.5 76q0 49 32 74q36 31 78 31
q60 0 90 -43q33 -42 33 -103q0 -107 -59 -190q-58 -80 -160 -92z" />
    <glyph glyph-name="Rcaron" unicode="&#x158;" horiz-adv-x="1372" 
d="M905 1962h160l-264 -330h-148l-254 330h158l170 -225h6zM207 1493h518q130 0 233.5 -34.5t165.5 -96.5q125 -125 125 -305t-116.5 -291.5t-292.5 -134.5l460 -631h-190l-442 604h-303v-604h-158v1493zM365 748h346q197 0 293 96q86 86 86 209q0 58 -19 108t-60.5 93
t-117 67.5t-178.5 24.5h-350v-598z" />
    <glyph glyph-name="rcaron" unicode="&#x159;" horiz-adv-x="724" 
d="M432 1294l174 226h158l-262 -328h-148l-258 328h162l170 -226h4zM317 498v-498h-149v1018h145v-201q35 72 91 123t118 74q56 20 121 20q39 0 49 -4v-158q-20 5 -57 5q-87 0 -151 -33t-99 -89.5t-51.5 -120.5t-16.5 -136z" />
    <glyph glyph-name="Sacute" unicode="&#x15a;" horiz-adv-x="1226" 
d="M618 1958h181l-244 -328h-143zM625 -14q-105 0 -202.5 35.5t-166.5 95.5q-68 61 -111.5 137.5t-52.5 153.5l150 41q24 -133 135 -224q112 -92 248 -92q137 0 229 66q48 33 76 87t28 120q0 139 -124 212q-59 35 -142 52l-198 39q-66 13 -134.5 46t-119.5 81
q-107 98 -107 258q0 124 68 219q67 94 176 147q107 49 233 49q93 0 171.5 -22t132.5 -57.5t95 -83.5t63 -96t32 -99l-143 -45q-11 44 -35 85.5t-64.5 82.5t-106.5 65.5t-149 24.5q-124 0 -219 -74q-94 -76 -94 -190q0 -89 56.5 -152t162.5 -84l188 -37q190 -37 291 -131
q69 -62 99 -137q28 -79 28 -137q2 -128 -63.5 -229.5t-179 -155.5t-250.5 -51z" />
    <glyph glyph-name="sacute" unicode="&#x15b;" horiz-adv-x="940" 
d="M592 1520h180l-246 -328h-141zM842 289q0 -137 -105 -219q-106 -86 -256 -86q-157 0 -254 73q-48 41 -71 74q-54 72 -64 156l137 35q14 -83 77 -146t175 -63q86 0 148 47q63 42 63 121q0 61 -49 98q-48 37 -119 53l-155 35q-256 59 -256 266q0 76 35 138.5t92 97.5
q110 67 221 67q110 -1 187 -38t118 -97q47 -61 61 -137l-135 -39q-15 60 -59 115q-55 65 -172 65q-83 0 -139 -47t-56 -115q0 -57 36.5 -88.5t109.5 -50.5l166 -37q53 -12 98 -34t83.5 -55t60.5 -81.5t22 -107.5z" />
    <glyph glyph-name="Scircumflex" unicode="&#x15c;" horiz-adv-x="1226" 
d="M528 1956h148l264 -328h-160l-172 225h-4l-172 -225h-158zM625 -14q-105 0 -202.5 35.5t-166.5 95.5q-68 61 -111.5 137.5t-52.5 153.5l150 41q24 -133 135 -224q112 -92 248 -92q137 0 229 66q48 33 76 87t28 120q0 139 -124 212q-59 35 -142 52l-198 39
q-66 13 -134.5 46t-119.5 81q-107 98 -107 258q0 124 68 219q67 94 176 147q107 49 233 49q93 0 171.5 -22t132.5 -57.5t95 -83.5t63 -96t32 -99l-143 -45q-11 44 -35 85.5t-64.5 82.5t-106.5 65.5t-149 24.5q-124 0 -219 -74q-94 -76 -94 -190q0 -89 56.5 -152t162.5 -84
l188 -37q190 -37 291 -131q69 -62 99 -137q28 -79 28 -137q2 -128 -63.5 -229.5t-179 -155.5t-250.5 -51z" />
    <glyph glyph-name="scircumflex" unicode="&#x15d;" horiz-adv-x="940" 
d="M397 1520h148l264 -328h-160l-172 225h-6l-170 -225h-160zM842 289q0 -137 -105 -219q-106 -86 -256 -86q-116 0 -198 41t-127 106q-54 73 -64 156l137 35q14 -83 77 -146t175 -63q86 0 148 47q63 42 63 121q0 61 -49 98q-48 37 -119 53l-155 35q-256 59 -256 266
q0 76 35 138.5t92 97.5q110 67 221 67q110 -1 187 -38t118 -97q47 -61 61 -137l-135 -39q-15 60 -59 115q-55 65 -172 65q-83 0 -139 -47t-56 -115q0 -57 36.5 -88.5t109.5 -50.5l166 -37q53 -12 98 -34t83.5 -55t60.5 -81.5t22 -107.5z" />
    <glyph glyph-name="Scedilla" unicode="&#x15e;" horiz-adv-x="1222" 
d="M764 -184q0 -127 -90 -205q-88 -76 -225 -76q-73 0 -144 23v116q57 -16 131 -16q92 0 142.5 47t50.5 133q0 83 -64 150q-191 18 -323 141q-135 129 -150 279l148 41q24 -133 135 -224q109 -92 246 -92t229 66q48 33 76 87t28 120q0 139 -125 212q-60 35 -141 52l-196 39
q-57 11 -132 43q-74 36 -122 84q-105 102 -105 258q0 124 68 219q64 93 174 147q107 49 231 49q93 0 171.5 -22t132.5 -57.5t95 -83.5t63 -96t32 -99l-144 -45q-8 34 -23.5 67.5t-44.5 69t-67 61.5t-94.5 43t-122.5 17q-124 3 -219 -73.5t-94 -190.5q0 -89 55.5 -152
t161.5 -84l188 -37q194 -38 291 -131q67 -61 98 -137q31 -79 31 -137q0 -176 -119 -295t-303 -137q70 -84 70 -174z" />
    <glyph glyph-name="scedilla" unicode="&#x15f;" horiz-adv-x="935" 
d="M621 -184q0 -128 -89 -205q-91 -76 -225 -76q-72 0 -143 23v116q55 -16 129 -16q94 0 144 47t50 133q0 84 -61 148q-68 7 -124.5 30.5t-92.5 55t-62.5 70.5t-38.5 75t-16 70l135 35q14 -83 76.5 -146t173.5 -63q85 0 150 47q61 43 61 121q0 61 -49 98q-45 37 -117 53
l-155 35q-254 56 -254 266q0 76 35 138.5t92 97.5q107 67 219 67q210 -3 305 -135q48 -66 61 -137l-135 -39q-15 60 -59 115q-55 65 -172 65q-84 0 -140 -47q-57 -45 -57 -115q0 -57 37.5 -88.5t110.5 -50.5l163 -37q53 -12 98.5 -34t84.5 -55t61.5 -81.5t22.5 -107.5
q0 -121 -82 -197q-81 -84 -205 -102q68 -81 68 -174z" />
    <glyph glyph-name="Scaron" unicode="&#x160;" horiz-adv-x="1222" 
d="M778 1962h158l-262 -330h-148l-254 330h158l170 -225h4zM621 -14q-104 0 -201 35.5t-164 95.5q-69 60 -112 136.5t-52 154.5l148 41q24 -133 135 -224q109 -92 246 -92t229 66q48 33 76 87t28 120q0 139 -125 212q-60 35 -141 52l-196 39q-57 11 -132 43q-74 36 -122 84
q-105 102 -105 258q0 124 68 219q64 93 174 147q107 49 231 49q93 0 171.5 -22t132.5 -57.5t95 -83.5t63 -96t32 -99l-144 -45q-8 34 -23.5 67.5t-44.5 69t-67 61.5t-94.5 43t-122.5 17q-124 3 -219 -73.5t-94 -190.5q0 -89 55.5 -152t161.5 -84l188 -37q188 -38 289 -131
q69 -60 100 -139q31 -76 31 -135q1 -194 -142 -317.5t-353 -118.5z" />
    <glyph glyph-name="scaron" unicode="&#x161;" horiz-adv-x="937" 
d="M471 1294l172 226h158l-262 -328h-148l-256 328h160l170 -226h6zM840 289q0 -137 -105 -219q-106 -86 -256 -86q-116 0 -197 40.5t-126 106.5q-54 73 -64 156l135 35q7 -38 24.5 -72.5t46.5 -66.5t75.5 -51t105.5 -19q86 0 148 47q63 42 63 121q0 61 -49 98
q-48 37 -119 53l-153 35q-102 20 -174 78q-82 63 -82 188q0 79 35.5 140.5t90.5 95t111.5 50.5t108.5 17q214 -3 305 -135q51 -67 61 -137l-135 -39q-16 64 -59 115q-55 65 -170 65q-86 0 -142 -47q-55 -46 -55 -115q0 -57 36.5 -88.5t109.5 -50.5l165 -37q53 -12 98 -34
t84 -55t61 -81.5t22 -107.5z" />
    <glyph glyph-name="uni0162" unicode="&#x162;" horiz-adv-x="1239" 
d="M778 -184q0 -127 -90 -205q-88 -76 -225 -76q-70 0 -144 23v116q57 -16 132 -16q92 0 143 47t51 133q0 93 -78 162h-24v1346h-502v147h1157v-147h-498v-1346q35 -37 56.5 -87.5t21.5 -96.5z" />
    <glyph glyph-name="uni0163" unicode="&#x163;" horiz-adv-x="724" 
d="M268 -342q93 0 143 46.5t50 133.5q0 95 -90 182q-135 58 -135 244v623h-189v131h189v293h147v-293h258v-131h-258v-621q0 -143 166 -143q38 0 92 8v-123q-53 -16 -117 -16q33 -37 52.5 -84.5t19.5 -91.5q0 -127 -90 -205q-88 -76 -223 -76q-55 0 -107 12v119q47 -8 92 -8
z" />
    <glyph glyph-name="Tcaron" unicode="&#x164;" horiz-adv-x="1239" 
d="M795 1962h157l-262 -328h-147l-256 328h159l170 -225h7zM700 1346v-1346h-157v1346h-502v147h1157v-147h-498z" />
    <glyph glyph-name="tcaron" unicode="&#x165;" horiz-adv-x="724" 
d="M541 1554h164l-66 -428h-127zM524 -8q-288 0 -288 272v623h-189v131h189v293h147v-293h258v-131h-258v-621q0 -143 166 -143q38 0 92 8v-123q-53 -16 -117 -16z" />
    <glyph glyph-name="Tbar" unicode="&#x166;" 
d="M272 686v145h281v515h-498v147h1153v-147h-497v-515h284v-145h-284v-686h-158v686h-281z" />
    <glyph glyph-name="tbar" unicode="&#x167;" horiz-adv-x="735" 
d="M621 631v-131h-230v-234q0 -143 166 -143q42 0 92 8v-123q-53 -16 -117 -16q-288 0 -288 272v236h-172v131h172v256h-189v131h189v293h147v-293h258v-131h-258v-256h230z" />
    <glyph glyph-name="Utilde" unicode="&#x168;" horiz-adv-x="1499" 
d="M877 1669q-68 0 -129 45q-58 47 -121 47q-61 0 -76 -92h-109q3 99 47 160q43 61 136 61q42 2 129.5 -46t124.5 -46q63 0 84 88h92q0 -96 -43 -157q-45 -60 -135 -60zM1155 573v920h156v-909q0 -284 -148 -441t-413 -157q-270 0 -414 159q-148 160 -148 428v920h158v-911
q0 -240 119 -346q112 -103 291 -103q195 0 295 115q104 116 104 325z" />
    <glyph glyph-name="utilde" unicode="&#x169;" horiz-adv-x="1206" 
d="M725 1192q-74 0 -129 47q-61 45 -123 45q-61 0 -76 -90h-106q0 94 45 158q46 61 137 61q42 2 129.5 -45.5t124.5 -46.5q63 0 82 88h94q-3 -97 -43 -158q-47 -59 -135 -59zM305 1018v-592q0 -144 72 -225q69 -84 209 -84q133 0 219 92q86 95 86 229v580h145v-1018h-145
v186q-120 -206 -348 -206q-181 0 -287 112q-100 112 -100 297v629h149z" />
    <glyph glyph-name="Umacron" unicode="&#x16a;" horiz-adv-x="1501" 
d="M1073 1686h-643v135h643v-135zM1157 573v920h156v-909q0 -284 -148 -441t-413 -157q-269 0 -416 159q-148 160 -148 428v920h158v-911q0 -240 119 -346q112 -103 293 -103q192 0 295 115q104 116 104 325z" />
    <glyph glyph-name="umacron" unicode="&#x16b;" horiz-adv-x="1206" 
d="M918 1221h-644v133h644v-133zM305 1018v-592q0 -144 72 -225q69 -84 209 -84q133 0 219 92q86 95 86 229v580h145v-1018h-145v186q-120 -206 -348 -206q-181 0 -287 112q-100 112 -100 297v629h149z" />
    <glyph glyph-name="Uring" unicode="&#x16e;" horiz-adv-x="1501" 
d="M750 1589q-108 0 -187 76q-78 75 -78 180q0 103 78 178q79 76 187 76q111 0 190 -76q78 -75 78 -178q0 -105 -78 -180q-79 -76 -190 -76zM750 1993q-64 0 -107 -43q-45 -42 -45 -105q0 -64 45 -106q43 -43 107 -43t110 43q43 43 43 106q0 60 -45 105q-46 43 -108 43z
M1157 573v920h156v-909q0 -284 -148 -441t-413 -157q-269 0 -416 159q-148 160 -148 428v920h158v-911q0 -240 119 -346q112 -103 293 -103q192 0 295 115q104 116 104 325z" />
    <glyph glyph-name="uring" unicode="&#x16f;" horiz-adv-x="1206" 
d="M594 1151q-104 0 -186 76q-78 75 -78 180q0 103 78 178q80 74 186 74q113 0 190 -74q78 -75 78 -178q0 -105 -78 -180q-79 -76 -190 -76zM594 1554q-64 0 -107 -43q-45 -42 -45 -104q0 -65 45 -107q43 -43 107 -43q65 0 111 43q43 43 43 107q0 58 -46 104q-46 43 -108 43
zM305 1018v-592q0 -144 72 -225q69 -84 209 -84q133 0 219 92q86 95 86 229v580h145v-1018h-145v186q-120 -206 -348 -206q-181 0 -287 112q-100 112 -100 297v629h149z" />
    <glyph glyph-name="Uhungarumlaut" unicode="&#x170;" horiz-adv-x="1497" 
d="M721 1958h180l-246 -328h-141zM1049 1958h180l-244 -328h-141zM1153 573v920h158v-909q0 -281 -148 -441q-148 -157 -415 -157q-268 0 -412 159q-148 160 -148 428v920h156v-911q0 -237 119 -346q112 -103 293 -103q192 0 295 115q102 117 102 325z" />
    <glyph glyph-name="uhungarumlaut" unicode="&#x171;" horiz-adv-x="1204" 
d="M561 1520h180l-245 -328h-142zM889 1520h180l-244 -328h-141zM303 1018v-592q0 -142 74 -225q69 -84 209 -84q131 0 217 92t86 229v580h147v-1018h-145v186q-123 -206 -350 -206q-182 0 -285 112q-100 112 -100 297v629h147z" />
    <glyph glyph-name="Uogonek" unicode="&#x172;" horiz-adv-x="1497" 
d="M934 -346v-115q-28 -4 -53 -4q-108 0 -181 55q-75 57 -75 156q0 111 147 240h-24q-268 0 -412 159q-148 160 -148 428v920h156v-911q0 -237 119 -346q112 -103 293 -103q192 0 295 115q102 117 102 325v920h158v-909q0 -236 -107 -389q-107 -152 -303 -195
q-56 -50 -92 -104q-41 -59 -41 -115q0 -130 166 -127z" />
    <glyph glyph-name="uogonek" unicode="&#x173;" horiz-adv-x="1204" 
d="M905 -219q0 -130 166 -127v-115q-32 -4 -55 -4q-105 0 -178 55q-76 57 -76 156q0 122 166 254h-37v186q-123 -206 -350 -206q-182 0 -285 112q-100 112 -100 297v629h147v-592q0 -142 74 -225q69 -84 209 -84q131 0 217 92t86 229v580h147v-1018q-52 -46 -92 -104
q-39 -64 -39 -115z" />
    <glyph glyph-name="Wcircumflex" unicode="&#x174;" horiz-adv-x="2187" 
d="M1016 1956h149l262 -328h-157l-174 225h-4l-170 -225h-160zM1006 1493h178l397 -1274h2l393 1274h158l-469 -1493h-174l-397 1282l-402 -1282h-172l-467 1493h164l391 -1268h4z" />
    <glyph glyph-name="wcircumflex" unicode="&#x175;" horiz-adv-x="1650" 
d="M748 1520h147l262 -328h-158l-172 225h-6l-170 -225h-157zM473 174l277 844h151l277 -846h2l270 846h154l-344 -1018h-164l-271 827h-2l-270 -827h-164l-340 1018h156z" />
    <glyph glyph-name="Ycircumflex" unicode="&#x176;" horiz-adv-x="1413" 
d="M629 1956h149l262 -328h-159l-172 225h-4l-173 -225h-157zM627 629l-578 864h189l471 -715l477 715h178l-578 -862v-631h-159v629z" />
    <glyph glyph-name="ycircumflex" unicode="&#x177;" horiz-adv-x="1132" 
d="M498 1520h147l264 -328h-159l-172 225h-5l-172 -225h-157zM938 1018h160l-697 -1520h-161l264 572l-463 948h170l373 -787z" />
    <glyph glyph-name="Ydieresis" unicode="&#x178;" horiz-adv-x="1413" 
d="M594 1669q-34 -34 -78 -34t-78 34t-34 81t34 81t78 34t78 -34q35 -34 35 -81t-35 -81zM977 1669q-34 -34 -78.5 -34t-79.5 34q-34 34 -34 81t34 81q35 34 79.5 34t78.5 -34t34 -81t-34 -81zM627 629l-578 864h189l471 -715l477 715h178l-578 -862v-631h-159v629z" />
    <glyph glyph-name="Zacute" unicode="&#x179;" horiz-adv-x="1228" 
d="M623 1958h180l-246 -328h-141zM98 1493h1047v-143l-893 -1207h897v-143h-1079v143l893 1207h-865v143z" />
    <glyph glyph-name="zacute" unicode="&#x17a;" horiz-adv-x="980" 
d="M612 1520h181l-246 -328h-141zM895 0h-815v127l637 764h-623v127h799v-127l-635 -764h637v-127z" />
    <glyph glyph-name="Zdotaccent" unicode="&#x17b;" horiz-adv-x="1228" 
d="M688 1669q-35 -35 -80 -35q-43 0 -78 35q-36 33 -36 82t36 82q32 35 78 35q48 0 80 -35q35 -32 35 -82t-35 -82zM70 0v143l893 1207h-863v143h1045v-143l-893 -1207h897v-143h-1079z" />
    <glyph glyph-name="zdotaccent" unicode="&#x17c;" horiz-adv-x="980" 
d="M567 1223q-35 -34 -79.5 -34t-79.5 34q-35 38 -35 84q0 44 35 82q34 34 79 34q43 0 80 -34q35 -38 35 -82q0 -46 -35 -84zM94 891v127h799v-127l-635 -764h637v-127h-815v127l637 764h-623z" />
    <glyph glyph-name="Zcaron" unicode="&#x17d;" horiz-adv-x="1228" 
d="M782 1962h158l-262 -330h-148l-254 330h158l170 -225h4zM100 1493h1043v-143l-891 -1207h895v-143h-1077v143l891 1207h-861v143z" />
    <glyph glyph-name="zcaron" unicode="&#x17e;" horiz-adv-x="978" 
d="M487 1294l175 226h157l-262 -328h-147l-256 328h159l170 -226h4zM893 0h-813v127l635 764h-621v127h797v-127l-635 -764h637v-127z" />
    <glyph glyph-name="florin" unicode="&#x192;" horiz-adv-x="1112" 
d="M545 1018l26 125q23 132 117 239q46 55 119.5 85t163.5 30q18 0 84 -4v-129q-18 2 -58 2q-116 0 -186 -61.5t-92 -176.5l-21 -110h265v-129h-289l-111 -557q-12 -67 -40.5 -126t-74.5 -110.5t-119 -81.5t-163 -30q-46 0 -84 6v127q32 -4 55 -4q116 0 186.5 62t92.5 177
l106 537h-221v129h244z" />
    <glyph glyph-name="uni01B5" unicode="&#x1b5;" horiz-adv-x="1239" 
d="M111 688v141h471l385 521h-863v143h1043v-143l-387 -521h383v-141h-486l-403 -545h897v-143h-1077v143l403 545h-366z" />
    <glyph glyph-name="uni01B6" unicode="&#x1b6;" horiz-adv-x="983" 
d="M100 451v122h355l262 318h-623v127h799v-127l-268 -318h262v-122h-365l-270 -324h643v-127h-815v127l274 324h-254z" />
    <glyph glyph-name="uni01CD" unicode="&#x1cd;" horiz-adv-x="1478" 
d="M911 1960h160l-262 -328h-150l-253 328h157l172 -225h4zM827 1493l646 -1493h-166l-164 381h-813l-164 -381h-160l643 1493h178zM1083 524l-348 807l-346 -807h694z" />
    <glyph glyph-name="uni01CE" unicode="&#x1ce;" horiz-adv-x="1083" 
d="M520 1294l172 226h158l-262 -328h-148l-256 328h160l170 -226h6zM782 588v67q0 123 -66 185.5t-194 62.5q-125 0 -192 -67q-62 -62 -74 -140l-143 31q2 43 40.5 108t102.5 117q48 37 119 60.5t151 23.5q280 0 371 -211q31 -73 31 -168v-286q0 -249 16 -371h-147
q-15 84 -15 178q-129 -196 -344 -196q-153 0 -245 86q-97 85 -97 215v10q0 79 37 138.5t98 92.5t128.5 48.5t140.5 15.5h282zM782 465h-284q-95 0 -166 -35q-39 -18 -62.5 -53.5t-23.5 -81.5q0 -85 63 -133q61 -49 156 -49q134 0 227 90q90 87 90 227v35z" />
    <glyph glyph-name="uni01CF" unicode="&#x1cf;" horiz-adv-x="571" 
d="M461 1962h157l-262 -330h-149l-254 330h160l170 -225h4zM207 0v1493h158v-1493h-158z" />
    <glyph glyph-name="uni01D0" unicode="&#x1d0;" horiz-adv-x="485" 
d="M246 1294l172 226h157l-262 -328h-147l-256 328h160l170 -226h6zM168 0v1018h149v-1018h-149z" />
    <glyph glyph-name="uni01D1" unicode="&#x1d1;" horiz-adv-x="1705" 
d="M854 1731l172 225h160l-264 -328h-148l-254 328h158l172 -225h4zM1604 750q0 -208 -97 -388q-98 -175 -270 -276q-175 -102 -387 -102q-155 0 -297 59q-142 60 -238 162q-95 95 -155 239q-58 147 -58 297q0 211 99 387q96 178 270 279q169 100 385 100q160 0 297 -57
q141 -63 238 -160q101 -107 155 -241q58 -140 58 -299zM1442 741q0 124 -43 237.5t-121 199.5t-189.5 135t-238.5 49q-162 0 -301 -82q-136 -86 -209 -223q-74 -142 -74 -307q0 -123 43.5 -237t120.5 -198q78 -86 189 -135t237 -49q164 0 301 84q135 78 211 221
q74 139 74 305z" />
    <glyph glyph-name="uni01D2" unicode="&#x1d2;" horiz-adv-x="1239" 
d="M621 1294l174 226h157l-262 -328h-147l-256 328h159l170 -226h5zM616 -18q-141 0 -264 69q-120 71 -188 191q-70 119 -70 264q0 228 152 377q150 153 375 153q142 3 264 -68t193 -193t69 -263q1 -109 -40.5 -208t-113 -170t-170.5 -112.5t-207 -39.5zM621 115
q160 0 268 114q104 113 104 277t-106 282q-108 117 -271 117q-161 0 -266 -114q-104 -113 -104 -279q-2 -105 46 -196.5t135.5 -147t193.5 -53.5z" />
    <glyph glyph-name="uni01D3" unicode="&#x1d3;" horiz-adv-x="1499" 
d="M750 1731l174 225h157l-262 -328h-147l-254 328h157l170 -225h5zM1311 1493v-909q0 -284 -148 -441t-413 -157q-270 0 -414 159q-148 160 -148 428v920h158v-911q0 -240 119 -346q112 -103 291 -103q195 0 295 115q104 116 104 325v920h156z" />
    <glyph glyph-name="uni01D4" unicode="&#x1d4;" horiz-adv-x="1204" 
d="M596 1294l174 226h158l-262 -328h-148l-254 328h158l170 -226h4zM303 1018v-592q0 -142 74 -225q69 -84 209 -84q131 0 217 92t86 229v580h147v-1018h-145v186q-123 -206 -350 -206q-182 0 -285 112q-100 112 -100 297v629h147z" />
    <glyph glyph-name="uni01D5" unicode="&#x1d5;" horiz-adv-x="1497" 
d="M1311 1493v-909q0 -281 -148 -441q-148 -157 -415 -157q-268 0 -412 159q-148 160 -148 428v920h156v-911q0 -237 119 -346q112 -103 293 -103q192 0 295 115q102 117 102 325v920h158zM1071 1894h-641v136h641v-136zM637 1585q-34 -35 -78 -35t-78 35q-35 32 -35 80
t35 80q35 35 78 35t78 -35t35 -80t-35 -80zM1018 1585q-34 -35 -78 -35t-78 35q-35 35 -35 80t35 80t78 35t78 -35t35 -80t-35 -80z" />
    <glyph glyph-name="uni01D6" unicode="&#x1d6;" horiz-adv-x="1204" 
d="M918 1518h-644v133h644v-133zM492 1196q-34 -35 -78 -35t-78 35q-34 32 -34 79t34 81t78 34t78 -34q35 -34 35 -81t-35 -79zM856 1196q-35 -35 -79 -35t-79 35q-34 32 -34 79t34 81q35 34 79 34t79 -34q34 -34 34 -81t-34 -79zM156 389v629h147v-592q0 -142 74 -225
q69 -84 209 -84q131 0 217 92t86 229v580h147v-1018h-145v186q-123 -206 -350 -206q-182 0 -285 112q-100 112 -100 297z" />
    <glyph glyph-name="uni01D7" unicode="&#x1d7;" horiz-adv-x="1497" 
d="M1311 1493v-909q0 -281 -148 -441q-148 -157 -415 -157q-268 0 -412 159q-148 160 -148 428v920h156v-911q0 -237 119 -346q112 -103 293 -103q192 0 295 115q102 117 102 325v920h158zM637 1585q-34 -35 -78 -35t-78 35q-35 32 -35 80t35 80q35 35 78 35t78 -35t35 -80
t-35 -80zM1018 1585q-34 -35 -78 -35t-78 35q-35 35 -35 80t35 80t78 35t78 -35t35 -80t-35 -80zM872 2140h179l-232 -309h-139z" />
    <glyph glyph-name="uni01D8" unicode="&#x1d8;" horiz-adv-x="1204" 
d="M156 389v629h147v-592q0 -142 74 -225q69 -84 209 -84q131 0 217 92t86 229v580h147v-1018h-145v186q-123 -206 -350 -206q-182 0 -285 112q-100 112 -100 297zM414 1161q-46 0 -78 35q-35 35 -35 80t35 80t78 35t78 -35q34 -34 34 -80t-34 -80q-32 -35 -78 -35z
M778 1161q-46 0 -78 35q-34 31 -34 80t34 80q35 35 78 35t78 -35t35 -80t-35 -80t-78 -35zM729 1808h182l-245 -329h-140z" />
    <glyph glyph-name="uni01D9" unicode="&#x1d9;" horiz-adv-x="1497" 
d="M1311 1493v-909q0 -281 -148 -441q-148 -157 -415 -157q-268 0 -412 159q-148 160 -148 428v920h156v-911q0 -237 119 -346q112 -103 293 -103q192 0 295 115q102 117 102 325v920h158zM637 1585q-34 -35 -78 -35t-78 35q-35 32 -35 80t35 80q35 35 78 35t78 -35t35 -80
t-35 -80zM1018 1585q-34 -35 -78 -35t-78 35q-35 35 -35 80t35 80t78 35t78 -35t35 -80t-35 -80zM756 1935l190 205h139l-262 -307h-147l-254 307h141l189 -205h4z" />
    <glyph glyph-name="uni01DA" unicode="&#x1da;" horiz-adv-x="1204" 
d="M156 389v629h147v-592q0 -142 74 -225q69 -84 209 -84q131 0 217 92t86 229v580h147v-1018h-145v186q-123 -206 -350 -206q-182 0 -285 112q-100 112 -100 297zM414 1161q-46 0 -78 35q-35 35 -35 80t35 80t78 35t78 -35q34 -34 34 -80t-34 -80q-32 -35 -78 -35z
M778 1161q-46 0 -78 35q-34 31 -34 80t34 80q35 35 78 35t78 -35t35 -80t-35 -80t-78 -35zM600 1585l188 225h144l-262 -329h-150l-254 329h144l184 -225h6z" />
    <glyph glyph-name="uni01DB" unicode="&#x1db;" horiz-adv-x="1497" 
d="M1311 1493v-909q0 -281 -148 -441q-148 -157 -415 -157q-268 0 -412 159q-148 160 -148 428v920h156v-911q0 -237 119 -346q112 -103 293 -103q192 0 295 115q102 117 102 325v920h158zM823 1831h-139l-231 309h178zM862 1585q34 -35 78 -35t78 35q35 35 35 80t-35 80
t-78 35t-78 -35t-35 -80t35 -80zM481 1585q34 -35 78 -35t78 35q35 35 35 80t-35 80t-78 35t-78 -35q-35 -32 -35 -80t35 -80z" />
    <glyph glyph-name="uni01DC" unicode="&#x1dc;" horiz-adv-x="1204" 
d="M156 389v629h147v-592q0 -142 74 -225q69 -84 209 -84q131 0 217 92t86 229v580h147v-1018h-145v186q-123 -206 -350 -206q-182 0 -285 112q-100 112 -100 297zM666 1479h-138l-247 329h180zM778 1161q-46 0 -78 35q-34 31 -34 80t34 80q35 35 78 35t78 -35t35 -80
t-35 -80t-78 -35zM414 1161q-46 0 -78 35q-35 35 -35 80t35 80t78 35t78 -35q34 -34 34 -80t-34 -80q-32 -35 -78 -35z" />
    <glyph glyph-name="Gcaron" unicode="&#x1e6;" horiz-adv-x="1638" 
d="M1034 1962h160l-262 -330h-150l-254 330h158l172 -225h4zM1518 1065l-150 -53q-31 91 -102 176q-49 52 -99 86q-128 88 -315 88q-123 0 -233.5 -48.5t-188.5 -133.5q-78 -86 -121 -197.5t-43 -232.5q0 -127 41.5 -239.5t116 -197t186.5 -133.5t246 -49q204 0 356 117
q73 57 118.5 143t51.5 187h-624v145h790v-57q0 -141 -47.5 -265.5t-136.5 -216.5q-89 -94 -221.5 -146t-290.5 -52q-164 0 -305.5 57t-239.5 160q-98 102 -151.5 241.5t-53.5 296.5q0 213 99 389q98 174 272 277q172 100 385 100q131 0 244.5 -35t193.5 -100
q161 -128 222 -307z" />
    <glyph glyph-name="gcaron" unicode="&#x1e7;" horiz-adv-x="1284" 
d="M610 1294l174 226h158l-262 -328h-148l-256 328h158l172 -226h4zM967 14v213q-136 -231 -394 -231q-138 0 -251 72q-108 69 -168 188q-58 119 -58 258q0 135 58 254q60 120 170 193q109 75 249 75t244 -71q84 -60 152 -160v213h147v-993q0 -261 -143 -398
q-146 -137 -387 -137q-191 0 -324 100q-136 105 -162 250l136 45q11 -44 34 -86t62.5 -84t105 -68t146.5 -26q162 0 268 90q55 45 85 123t30 180zM604 127q157 0 260 115q105 114 105 274q2 99 -46 189t-133.5 145t-185.5 53q-166 0 -260 -110q-96 -108 -96 -281
q-3 -161 96.5 -273.5t259.5 -111.5z" />
    <glyph glyph-name="uni01E8" unicode="&#x1e8;" horiz-adv-x="1292" 
d="M926 1962h159l-264 -330h-147l-254 330h158l170 -225h6zM1044 1493h218l-732 -715l768 -778h-223l-698 719h-12v-719h-158v1493h158v-659h10z" />
    <glyph glyph-name="uni01E9" unicode="&#x1e9;" horiz-adv-x="1038" 
d="M317 604l484 414h211l-537 -457l561 -561h-207l-505 510h-7v-510h-149v1554h149v-950zM838 1192l262 328h-158l-174 -226h-4l-170 226h-158l254 -328h148z" />
    <glyph glyph-name="uni01F4" unicode="&#x1f4;" horiz-adv-x="1638" 
d="M987 1958h180l-243 -328h-144zM1518 1065l-150 -53q-31 91 -102 176q-49 52 -99 86q-128 88 -315 88q-123 0 -233.5 -48.5t-188.5 -133.5q-78 -86 -121 -197.5t-43 -232.5q0 -127 41.5 -239.5t116 -197t186.5 -133.5t246 -49q204 0 356 117q73 57 118.5 143t51.5 187
h-624v145h790v-57q0 -141 -47.5 -265.5t-136.5 -216.5q-89 -94 -221.5 -146t-290.5 -52q-164 0 -305.5 57t-239.5 160q-98 102 -151.5 241.5t-53.5 296.5q0 213 99 389q98 174 272 277q172 100 385 100q131 0 244.5 -35t193.5 -100q161 -128 222 -307z" />
    <glyph glyph-name="uni01F5" unicode="&#x1f5;" horiz-adv-x="1284" 
d="M743 1520h181l-244 -328h-145zM967 14v213q-136 -231 -394 -231q-138 0 -251 72q-108 69 -168 188q-58 119 -58 258q0 135 58 254q60 120 170 193q109 75 249 75t244 -71q84 -60 152 -160v213h147v-993q0 -261 -143 -398q-146 -137 -387 -137q-191 0 -324 100
q-136 105 -162 250l136 45q11 -44 34 -86t62.5 -84t105 -68t146.5 -26q162 0 268 90q55 45 85 123t30 180zM604 127q157 0 260 115q105 114 105 274q2 99 -46 189t-133.5 145t-185.5 53q-166 0 -260 -110q-96 -108 -96 -281q-3 -161 96.5 -273.5t259.5 -111.5z" />
    <glyph glyph-name="Aringacute" unicode="&#x1fa;" horiz-adv-x="1478" 
d="M799 1864l143 229h180l-211 -285q93 -75 93 -190q0 -68 -36.5 -127.5t-97.5 -93.5l603 -1397h-166l-164 381h-813l-164 -381h-160l600 1393q-62 34 -98.5 94t-36.5 131q0 106 78 178q79 76 186 76q18 0 64 -8zM735 1765q-65 0 -108 -43t-43 -104q0 -64 43 -107
q45 -45 108 -45q64 0 109 45q45 42 45 107q0 60 -45 102q-45 45 -109 45zM735 1331l-346 -807h694z" />
    <glyph glyph-name="aringacute" unicode="&#x1fb;" horiz-adv-x="1083" 
d="M588 1425l145 230h180l-213 -285q93 -75 93 -190q0 -102 -74 -176q122 -52 178 -179q31 -73 31 -168v-286q0 -249 16 -371h-147q-15 84 -15 178q-129 -196 -344 -196q-153 0 -245 86q-97 85 -97 215v10q0 79 37 138.5t98 92.5t128.5 48.5t140.5 15.5h282v67
q0 123 -66 185.5t-194 62.5q-125 0 -192 -67q-62 -62 -74 -140l-143 31q7 89 102 186q52 55 125 86q-80 74 -80 181q0 103 78 178q82 76 188 76q28 0 62 -9zM526 1327q-65 0 -108 -43q-45 -45 -45 -104q0 -62 45 -107q46 -43 108 -43q66 0 109 43q45 42 45 107q0 60 -45 102
q-45 45 -109 45zM782 465h-284q-95 0 -166 -35q-39 -18 -62.5 -53.5t-23.5 -81.5q0 -85 63 -133q61 -49 156 -49q134 0 227 90q90 87 90 227v35z" />
    <glyph glyph-name="AEacute" unicode="&#x1fc;" horiz-adv-x="1996" 
d="M1307 1958h180l-246 -328h-141zM1874 1348h-778v-517h710v-145h-710v-541h786l-2 -145h-938v381h-571l-217 -381h-170l856 1493h1034v-145zM922 1352l-471 -828h491v828h-20z" />
    <glyph glyph-name="aeacute" unicode="&#x1fd;" horiz-adv-x="1843" 
d="M1034 1520h180l-245 -328h-142zM786 586v69q0 122 -66.5 185t-193.5 63q-125 0 -190 -59q-67 -61 -82 -148l-141 31q2 43 41 108t104 117q47 37 118.5 60.5t151.5 23.5q135 0 229 -57t132 -156q57 96 164 156q108 57 225 57q228 0 352 -145q125 -146 125 -379
q0 -26 -2 -49h-825q6 -145 112 -248q103 -100 254 -100q116 0 198.5 56t117.5 161l131 -41q-44 -146 -166 -228q-128 -81 -281 -81q-135 0 -250 65q-113 64 -180 174q-137 -239 -413 -239h-5q-156 0 -251 86q-99 83 -99 215v10q0 78 36 137t99 92q117 64 269 64h286z
M930 590h676q-12 140 -101 229q-86 86 -229 86q-127 0 -232 -94q-102 -94 -114 -221zM786 465h-288q-95 0 -166 -35q-39 -18 -62.5 -53.5t-23.5 -81.5q0 -82 63 -133q64 -49 158 -49q136 0 229 90q90 87 90 227v35z" />
    <glyph glyph-name="Oslashacute" unicode="&#x1fe;" horiz-adv-x="1716" 
d="M983 1958h180l-243 -328h-144zM1614 1473l-193 -213q90 -102 139.5 -233.5t49.5 -276.5q0 -208 -97 -388q-99 -175 -272 -276q-173 -102 -385 -102q-259 0 -457 151l-196 -211l-97 92l193 211q-190 212 -190 514q0 209 96 387q101 179 270 279q172 100 385 100
q262 0 463 -155l195 213zM270 750q0 -228 138 -404l811 891q-152 125 -363 125q-161 0 -303 -82q-133 -84 -207 -223q-76 -146 -76 -307zM1446 741q0 233 -133 400l-811 -889q154 -121 358 -121q166 0 303 84q133 78 209 221q74 133 74 305z" />
    <glyph glyph-name="oslashacute" unicode="&#x1ff;" horiz-adv-x="1247" 
d="M760 1520h180l-244 -328h-143zM1151 997l-129 -141q127 -148 127 -344q2 -109 -39 -208t-112.5 -170t-170 -112.5t-206.5 -39.5q-174 0 -306 100l-129 -141l-88 79l129 142q-129 147 -129 344q0 109 40.5 208.5t111.5 170.5q70 70 168.5 110.5t206.5 40.5q174 0 309 -100
l131 141zM248 512q0 -134 78 -244l516 566q-95 71 -219 71q-160 3 -269 -114t-106 -279zM999 506q0 136 -75 242l-518 -564q100 -71 219 -71q160 0 268 114q106 115 106 279z" />
    <glyph glyph-name="Scommaaccent" unicode="&#x218;" horiz-adv-x="1222" 
d="M621 -14q-104 0 -201 35.5t-164 95.5q-69 60 -112 136.5t-52 154.5l148 41q24 -133 135 -224q109 -92 246 -92t229 66q48 33 76 87t28 120q0 139 -125 212q-60 35 -141 52l-196 39q-57 11 -132 43q-74 36 -122 84q-105 102 -105 258q0 124 68 219q64 93 174 147
q107 49 231 49q93 0 171.5 -22t132.5 -57.5t95 -83.5t63 -96t32 -99l-144 -45q-8 34 -23.5 67.5t-44.5 69t-67 61.5t-94.5 43t-122.5 17q-124 3 -219 -73.5t-94 -190.5q0 -89 55.5 -152t161.5 -84l188 -37q194 -38 291 -131q67 -61 98 -137q31 -79 31 -137
q1 -194 -142 -317.5t-353 -118.5zM518 -614v63q52 9 90 59q37 46 37 105q-17 -10 -39 -10q-44 0 -73 30t-29 76q0 47 35 74q31 31 75 31q61 0 91 -43q32 -40 32 -103q0 -107 -59 -190q-58 -80 -160 -92z" />
    <glyph glyph-name="scommaaccent" unicode="&#x219;" horiz-adv-x="935" 
d="M840 289q0 -137 -105 -219q-106 -86 -256 -86q-116 0 -198 41t-127 106q-52 70 -62 156l135 35q14 -83 76.5 -146t173.5 -63q85 0 150 47q61 43 61 121q0 61 -49 98q-45 37 -117 53l-155 35q-254 56 -254 266q0 76 35 138.5t92 97.5q107 67 219 67q210 -3 305 -135
q48 -66 61 -137l-135 -39q-15 60 -59 115q-55 65 -172 65q-84 0 -140 -47q-57 -45 -57 -115q0 -57 37.5 -88.5t110.5 -50.5l163 -37q53 -12 98.5 -34t84.5 -55t61.5 -81.5t22.5 -107.5zM375 -614v63q50 9 88 59q39 45 39 105q-20 -10 -41 -10q-44 0 -72.5 30t-28.5 76
q0 48 33 74q36 31 78 31q56 0 90 -43q31 -45 31 -103q0 -110 -57 -190q-61 -80 -160 -92z" />
    <glyph glyph-name="uni021A" unicode="&#x21a;" horiz-adv-x="1236" 
d="M1196 1493v-147h-500v-1346h-155v1346h-500v147h1155zM516 -614v63q50 9 88 59q39 45 39 105q-20 -10 -39 -10q-45 0 -73.5 30t-28.5 76q0 48 33 74q36 31 77 31q56 0 90 -43q31 -45 31 -103q0 -110 -57 -190q-58 -80 -160 -92z" />
    <glyph glyph-name="uni021B" unicode="&#x21b;" horiz-adv-x="724" 
d="M524 -8q-288 0 -288 272v623h-189v131h189v293h147v-293h258v-131h-258v-621q0 -143 166 -143q38 0 92 8v-123q-53 -16 -117 -16zM289 -614v63q52 9 90 59q36 44 39 105q-20 -10 -41 -10q-44 0 -72.5 30t-28.5 76q0 48 33 74q31 31 78 31q58 0 88 -43q33 -42 33 -103
q0 -105 -57 -190q-62 -81 -162 -92z" />
    <glyph glyph-name="uni0237" unicode="&#x237;" horiz-adv-x="501" 
d="M332 1018v-1235q0 -143 -73.5 -217t-215.5 -74q-39 0 -94 14v123q30 -6 71 -6q78 0 121 42.5t43 119.5v1233h148z" />
    <glyph glyph-name="gravecomb" unicode="&#x300;" horiz-adv-x="0" 
d="M195 1192h-144l-246 328h183z" />
    <glyph glyph-name="acutecomb" unicode="&#x301;" horiz-adv-x="0" 
d="M12 1520h183l-246 -328h-144z" />
    <glyph glyph-name="uni0302" unicode="&#x302;" horiz-adv-x="0" 
d="M-78 1520h148l262 -328h-158l-174 225h-4l-170 -225h-158z" />
    <glyph glyph-name="tildecomb" unicode="&#x303;" horiz-adv-x="0" 
d="M127 1192q-71 0 -129 47q-57 45 -121 45q-61 0 -76 -90h-108q3 100 47 158q43 61 137 61q42 2 128.5 -45.5t123.5 -46.5q62 0 84 88h94q-3 -99 -45 -158q-44 -59 -135 -59z" />
    <glyph glyph-name="uni0304" unicode="&#x304;" horiz-adv-x="0" 
d="M322 1221h-644v133h644v-133z" />
    <glyph glyph-name="uni0306" unicode="&#x306;" horiz-adv-x="0" 
d="M0 1188q-173 0 -260 143q-46 76 -49 178h116q6 -93 57.5 -147.5t135.5 -54.5q85 0 137 53.5t58 148.5h114q-3 -144 -92 -233q-91 -88 -217 -88z" />
    <glyph glyph-name="uni0307" unicode="&#x307;" horiz-adv-x="0" 
d="M80 1223q-35 -34 -80 -34t-80 34q-35 38 -35 84q0 44 35 82q34 34 80 34t80 -34q35 -38 35 -82q0 -46 -35 -84z" />
    <glyph glyph-name="uni0308" unicode="&#x308;" horiz-adv-x="0" 
d="M-102 1223q-35 -34 -79.5 -34t-78.5 34t-34 80.5t34 80.5t78.5 34t79.5 -34q34 -34 34 -80.5t-34 -80.5zM260 1223q-34 -34 -78.5 -34t-79.5 34q-34 34 -34 80.5t34 80.5q35 34 79.5 34t78.5 -34t34 -80.5t-34 -80.5z" />
    <glyph glyph-name="uni030A" unicode="&#x30a;" horiz-adv-x="0" 
d="M0 1151q-106 0 -188 76q-78 75 -78 180q0 103 78 178q80 74 188 74q111 0 188 -74q78 -75 78 -178q0 -105 -78 -180q-79 -76 -188 -76zM0 1554q-65 0 -111 -43q-43 -43 -43 -104q0 -64 43 -107q46 -43 111 -43q63 0 109 43q45 45 45 107q0 56 -48 104q-46 43 -106 43z
" />
    <glyph glyph-name="uni030B" unicode="&#x30b;" horiz-adv-x="0" 
d="M-152 1520h181l-244 -328h-143zM176 1520h182l-245 -328h-142z" />
    <glyph glyph-name="uni030C" unicode="&#x30c;" horiz-adv-x="0" 
d="M0 1294l174 226h158l-262 -328h-148l-254 328h158l170 -226h4z" />
    <glyph glyph-name="uni0312" unicode="&#x312;" horiz-adv-x="0" 
d="M102 1599v-63q-49 -11 -90 -61q-37 -46 -37 -105q17 10 39 10q44 0 73.5 -30t29.5 -76q0 -44 -33 -74q-36 -31 -78 -31q-59 0 -90 45q-33 42 -33 103q0 102 58 188q58 79 161 94z" />
    <glyph glyph-name="uni0326" unicode="&#x326;" horiz-adv-x="0" 
d="M-102 -614v63q49 8 90 59q37 46 37 105q-17 -10 -39 -10q-44 0 -73.5 30t-29.5 76q0 44 33 74q36 31 78 31q60 0 90 -43q33 -42 33 -103q0 -104 -58 -190q-62 -81 -161 -92z" />
    <glyph glyph-name="uni0327" unicode="&#x327;" horiz-adv-x="0" 
d="M229 -184q0 -127 -90 -205q-88 -76 -225 -76q-69 0 -143 23v116q57 -16 131 -16q92 0 142 47t50 133q0 95 -76 162h134q35 -37 56 -87t21 -97z" />
    <glyph glyph-name="uni0328" unicode="&#x328;" horiz-adv-x="0" 
d="M154 -346v-115q-28 -4 -54 -4q-107 0 -180 55q-74 56 -74 156q0 124 164 254h111q-56 -50 -92 -104q-39 -56 -39 -115q0 -130 164 -127z" />
    <glyph glyph-name="Theta" unicode="&#x398;" horiz-adv-x="1705" 
d="M1604 750q0 -208 -97 -388q-98 -175 -270 -276q-175 -102 -387 -102q-155 0 -297 59q-142 60 -238 162q-95 95 -155 239q-58 147 -58 297q0 211 99 387q96 178 270 279q169 100 385 100q160 0 297 -57q141 -63 238 -160q101 -107 155 -241q58 -140 58 -299zM1442 741
q0 124 -43 237.5t-121 199.5t-189.5 135t-238.5 49q-162 0 -301 -82q-136 -86 -209 -223q-74 -142 -74 -307q0 -123 43.5 -237t120.5 -198q78 -86 189 -135t237 -49q164 0 301 84q135 78 211 221q74 139 74 305zM1274 831h-842v-145h842v145z" />
    <glyph glyph-name="uni03A9" unicode="&#x3a9;" horiz-adv-x="1662" 
d="M942 0v311q98 10 185.5 61.5t144.5 127.5q117 155 117 329q0 141 -72 267q-73 119 -201 194q-132 72 -285 72q-156 0 -282 -72q-130 -71 -201 -192q-74 -124 -74 -269q0 -181 119 -331q57 -76 143 -126.5t185 -60.5v-311h-596v137h459v78q-105 39 -190.5 98t-137.5 125
q-55 68 -82 135q-57 124 -57 261q0 145 57 268q60 126 154 211q98 89 229 138.5t274 49.5q145 0 276.5 -49.5t229.5 -138.5q97 -88 153 -213.5t56 -265.5q0 -131 -57 -261q-38 -81 -84 -135q-53 -67 -137.5 -125.5t-188.5 -97.5v-78h459v-137h-596z" />
    <glyph glyph-name="theta" unicode="&#x3b8;" horiz-adv-x="1382" 
d="M688 -18q-114 0 -213 44t-168 121q-62 68 -112 177q-91 195 -91 442q-2 177 52 344.5t155 280.5q69 77 169 121t216 44q115 0 213.5 -43.5t165.5 -119.5q72 -82 115 -176q90 -199 90 -443q0 -178 -53.5 -343.5t-153.5 -278.5q-70 -79 -170 -124.5t-215 -45.5zM690 1427
q-130 -1 -220 -72t-140 -192q-59 -136 -72 -323h868q-13 179 -75 323q-37 82 -82 135q-49 59 -121.5 94t-157.5 35zM1126 709h-868q13 -185 72 -324q37 -84 80 -139q49 -60 122 -95.5t160 -35.5t160.5 35.5t122.5 95.5q46 55 82 137q63 148 69 326z" />
    <glyph glyph-name="pi" unicode="&#x3c0;" horiz-adv-x="1329" 
d="M981 883v-617q0 -143 166 -143q38 0 92 8v-123q-53 -16 -117 -16q-288 0 -288 272v619h-385v-883h-150v883h-268v135h1208v-135h-258z" />
    <glyph glyph-name="uni0401" unicode="&#x401;" 
d="M561 1669q-34 -34 -77.5 -34t-77.5 34q-35 34 -35 81t35 81q34 34 77.5 34t77.5 -34t34 -81t-34 -81zM942 1669q-34 -34 -78 -34t-78 34t-34 81t34 81t78 34t78 -34q35 -34 35 -81t-35 -81zM1075 831v-145h-710v-541h784v-145h-942v1493h934v-145h-776v-517h710z" />
    <glyph glyph-name="uni0402" unicode="&#x402;" horiz-adv-x="1615" 
d="M1536 481q0 -248 -131 -385q-134 -137 -350 -137q-111 0 -215 43l34 137q70 -33 162 -33q128 0 228 84q52 42 81 117t29 172q0 159 -94 260q-90 103 -246 103q-262 0 -467 -187v-655h-157v1348h-369v145h1036v-145h-510v-529q127 98 244 133q115 37 240 37
q216 0 352 -133q133 -130 133 -375z" />
    <glyph glyph-name="uni0403" unicode="&#x403;" horiz-adv-x="1107" 
d="M741 1956h181l-244 -328h-143zM207 0v1493h856v-145h-698v-1348h-158z" />
    <glyph glyph-name="uni0404" unicode="&#x404;" horiz-adv-x="1607" 
d="M1378 532l148 -53q-57 -186 -197 -317q-87 -81 -209 -130t-272 -48q-152 0 -288.5 55.5t-237.5 155.5q-102 99 -160 239q-60 148 -60 307q0 167 62 312q63 148 164 243q102 99 237 156q134 57 291 57q114 0 217 -30.5t178 -81.5q71 -50 131 -117q109 -126 140 -262
l-150 -51q-13 55 -49 120q-47 86 -119 150q-143 125 -352 125q-217 0 -385 -148q-166 -149 -193 -383h715v-145h-717q21 -242 181 -399q165 -154 399 -154q149 0 254 55q85 45 162 134q55 70 86 149q13 29 24 61z" />
    <glyph glyph-name="uni0405" unicode="&#x405;" horiz-adv-x="1222" 
d="M621 -14q-104 0 -201 35.5t-164 95.5q-69 60 -112 136.5t-52 154.5l148 41q24 -133 135 -224q109 -92 246 -92t229 66q48 33 76 87t28 120q0 139 -125 212q-60 35 -141 52l-196 39q-57 11 -132 43q-74 36 -122 84q-105 102 -105 258q0 124 68 219q64 93 174 147
q107 49 231 49q93 0 171.5 -22t132.5 -57.5t95 -83.5t63 -96t32 -99l-144 -45q-8 34 -23.5 67.5t-44.5 69t-67 61.5t-94.5 43t-122.5 17q-124 3 -219 -73.5t-94 -190.5q0 -89 55.5 -152t161.5 -84l188 -37q194 -38 291 -131q67 -61 98 -137q31 -79 31 -137
q1 -194 -142 -317.5t-353 -118.5z" />
    <glyph glyph-name="uni0406" unicode="&#x406;" horiz-adv-x="571" 
d="M365 1493v-1493h-158v1493h158z" />
    <glyph glyph-name="uni0407" unicode="&#x407;" horiz-adv-x="571" 
d="M174 1669q-35 -34 -79.5 -34t-78.5 34t-34 81t34 81t78.5 34t79.5 -34q34 -34 34 -81t-34 -81zM555 1669q-34 -34 -78 -34t-78 34q-35 34 -35 81t35 81q34 34 78 34t78 -34t34 -81t-34 -81zM365 1493v-1493h-158v1493h158z" />
    <glyph glyph-name="uni0408" unicode="&#x408;" horiz-adv-x="1187" 
d="M840 1493h155v-1028q0 -208 -127 -344q-126 -135 -325 -135q-214 0 -340 129q-127 130 -127 346v147h155v-141q0 -169 97 -256q90 -78 209 -78q132 0 217 94q86 92 86 234v1032z" />
    <glyph glyph-name="uni0409" unicode="&#x409;" horiz-adv-x="2297" 
d="M1321 911h336q171 0 311 -55q87 -39 135 -80q58 -49 92.5 -128.5t34.5 -176.5q0 -202 -135 -334q-68 -65 -175 -101t-239 -36h-516v1348h-583l-82 -760q-19 -188 -80 -326q-40 -85 -84 -137q-52 -59 -128.5 -94t-168.5 -35h-8v143q63 0 116 31.5t89 83.5q36 56 57 115
q40 106 53 241l94 883h881v-582zM1321 145h354q118 0 211 39q49 16 96 56q42 37 67.5 97t25.5 132q0 139 -107 217q-111 82 -303 82h-344v-623z" />
    <glyph glyph-name="uni040A" unicode="&#x40a;" horiz-adv-x="2347" 
d="M365 879h847v614h160v-614h369q165 0 301 -58q67 -29 123 -78q114 -103 114 -288q0 -205 -137 -330t-389 -125h-541v731h-847v-731h-158v1493h158v-614zM1372 145h365q114 0 207 35q52 18 90 53q39 33 62.5 90.5t23.5 129.5q0 137 -99 210.5t-292 73.5h-357v-592z" />
    <glyph glyph-name="uni040B" unicode="&#x40b;" horiz-adv-x="1640" 
d="M1038 825q-261 0 -471 -192v-633h-155v1348h-371v145h1036v-145h-510v-545q121 90 246 135q106 35 238 35q220 0 352 -117q133 -115 133 -338v-518h-154v479q0 156 -94 250q-96 96 -250 96z" />
    <glyph glyph-name="uni040C" unicode="&#x40c;" horiz-adv-x="1290" 
d="M803 1956h180l-246 -328h-141zM1044 1493h218l-732 -715l766 -778h-221l-700 719h-10v-719h-158v1493h158v-659h10z" />
    <glyph glyph-name="uni040E" unicode="&#x40e;" horiz-adv-x="1325" 
d="M881 1706q-82 -76 -203 -76q-119 0 -201 76q-84 72 -108 197l106 20q49 -172 203 -172q157 0 203 172l106 -20q-21 -124 -106 -197zM1333 1493l-553 -1112q-46 -90 -65 -125q-28 -47 -68 -96t-74 -74q-128 -89 -348 -86h-106v145h98h53q14 0 58 7q56 7 123 38
q98 52 170 199l-598 1104h178l501 -942l459 942h172z" />
    <glyph glyph-name="uni040F" unicode="&#x40f;" horiz-adv-x="1568" 
d="M207 0v1493h158v-1348h841v1348h156v-1493h-500v-311h-155v311h-500z" />
    <glyph glyph-name="uni0410" unicode="&#x410;" horiz-adv-x="1478" 
d="M827 1493l646 -1493h-166l-164 381h-813l-164 -381h-160l643 1493h178zM1083 524l-348 807l-346 -807h694z" />
    <glyph glyph-name="uni0411" unicode="&#x411;" horiz-adv-x="1372" 
d="M365 883h360q175 0 309 -54q80 -36 131 -79q58 -49 92.5 -129t34.5 -177q0 -200 -141 -323q-142 -121 -401 -121h-543v1493h977v-145h-819v-465zM365 145h364q123 0 213 33q62 22 98 53q95 78 95 226q0 135 -107.5 209.5t-306.5 74.5h-356v-596z" />
    <glyph glyph-name="uni0412" unicode="&#x412;" horiz-adv-x="1396" 
d="M207 1493h536q208 3 345 -98.5t137 -276.5q0 -56 -21 -123q-9 -34 -37 -77q-25 -40 -70 -78.5t-100 -63.5q77 -20 138 -63.5t94 -98.5q61 -102 61 -204q0 -103 -41 -183.5t-116 -130.5q-149 -96 -369 -96h-557v1493zM362 829h357q175 0 260 76q86 77 86 195
q0 66 -28 115.5t-76 78t-105.5 42.5t-124.5 14h-369v-521zM362 143h406q51 0 100 8.5t97.5 28.5t84 51t58 79.5t22.5 109.5q0 172 -180 235q-91 35 -213 35h-375v-547z" />
    <glyph glyph-name="uni0413" unicode="&#x413;" horiz-adv-x="1107" 
d="M1063 1493v-145h-698v-1348h-158v1493h856z" />
    <glyph glyph-name="uni0414" unicode="&#x414;" horiz-adv-x="1617" 
d="M176 -313h-145v463h2q147 -5 246 217q44 93 73 254q15 71 19 114l86 758h907v-1348h162v-458h-148v313h-1202v-313zM596 1348l-74 -662q-18 -157 -71 -305q-49 -145 -146 -236h903v1203h-612z" />
    <glyph glyph-name="uni0415" unicode="&#x415;" 
d="M1075 831v-145h-710v-541h784v-145h-942v1493h934v-145h-776v-517h710z" />
    <glyph glyph-name="uni0416" unicode="&#x416;" horiz-adv-x="1906" 
d="M1210 764l699 -764h-213l-654 725h-10v-725h-158v725h-10l-653 -725h-213l698 764l-667 729h204l631 -700h10v700h158v-700h10l631 700h205z" />
    <glyph glyph-name="uni0417" unicode="&#x417;" horiz-adv-x="1243" 
d="M610 -16q-110 0 -207.5 36t-166.5 99q-141 131 -162 301l151 29q9 -82 59 -154.5t134 -118.5q86 -47 192 -47q43 0 90.5 10.5t97.5 35.5t90 60.5t65.5 91.5t25.5 124q0 126 -100 206q-103 80 -261 80q-94 0 -155 -22l-74 125l512 510h-790v143h989v-137l-475 -475
q90 3 179 -22t154 -71q84 -58 131.5 -144.5t47.5 -186.5q0 -111 -46 -203.5t-130 -157.5q-144 -112 -351 -112z" />
    <glyph glyph-name="uni0418" unicode="&#x418;" horiz-adv-x="1603" 
d="M389 0h-182v1493h158v-1282l849 1282h183v-1493h-156v1290z" />
    <glyph glyph-name="uni0419" unicode="&#x419;" horiz-adv-x="1603" 
d="M803 1630q-121 0 -203 76q-85 73 -106 197l106 20q49 -172 203 -172q151 0 203 172l106 -20q-24 -125 -108 -197q-82 -76 -201 -76zM1397 1493v-1493h-156v1290l-852 -1290h-182v1493h158v-1282l849 1282h183z" />
    <glyph glyph-name="uni041A" unicode="&#x41a;" horiz-adv-x="1290" 
d="M1044 1493h218l-732 -715l766 -778h-221l-700 719h-10v-719h-158v1493h158v-659h10z" />
    <glyph glyph-name="uni041B" unicode="&#x41b;" horiz-adv-x="1546" 
d="M582 1348l-82 -760q-19 -188 -80 -326q-40 -85 -84 -137q-52 -59 -128.5 -94t-168.5 -35h-8v143q64 0 117.5 31.5t87.5 83.5q36 56 57 115q40 107 53 239l94 885h899v-1493h-155v1348h-602z" />
    <glyph glyph-name="uni041C" unicode="&#x41c;" horiz-adv-x="1974" 
d="M1055 0h-142l-551 1270v-1270h-155v1493h223l557 -1280l553 1280h225v-1493h-155v1280z" />
    <glyph glyph-name="uni041D" unicode="&#x41d;" horiz-adv-x="1579" 
d="M365 1493v-662h849v662h158v-1493h-158v684h-849v-684h-158v1493h158z" />
    <glyph glyph-name="uni041E" unicode="&#x41e;" horiz-adv-x="1705" 
d="M1604 750q0 -208 -97 -388q-98 -175 -270 -276q-175 -102 -387 -102q-155 0 -297 59q-142 60 -238 162q-95 95 -155 239q-58 147 -58 297q0 211 99 387q96 178 270 279q169 100 385 100q160 0 297 -57q141 -63 238 -160q101 -107 155 -241q58 -140 58 -299zM1442 741
q0 124 -43 237.5t-121 199.5t-189.5 135t-238.5 49q-162 0 -301 -82q-136 -86 -209 -223q-74 -142 -74 -307q0 -123 43.5 -237t120.5 -198q78 -86 189 -135t237 -49q164 0 301 84q135 78 211 221q74 139 74 305z" />
    <glyph glyph-name="uni041F" unicode="&#x41f;" horiz-adv-x="1560" 
d="M207 1493h1147v-1493h-156v1348h-833v-1348h-158v1493z" />
    <glyph glyph-name="uni0420" unicode="&#x420;" horiz-adv-x="1298" 
d="M207 1493h500q106 1 194 -23.5t148.5 -67t102 -100t60.5 -122.5t19 -136q0 -194 -137 -325q-68 -64 -175 -99.5t-237 -35.5h-317v-584h-158v1493zM365 729h321q200 0 297 100q88 88 88 211q0 46 -10.5 87.5t-38 82.5t-69 70.5t-108 47.5t-151.5 18h-329v-617z" />
    <glyph glyph-name="uni0421" unicode="&#x421;" horiz-adv-x="1599" 
d="M848 -16q-152 0 -290 56t-239 155q-99 99 -157 239q-60 148 -60 307q0 167 62 312q63 146 162 243q104 101 241.5 157t286.5 56q115 0 219 -30.5t178 -83.5q69 -46 131 -115q101 -117 140 -262l-150 -53q-21 85 -88 180q-46 63 -96 104q-59 49 -144 78q-85 33 -194 33
q-116 0 -223.5 -44.5t-186.5 -123.5q-81 -81 -127.5 -196t-46.5 -244q0 -178 76 -318q74 -142 211 -221q133 -80 299 -80q97 0 183.5 29.5t144.5 75.5q58 45 98 102q39 53 63 102q27 65 35 90l150 -53q-39 -135 -137 -254q-53 -64 -129 -121q-76 -55 -184.5 -87.5
t-227.5 -32.5z" />
    <glyph glyph-name="uni0422" unicode="&#x422;" horiz-adv-x="1234" 
d="M1194 1493v-147h-498v-1346h-157v1346h-498v147h1153z" />
    <glyph glyph-name="uni0423" unicode="&#x423;" horiz-adv-x="1325" 
d="M1333 1493l-553 -1112q-46 -90 -65 -125q-28 -47 -68 -96t-74 -74q-128 -89 -348 -86h-106v145h98h53q14 0 58 7q56 7 123 38q98 52 170 199l-598 1104h178l501 -942l459 942h172z" />
    <glyph glyph-name="uni0424" unicode="&#x424;" horiz-adv-x="1812" 
d="M827 -47v172q-348 3 -544 172q-199 175 -199 463q-1 296 202 465t541 166v149h156v-149q340 3 542 -165.5t201 -465.5q0 -291 -196 -463q-196 -169 -547 -172v-172h-156zM827 272v975q-274 0 -428 -127q-151 -127 -151 -362q0 -242 151 -363q153 -123 428 -123zM983 1247
v-975q277 0 430 123q152 125 152 363q0 234 -152 362q-154 127 -430 127z" />
    <glyph glyph-name="uni0425" unicode="&#x425;" horiz-adv-x="1361" 
d="M223 1493l461 -614l457 614h182l-547 -727l572 -766h-183l-485 653l-481 -653h-185l574 764l-547 729h182z" />
    <glyph glyph-name="uni0426" unicode="&#x426;" horiz-adv-x="1615" 
d="M1362 1493v-1348h160v-458h-148v313h-1167v1493h158v-1348h841v1348h156z" />
    <glyph glyph-name="uni0427" unicode="&#x427;" horiz-adv-x="1404" 
d="M1040 0v637q-94 -55 -229 -100q-130 -43 -223 -43q-242 0 -371 135q-47 49 -74.5 125.5t-27.5 169.5v569h155v-551q0 -61 19 -113.5t57 -95t103 -66.5t149 -24q110 0 223 41q125 43 219 100v709h158v-1493h-158z" />
    <glyph glyph-name="uni0428" unicode="&#x428;" horiz-adv-x="2293" 
d="M1067 1493h158v-1348h704v1348h156v-1493h-1878v1493h158v-1348h702v1348z" />
    <glyph glyph-name="uni0429" unicode="&#x429;" horiz-adv-x="2338" 
d="M1225 1493v-1348h704v1348h156v-1348h160v-458h-146v313h-1892v1493h158v-1348h702v1348h158z" />
    <glyph glyph-name="uni042A" unicode="&#x42a;" horiz-adv-x="1529" 
d="M553 911h334q173 0 313 -55q88 -40 133 -80q59 -49 94 -128.5t35 -176.5q0 -203 -137 -334q-67 -65 -173.5 -101t-240.5 -36h-514v1348h-364v145h520v-582zM553 145h354q118 0 211 39q46 15 94 56q42 37 67.5 97t25.5 132q0 141 -105 217q-111 82 -305 82h-342v-623z" />
    <glyph glyph-name="uni042B" unicode="&#x42b;" horiz-adv-x="1787" 
d="M365 911h333q174 0 314 -55q82 -37 133 -80q59 -49 94 -128.5t35 -176.5q0 -203 -137 -334q-68 -65 -175 -101t-239 -36h-516v1493h158v-582zM1423 1493v-1493h156v1493h-156zM365 145h352q120 0 213 39q47 16 94 56q42 37 67 97t25 132q0 141 -104 217q-111 82 -305 82
h-342v-623z" />
    <glyph glyph-name="uni042C" unicode="&#x42c;" horiz-adv-x="1341" 
d="M365 911h333q174 0 314 -55q82 -37 133 -80q59 -49 94 -128.5t35 -176.5q0 -203 -137 -334q-68 -65 -175 -101t-239 -36h-516v1493h158v-582zM365 145h352q120 0 213 39q47 16 94 56q42 37 67 97t25 132q0 141 -104 217q-111 82 -305 82h-342v-623z" />
    <glyph glyph-name="uni042D" unicode="&#x42d;" horiz-adv-x="1607" 
d="M770 1509q155 0 289.5 -54.5t234.5 -154.5q99 -100 155 -243t56 -307q0 -165 -56.5 -309.5t-156.5 -245.5q-101 -100 -239 -155.5t-293 -55.5q-121 0 -227 34t-179.5 86.5t-131.5 121t-90.5 131t-49.5 122.5l147 53q31 -83 62 -133q48 -83 125 -149q141 -117 348 -117
q238 0 395 154q158 158 176 399h-717v145h715q-15 153 -94.5 275.5t-204 190t-270.5 65.5q-99 0 -188.5 -31.5t-149.5 -79.5q-55 -44 -100 -104q-73 -100 -90 -180l-150 51q23 99 98 201.5t189 177.5q76 52 180.5 82t216.5 30z" />
    <glyph glyph-name="uni042E" unicode="&#x42e;" horiz-adv-x="2189" 
d="M1364 1507q188 1 342.5 -81t247.5 -224q131 -195 131 -452q0 -156 -53 -297.5t-148 -245.5q-94 -105 -230.5 -164t-293.5 -59q-148 0 -277.5 52.5t-222.5 147.5q-93 93 -149 220t-66 274h-280v-678h-158v1493h158v-670h280q12 143 69 269t150 219t222.5 144.5t277.5 51.5
zM1364 131q170 0 297 84q127 79 194 221q68 139 68 305q0 262 -149 437q-72 86 -179.5 135t-234.5 49q-126 0 -232.5 -48.5t-177.5 -135.5q-147 -181 -147 -435t149 -430q73 -86 180 -134t232 -48z" />
    <glyph glyph-name="uni042F" unicode="&#x42f;" horiz-adv-x="1376" 
d="M78 0l457 621q-177 21 -297 137q-115 112 -115 293q0 90 28.5 164t77.5 124.5t117 86t145 51.5t162 16h516v-1493h-155v596h-309l-439 -596h-188zM1014 1350h-350q-155 0 -265 -70q-56 -37 -87 -99t-31 -139t32.5 -138t88 -98t123 -56t141.5 -19h348v619z" />
    <glyph glyph-name="uni0430" unicode="&#x430;" horiz-adv-x="1083" 
d="M782 588v67q0 123 -66 185.5t-194 62.5q-125 0 -192 -67q-62 -62 -74 -140l-143 31q2 43 40.5 108t102.5 117q48 37 119 60.5t151 23.5q280 0 371 -211q31 -73 31 -168v-286q0 -249 16 -371h-147q-15 84 -15 178q-129 -196 -344 -196q-153 0 -245 86q-97 85 -97 215v10
q0 79 37 138.5t98 92.5t128.5 48.5t140.5 15.5h282zM782 465h-284q-95 0 -166 -35q-39 -18 -62.5 -53.5t-23.5 -81.5q0 -85 63 -133q61 -49 156 -49q134 0 227 90q90 87 90 227v35z" />
    <glyph glyph-name="uni0431" unicode="&#x431;" horiz-adv-x="1251" 
d="M268 786h2q122 242 406 242q196 0 334 -135q67 -64 106 -162t39 -211q0 -243 -143 -389q-144 -147 -371 -147q-220 0 -360 143q-70 73 -109 192.5t-39 272.5q0 114 2 151q3 59 15 144q9 84 30 139q20 53 62 123q39 66 94.5 112.5t144.5 90.5q77 42 197 71l385 97l41 -125
l-367 -95q-164 -44 -270 -110q-80 -50 -135 -141q-19 -30 -33.5 -79t-19.5 -89q-1 -13 -5 -45t-6 -50zM287 510q0 -177 98 -287t258 -110t260 112q103 109 103 285q0 181 -103 287q-101 104 -258 104q-160 0 -258 -104q-100 -103 -100 -287z" />
    <glyph glyph-name="uni0432" unicode="&#x432;" horiz-adv-x="1150" 
d="M168 1018h500q63 0 120.5 -14.5t106 -43.5t77.5 -79.5t29 -116.5q0 -163 -172 -236q228 -58 228 -249q0 -73 -32.5 -128.5t-87 -87.5t-118 -47.5t-133.5 -15.5h-518v1018zM317 578h328q72 0 131 30q76 39 76 140q0 84 -74 114q-64 27 -131 27h-330v-311zM317 129h355
q88 0 153 33q80 43 80 139q0 89 -80 127q-79 31 -174 31h-334v-330z" />
    <glyph glyph-name="uni0433" unicode="&#x433;" horiz-adv-x="886" 
d="M850 887h-533v-887h-149v1018h682v-131z" />
    <glyph glyph-name="uni0434" unicode="&#x434;" horiz-adv-x="1263" 
d="M55 129h4q118 0 177 178q31 95 47 246l53 465h715v-887h118v-446h-143v315h-825v-315h-146v444zM467 887l-39 -346q-38 -322 -145 -410h618v756h-434z" />
    <glyph glyph-name="uni0435" unicode="&#x435;" horiz-adv-x="1157" 
d="M1067 463h-823q9 -151 112 -248q103 -100 252 -100q116 0 198.5 56t117.5 161l131 -41q-44 -146 -166 -228q-125 -81 -279 -81q-143 0 -264 71q-120 70 -184 193q-68 121 -68 264q0 139 64 258q61 121 178 195q113 73 254 73q153 0 262 -69q110 -67 164 -187
q53 -112 53 -268q0 -26 -2 -49zM246 590h674q-15 138 -103 229q-86 86 -227 86q-128 0 -228 -92q-98 -93 -116 -223z" />
    <glyph glyph-name="uni0436" unicode="&#x436;" horiz-adv-x="1556" 
d="M1034 524l498 -524h-201l-465 494h-14v-494h-147v494h-15l-463 -494h-202l497 524l-485 494h190l463 -469h15v469h147v-469h16l463 469h191z" />
    <glyph glyph-name="uni0437" unicode="&#x437;" horiz-adv-x="1007" 
d="M498 -18q-143 0 -267 79q-116 77 -155 222l135 41q26 -99 106 -158q77 -57 187 -57q63 0 119.5 19.5t97.5 65.5t41 111q0 64 -43 107q-40 43 -96 61q-62 19 -117 19q-64 0 -111 -13l-67 107l372 305h-598v127h781v-127l-351 -283q95 -2 179 -37t141 -102q57 -69 57 -160
q0 -152 -125 -243q-119 -84 -286 -84z" />
    <glyph glyph-name="uni0438" unicode="&#x438;" horiz-adv-x="1230" 
d="M317 0h-149v1018h149v-813l594 813h152v-1018h-150v807z" />
    <glyph glyph-name="uni0439" unicode="&#x439;" horiz-adv-x="1230" 
d="M817 1264q-82 -76 -203 -76q-118 0 -200 76q-86 74 -107 196l105 21q49 -172 202 -172q156 0 205 172l105 -21q-20 -119 -107 -196zM317 0h-149v1018h149v-813l594 813h152v-1018h-150v807h-2z" />
    <glyph glyph-name="uni043A" unicode="&#x43a;" horiz-adv-x="1056" 
d="M317 569h11l493 449h205l-557 -494l586 -524h-209l-518 475h-11v-475h-149v1018h149v-449z" />
    <glyph glyph-name="uni043B" unicode="&#x43b;" horiz-adv-x="1208" 
d="M459 887l-58 -490q-7 -61 -23.5 -118t-45.5 -111.5t-67 -93.5t-93.5 -61t-120.5 -19l-4 2v131q51 0 91.5 28t64.5 76q40 82 53 191l68 596h714v-1018h-147v887h-432z" />
    <glyph glyph-name="uni043C" unicode="&#x43c;" horiz-adv-x="1536" 
d="M315 860v-860h-147v1018h219l381 -825l381 825h219v-1018h-149v862h-2l-402 -862h-96l-402 860h-2z" />
    <glyph glyph-name="uni043D" unicode="&#x43d;" horiz-adv-x="1218" 
d="M317 1018v-428h584v428h150v-1018h-150v457h-584v-457h-149v1018h149z" />
    <glyph glyph-name="uni043E" unicode="&#x43e;" horiz-adv-x="1239" 
d="M616 -18q-141 0 -264 69q-120 71 -188 191q-70 119 -70 264q0 228 152 377q150 153 375 153q142 3 264 -68t193 -193t69 -263q1 -109 -40.5 -208t-113 -170t-170.5 -112.5t-207 -39.5zM621 115q160 0 268 114q104 113 104 277t-106 282q-108 117 -271 117
q-161 0 -266 -114q-104 -113 -104 -279q-2 -105 46 -196.5t135.5 -147t193.5 -53.5z" />
    <glyph glyph-name="uni043F" unicode="&#x43f;" horiz-adv-x="1208" 
d="M893 887h-576v-887h-149v1018h872v-1018h-147v887z" />
    <glyph glyph-name="uni0440" unicode="&#x440;" horiz-adv-x="1282" 
d="M1188 510q0 -139 -59 -258t-168 -193q-110 -73 -252 -73q-252 0 -392 223v-711h-149v1520h145v-221q155 239 396 239q104 0 195.5 -44t154.5 -120q61 -74 95 -168.5t34 -193.5zM680 115q160 0 260 112q96 116 96 279q0 109 -42 198.5t-124 143.5q-79 55 -190 55
q-101 2 -187 -53.5t-133.5 -146t-44.5 -191.5q0 -164 103 -279q103 -118 262 -118z" />
    <glyph glyph-name="uni0441" unicode="&#x441;" horiz-adv-x="1171" 
d="M246 514q0 -109 44 -198t128 -144q83 -57 196 -57q124 0 209 63q32 23 64 62q45 59 67 118l138 -45q-36 -124 -156 -221q-60 -51 -145.5 -80.5t-178.5 -29.5q-144 -2 -263.5 66t-188 189t-66.5 269q0 146 72 272q71 124 190 191t262 67q171 0 304 -94q134 -100 163 -231
l-135 -45q-10 35 -34 72.5t-63.5 76t-102 63.5t-136.5 25q-161 0 -264 -112q-104 -113 -104 -277z" />
    <glyph glyph-name="uni0442" unicode="&#x442;" horiz-adv-x="948" 
d="M911 1018v-131h-362v-887h-150v887h-362v131h874z" />
    <glyph glyph-name="uni0443" unicode="&#x443;" horiz-adv-x="1132" 
d="M938 1018h160l-697 -1520h-161l264 572l-463 948h170l373 -787z" />
    <glyph glyph-name="uni0444" unicode="&#x444;" horiz-adv-x="1675" 
d="M762 -465v551q-120 -102 -250 -102q-133 0 -227 73q-96 72 -140 189q-45 113 -45 266q-3 227 110 376t302 148q74 0 132 -27.5t118 -82.5v567h149v-567q60 55 118 82.5t132 27.5q127 0 223 -69t144 -189q47 -121 47 -270q0 -219 -102 -367q-52 -74 -132.5 -115.5
t-179.5 -41.5q-78 0 -134.5 24.5t-115.5 77.5v-551h-149zM762 213v592q-91 98 -219 98q-77 0 -135 -31.5t-91 -87.5q-63 -106 -63 -278q0 -391 289 -391q125 0 219 98zM911 805v-592q94 -98 222 -98q80 0 138 31t90.5 87.5t47 124.5t14.5 152q0 83 -16 152t-49 124t-90.5 86
t-134.5 31q-131 0 -222 -98z" />
    <glyph glyph-name="uni0445" unicode="&#x445;" horiz-adv-x="1050" 
d="M225 1018l301 -395l301 395h172l-385 -498l402 -520h-176l-316 414l-315 -414h-174l403 518l-387 500h174z" />
    <glyph glyph-name="uni0446" unicode="&#x446;" horiz-adv-x="1247" 
d="M168 1018h149v-887h568v887h149v-887h119v-446h-143v315h-842v1018z" />
    <glyph glyph-name="uni0447" unicode="&#x447;" horiz-adv-x="1083" 
d="M244 1018v-365q0 -94 55 -144t152 -50q85 0 167 26q89 25 150 68v465h147v-1018h-147v420q-69 -38 -158 -64q-103 -28 -180 -28q-149 0 -242 78q-94 76 -94 225v387h150z" />
    <glyph glyph-name="uni0448" unicode="&#x448;" horiz-adv-x="1751" 
d="M168 1018h149v-887h484v887h149v-887h484v887h149v-1018h-1415v1018z" />
    <glyph glyph-name="uni0449" unicode="&#x449;" horiz-adv-x="1796" 
d="M168 1018h149v-887h484v887h149v-887h484v887h149v-887h121v-446h-143v315h-1393v1018z" />
    <glyph glyph-name="uni044A" unicode="&#x44a;" horiz-adv-x="1280" 
d="M485 647h324q81 0 151 -16.5t129 -51.5t93.5 -96.5t34.5 -144.5q0 -111 -55.5 -189.5t-141.5 -113.5t-193 -35h-489v887h-299v131h446v-371zM485 131h328q49 0 92 10t80.5 32.5t59.5 63.5t22 97q0 51 -22.5 88.5t-61 57.5t-82.5 29t-94 9h-322v-387z" />
    <glyph glyph-name="uni044B" unicode="&#x44b;" horiz-adv-x="1599" 
d="M317 647h322q82 0 152.5 -16.5t129.5 -51.5t93.5 -96.5t34.5 -144.5q0 -111 -56 -189.5t-142.5 -113.5t-193.5 -35h-489v1018h149v-371zM1282 1018v-1018h150v1018h-150zM317 131h328q49 0 92 10t80.5 32.5t59.5 63.5t22 97q0 51 -22.5 88.5t-61.5 57.5t-83 29t-95 9
h-320v-387z" />
    <glyph glyph-name="uni044C" unicode="&#x44c;" horiz-adv-x="1112" 
d="M317 647h322q82 0 152.5 -16.5t129.5 -51.5t93.5 -96.5t34.5 -144.5q0 -111 -56 -189.5t-142.5 -113.5t-193.5 -35h-489v1018h149v-371zM317 131h328q49 0 92 10t80.5 32.5t59.5 63.5t22 97q0 51 -22.5 88.5t-61.5 57.5t-83 29t-95 9h-320v-387z" />
    <glyph glyph-name="uni044D" unicode="&#x44d;" horiz-adv-x="1169" 
d="M563 1036q140 0 258 -65q116 -64 185 -187q69 -117 69 -270q2 -149 -66 -272t-188 -192.5t-264 -67.5q-96 0 -182 29.5t-144 80.5q-116 94 -153 219l133 47q21 -59 72 -120q27 -35 65 -62q88 -63 213 -63q154 0 252 98q96 101 111 250h-484v129h480q-24 139 -123 227
q-98 88 -236 88q-74 0 -139.5 -24t-106.5 -64q-78 -75 -100 -149l-131 45q36 134 172 227q140 96 307 96z" />
    <glyph glyph-name="uni044E" unicode="&#x44e;" horiz-adv-x="1646" 
d="M1044 1036q214 4 362.5 -151t145.5 -377q2 -142 -65.5 -264t-186 -193t-258.5 -69q-202 0 -344 133q-141 132 -159 334h-222v-449h-149v1018h149v-445h222q21 199 163 332q140 131 342 131zM1044 113q154 0 256 114q99 114 99 279q0 163 -101 282t-258 119
q-155 1 -256 -119t-98 -282q0 -160 102 -277q101 -116 256 -116z" />
    <glyph glyph-name="uni044F" unicode="&#x44f;" horiz-adv-x="1118" 
d="M76 0l297 397q-115 27 -187 105q-73 79 -73 198q0 60 21.5 114.5t65.5 101t121 74.5t177 28h452v-1018h-149v369h-279l-266 -369h-180zM801 887h-297q-46 0 -87.5 -10.5t-77 -32t-56.5 -60.5t-21 -90q0 -82 62 -141q66 -57 184 -57h293v391z" />
    <glyph glyph-name="uni0451" unicode="&#x451;" horiz-adv-x="1157" 
d="M483 1223q-34 -34 -77.5 -34t-77.5 34t-34 80.5t34 80.5t77.5 34t77.5 -34q35 -34 35 -80.5t-35 -80.5zM848 1223q-35 -34 -79 -34t-79 34q-34 34 -34 80.5t34 80.5q35 34 79 34t79 -34q34 -34 34 -80.5t-34 -80.5zM1067 463h-823q9 -151 112 -248q103 -100 252 -100
q116 0 198.5 56t117.5 161l131 -41q-44 -146 -166 -228q-125 -81 -279 -81q-143 0 -264 71q-120 70 -184 193q-68 121 -68 264q0 139 64 258q61 121 178 195q113 73 254 73q153 0 262 -69q110 -67 164 -187q53 -112 53 -268q0 -26 -2 -49zM246 590h674q-15 138 -103 229
q-86 86 -227 86q-128 0 -228 -92q-98 -93 -116 -223z" />
    <glyph glyph-name="uni0452" unicode="&#x452;" horiz-adv-x="1173" 
d="M1057 629v-735q0 -178 -103 -287q-100 -109 -278 -109q-106 0 -197 27l29 127q3 0 16.5 -3t29.5 -6.5t19 -4.5q49 -7 74 -7q116 0 189 82t73 215v662q0 141 -71 227q-75 84 -213 84q-134 0 -219 -94q-89 -92 -89 -232v-575h-149v1208h-127v133h127v211h149v-211h371v-133
h-371v-377q123 205 355 205q184 0 284 -112q101 -110 101 -295z" />
    <glyph glyph-name="uni0453" unicode="&#x453;" horiz-adv-x="886" 
d="M596 1520h180l-244 -328h-143zM168 1018h682v-131h-533v-887h-149v1018z" />
    <glyph glyph-name="uni0454" unicode="&#x454;" horiz-adv-x="1171" 
d="M958 358l136 -47q-36 -123 -152 -219q-60 -51 -146.5 -80.5t-185.5 -29.5q-222 0 -366 147q-150 147 -150 373q-2 150 68.5 274t192 193.5t266.5 66.5q165 0 301 -94q134 -100 163 -229l-131 -45q-18 70 -94 149q-41 40 -106.5 64t-139.5 24q-136 0 -237 -88
q-103 -86 -127 -227h479v-129h-483q15 -149 116 -250q98 -98 254 -98q124 0 209 63q32 23 66 62q46 60 67 120z" />
    <glyph glyph-name="uni0455" unicode="&#x455;" horiz-adv-x="935" 
d="M840 289q0 -137 -105 -219q-106 -86 -256 -86q-116 0 -198 41t-127 106q-52 70 -62 156l135 35q14 -83 76.5 -146t173.5 -63q85 0 150 47q61 43 61 121q0 61 -49 98q-45 37 -117 53l-155 35q-254 56 -254 266q0 76 35 138.5t92 97.5q107 67 219 67q210 -3 305 -135
q48 -66 61 -137l-135 -39q-15 60 -59 115q-55 65 -172 65q-84 0 -140 -47q-57 -45 -57 -115q0 -57 37.5 -88.5t110.5 -50.5l163 -37q53 -12 98.5 -34t84.5 -55t61.5 -81.5t22.5 -107.5z" />
    <glyph glyph-name="uni0456" unicode="&#x456;" horiz-adv-x="485" 
d="M164 1303q-33 38 -33 79q0 42 33 80q33 33 80 33q45 0 78 -33q32 -32 32 -80q0 -47 -32 -79q-33 -33 -78 -33q-47 0 -80 33zM317 1018v-1018h-149v1018h149z" />
    <glyph glyph-name="uni0457" unicode="&#x457;" horiz-adv-x="485" 
d="M143 1223q-34 -34 -77.5 -34t-77.5 34t-34 80.5t34 80.5t77.5 34t77.5 -34q35 -34 35 -80.5t-35 -80.5zM500 1223q-35 -34 -79 -34t-79 34q-34 34 -34 80.5t34 80.5q35 34 79 34t79 -34q34 -34 34 -80.5t-34 -80.5zM317 1018v-1018h-149v1018h149z" />
    <glyph glyph-name="uni0458" unicode="&#x458;" horiz-adv-x="501" 
d="M145 1382q0 46 33.5 79.5t79.5 33.5q42 0 80 -33q31 -36 31 -80q0 -43 -31 -79q-38 -33 -80 -33q-48 0 -78 35q-35 30 -35 77zM332 1018v-1235q0 -143 -73.5 -217t-215.5 -74q-39 0 -94 14v123q30 -6 71 -6q78 0 121 42.5t43 119.5v1233h148z" />
    <glyph glyph-name="uni0459" unicode="&#x459;" horiz-adv-x="1835" 
d="M1038 647h324q82 0 152.5 -16.5t129.5 -51.5t93.5 -96.5t34.5 -144.5q0 -111 -56 -189.5t-142.5 -113.5t-193.5 -35h-489v887h-434l-56 -490q-15 -157 -98 -278q-42 -62 -108 -95.5t-144 -29.5l-4 2v131q51 0 91.5 28t64.5 76q40 82 53 191l68 596h714v-371zM1038 131
h328q50 0 93 10t80.5 32.5t59 63.5t21.5 97q0 100 -82 147q-73 37 -178 37h-322v-387z" />
    <glyph glyph-name="uni045A" unicode="&#x45a;" horiz-adv-x="1843" 
d="M317 637h584v381h150v-381h325q82 0 151.5 -16.5t127.5 -50.5t91.5 -95t33.5 -143q0 -109 -54 -186t-139 -111.5t-192 -34.5h-494v508h-584v-508h-149v1018h149v-381zM1051 131h329q49 0 91.5 10t80 31.5t59 62t21.5 95.5q0 100 -82 143q-70 37 -176 37h-323v-379z" />
    <glyph glyph-name="uni045B" unicode="&#x45b;" horiz-adv-x="1206" 
d="M901 0v592q0 141 -72 225t-208 84q-134 0 -220 -92q-84 -93 -84 -229v-580h-149v1208h-127v133h127v211h149v-211h371v-133h-371v-372q119 200 349 200q180 0 284 -110q101 -116 101 -297v-629h-150z" />
    <glyph glyph-name="uni045C" unicode="&#x45c;" horiz-adv-x="1056" 
d="M680 1520h180l-246 -328h-141zM317 1018v-449h11l495 449h205l-559 -494l586 -524h-207l-520 475h-11v-475h-149v1018h149z" />
    <glyph glyph-name="uni045E" unicode="&#x45e;" horiz-adv-x="1132" 
d="M772 1264q-82 -76 -203 -76q-118 0 -200 76q-85 73 -109 196l107 21q49 -172 202 -172q154 0 203 172l107 -21q-21 -122 -107 -196zM938 1018h160l-697 -1520h-161l264 572l-463 948h170l373 -787z" />
    <glyph glyph-name="uni045F" unicode="&#x45f;" horiz-adv-x="1202" 
d="M168 0v1018h149v-887h568v887h149v-1018h-362v-315h-144v315h-360z" />
    <glyph glyph-name="uni0490" unicode="&#x490;" horiz-adv-x="1105" 
d="M1063 1780v-430l-698 -2v-1348h-158v1493h708v287h148z" />
    <glyph glyph-name="uni0491" unicode="&#x491;" horiz-adv-x="886" 
d="M707 1292h143v-405h-533v-887h-149v1018h539v274z" />
    <glyph glyph-name="uni0496" unicode="&#x496;" horiz-adv-x="1937" 
d="M1776 145h133v-458h-148v313h-65l-654 725h-10v-725h-158v725h-10l-653 -725h-213l698 764l-667 729h204l631 -700h10v700h158v-700h10l631 700h205l-668 -729z" />
    <glyph glyph-name="uni0497" unicode="&#x497;" horiz-adv-x="1585" 
d="M1389 -315v315h-58l-465 494h-14v-494h-147v494h-15l-463 -494h-202l497 524l-485 494h190l463 -469h15v469h147v-469h16l463 469h191l-488 -494l373 -393h125v-446h-143z" />
    <glyph glyph-name="uni0498" unicode="&#x498;" horiz-adv-x="1243" 
d="M532 -311v301q-126 15 -229 80q-95 60 -158 155q-59 92 -71 195l151 29q9 -82 59 -154.5t134 -118.5q86 -47 192 -47q43 0 90.5 10.5t97.5 35.5t90 60.5t65.5 91.5t25.5 124q0 126 -100 206q-103 80 -261 80q-94 0 -155 -22l-74 125l512 510h-790v143h989v-137l-475 -475
q90 3 179 -22t154 -71q84 -58 131.5 -144.5t47.5 -186.5q0 -111 -46 -203.5t-130 -157.5q-118 -88 -273 -106v-301h-156z" />
    <glyph glyph-name="uni0499" unicode="&#x499;" horiz-adv-x="1007" 
d="M432 -315v303q-122 15 -225 94q-102 79 -131 201l135 41q26 -99 106 -158q77 -57 187 -57q63 0 119.5 19.5t97.5 65.5t41 111q0 64 -43 107q-40 43 -96 61q-62 19 -117 19q-64 0 -111 -13l-67 107l372 305h-598v127h781v-127l-351 -283q95 -2 179 -37t141 -102
q57 -69 57 -160q0 -152 -125 -243q-83 -60 -209 -78v-303h-143z" />
    <glyph glyph-name="uni049A" unicode="&#x49a;" horiz-adv-x="1325" 
d="M375 834l669 659h218l-732 -715l623 -633h143v-458h-147v313h-74l-700 719h-10v-719h-158v1493h158v-659h10z" />
    <glyph glyph-name="uni049B" unicode="&#x49b;" horiz-adv-x="1087" 
d="M911 -315v315h-65l-518 475h-11v-475h-149v1018h149v-449h11l493 449h205l-557 -494l438 -393h148v-446h-144z" />
    <glyph glyph-name="uni04A2" unicode="&#x4a2;" horiz-adv-x="1624" 
d="M1382 0h-168v684h-849v-684h-158v1493h158v-662h849v662h158v-1348h158v-458h-148v313z" />
    <glyph glyph-name="uni04A3" unicode="&#x4a3;" horiz-adv-x="1263" 
d="M1026 -315v315h-125v457h-584v-457h-149v1018h149v-428h584v428h150v-887h118v-446h-143z" />
    <glyph glyph-name="uni04AA" unicode="&#x4aa;" horiz-adv-x="1599" 
d="M774 -311v299q-138 12 -261.5 71.5t-215.5 157.5q-92 100 -143.5 235.5t-51.5 288.5q0 167 62 312q63 148 164 243q102 99 237 156q134 57 291 57q114 0 217.5 -31t177.5 -83q69 -46 131 -115q101 -117 140 -262l-150 -53q-21 85 -88 180q-46 63 -96 104q-59 49 -144 78
q-85 33 -192 33q-117 0 -224 -44.5t-188 -123.5q-81 -81 -127.5 -196t-46.5 -244q-2 -172 75 -315t212.5 -225t298.5 -79q97 0 183.5 29.5t144.5 75.5q58 45 98 102q39 53 63 102q27 65 35 90l150 -53q-31 -119 -123 -235q-46 -60 -113 -117q-68 -54 -162 -91t-196 -46v-301
h-158z" />
    <glyph glyph-name="uni04AB" unicode="&#x4ab;" horiz-adv-x="1171" 
d="M543 -315v303q-194 20 -324 166q-125 143 -125 352q0 146 72 272q71 124 190 191t262 67q171 0 304 -94q134 -100 163 -231l-135 -45q-10 35 -34 72.5t-63.5 76t-103 63.5t-137.5 25q-159 0 -262 -112q-104 -113 -104 -277q0 -109 43.5 -198.5t128.5 -143.5
q80 -57 196 -57q61 0 116.5 17.5t90.5 45.5q36 23 64 62q43 54 67 118l140 -45q-39 -121 -142 -211q-110 -96 -264 -114v-303h-143z" />
    <glyph glyph-name="uni04AC" unicode="&#x4ac;" horiz-adv-x="1241" 
d="M709 0h-170v1346h-498v147h1153v-147h-498v-1201h160v-458h-147v313z" />
    <glyph glyph-name="uni04AD" unicode="&#x4ad;" horiz-adv-x="954" 
d="M37 1018h874v-131h-362v-756h119v-446h-144v315h-125v887h-362v131z" />
    <glyph glyph-name="uni04B2" unicode="&#x4b2;" horiz-adv-x="1425" 
d="M1239 145h160v-458h-148v313h-86l-485 653l-481 -653h-185l574 764l-547 729h182l461 -614l457 614h182l-547 -727z" />
    <glyph glyph-name="uni04B3" unicode="&#x4b3;" horiz-adv-x="1075" 
d="M872 -315v315h-32l-316 414l-315 -414h-174l403 518l-387 500h174l301 -395l301 395h172l-385 -498l299 -389h103v-446h-144z" />
    <glyph glyph-name="uni04B6" unicode="&#x4b6;" horiz-adv-x="1449" 
d="M1208 0h-168v637q-94 -55 -229 -100q-130 -43 -223 -43q-242 0 -371 135q-47 49 -74.5 125.5t-27.5 169.5v569h155v-551q0 -61 19 -113.5t57 -95t103 -66.5t149 -24q110 0 223 41q125 43 219 100v709h158v-1348h158v-458h-148v313z" />
    <glyph glyph-name="uni04B7" unicode="&#x4b7;" horiz-adv-x="1128" 
d="M891 -315v315h-123v420q-69 -38 -158 -64q-103 -28 -180 -28q-149 0 -242 78q-94 76 -94 225v387h150v-365q0 -94 55 -144t152 -50q85 0 167 26q89 25 150 68v465h147v-887h119v-446h-143z" />
    <glyph glyph-name="uni04C0" unicode="&#x4c0;" horiz-adv-x="571" 
d="M365 1493v-1493h-158v1493h158z" />
    <glyph glyph-name="uni04C1" unicode="&#x4c1;" horiz-adv-x="1906" 
d="M952 1630q-118 0 -200 76q-86 74 -107 197l105 20q49 -172 202 -172t205 172l105 -20q-21 -123 -107 -197q-85 -76 -203 -76zM1210 764l699 -764h-213l-654 725h-10v-725h-158v725h-10l-653 -725h-213l698 764l-667 729h204l631 -700h10v700h158v-700h10l631 700h205z
" />
    <glyph glyph-name="uni04C2" unicode="&#x4c2;" horiz-adv-x="1556" 
d="M983 1264q-85 -76 -205 -76q-118 0 -200 76q-86 74 -107 196l104 21q49 -172 203 -172q156 0 205 172l104 -21q-21 -122 -104 -196zM1034 524l498 -524h-201l-465 494h-14v-494h-147v494h-15l-463 -494h-202l497 524l-485 494h190l463 -469h15v469h147v-469h16l463 469
h191z" />
    <glyph glyph-name="uni04CF" unicode="&#x4cf;" horiz-adv-x="485" 
d="M317 1018v-1018h-149v1018h149z" />
    <glyph glyph-name="uni04D0" unicode="&#x4d0;" horiz-adv-x="1478" 
d="M735 1630q-118 0 -203 76t-106 197l106 20q49 -172 203 -172q151 0 203 172l106 -20q-21 -121 -106 -197t-203 -76zM827 1493l646 -1493h-166l-164 381h-813l-164 -381h-160l643 1493h178zM1083 524l-348 807l-346 -807h694z" />
    <glyph glyph-name="uni04D1" unicode="&#x4d1;" horiz-adv-x="1083" 
d="M729 1264q-82 -76 -203 -76q-118 0 -200 76q-85 73 -109 196l107 21q49 -172 202 -172q154 0 203 172l107 -21q-21 -122 -107 -196zM782 588v67q0 123 -66 185.5t-194 62.5q-125 0 -192 -67q-62 -62 -74 -140l-143 31q2 43 40.5 108t102.5 117q48 37 119 60.5t151 23.5
q280 0 371 -211q31 -73 31 -168v-286q0 -249 16 -371h-147q-15 84 -15 178q-129 -196 -344 -196q-153 0 -245 86q-97 85 -97 215v10q0 79 37 138.5t98 92.5t128.5 48.5t140.5 15.5h282zM782 465h-284q-95 0 -166 -35q-39 -18 -62.5 -53.5t-23.5 -81.5q0 -85 63 -133
q61 -49 156 -49q134 0 227 90q90 87 90 227v35z" />
    <glyph glyph-name="uni04D2" unicode="&#x4d2;" horiz-adv-x="1478" 
d="M623 1669q-34 -34 -78 -34t-78 34q-35 34 -35 81t35 81q34 34 78 34t78 -34t34 -81t-34 -81zM1004 1669q-34 -34 -78 -34t-78 34t-34 81t34 81t78 34t78 -34q35 -34 35 -81t-35 -81zM827 1493l646 -1493h-166l-164 381h-813l-164 -381h-160l643 1493h178zM1083 524
l-348 807l-346 -807h694z" />
    <glyph glyph-name="uni04D3" unicode="&#x4d3;" horiz-adv-x="1083" 
d="M426 1223q-35 -34 -79 -34t-79 34q-34 34 -34 80.5t34 80.5q35 34 79 34t79 -34q34 -34 34 -80.5t-34 -80.5zM788 1223q-34 -34 -77.5 -34t-77.5 34q-35 34 -35 80.5t35 80.5q34 34 77.5 34t77.5 -34t34 -80.5t-34 -80.5zM500 588h282v67q0 123 -66 185.5t-194 62.5
q-125 0 -192 -67q-62 -62 -74 -140l-143 31q2 43 40.5 108t102.5 117q48 37 119 60.5t151 23.5q280 0 371 -211q31 -73 31 -168v-286q0 -249 16 -371h-147q-15 84 -15 178q-129 -196 -344 -196q-153 0 -245 86q-97 85 -97 215v10q0 79 37 138.5t98 92.5t128.5 48.5
t140.5 15.5zM782 430v35h-284q-95 0 -166 -35q-39 -18 -62.5 -53.5t-23.5 -81.5q0 -85 63 -133q61 -49 156 -49q134 0 227 90q90 87 90 227z" />
    <glyph glyph-name="uni04D4" unicode="&#x4d4;" horiz-adv-x="1996" 
d="M1874 1348h-778v-517h710v-145h-710v-541h786l-2 -145h-938v381h-571l-217 -381h-170l856 1493h1034v-145zM922 1352l-471 -828h491v828h-20z" />
    <glyph glyph-name="uni04D5" unicode="&#x4d5;" horiz-adv-x="1843" 
d="M786 586v69q0 122 -66.5 185t-193.5 63q-125 0 -190 -59q-67 -61 -82 -148l-141 31q2 43 41 108t104 117q47 37 118.5 60.5t151.5 23.5q135 0 229 -57t132 -156q57 96 164 156q108 57 225 57q228 0 352 -145q125 -146 125 -379q0 -26 -2 -49h-825q6 -145 112 -248
q103 -100 254 -100q116 0 198.5 56t117.5 161l131 -41q-44 -146 -166 -228q-128 -81 -281 -81q-135 0 -250 65q-113 64 -180 174q-137 -239 -413 -239h-5q-156 0 -251 86q-99 83 -99 215v10q0 78 36 137t99 92q117 64 269 64h286zM930 590h676q-12 140 -101 229
q-86 86 -229 86q-127 0 -232 -94q-102 -94 -114 -221zM786 465h-288q-95 0 -166 -35q-39 -18 -62.5 -53.5t-23.5 -81.5q0 -82 63 -133q64 -49 158 -49q136 0 229 90q90 87 90 227v35z" />
    <glyph glyph-name="uni04D6" unicode="&#x4d6;" 
d="M678 1630q-119 0 -201 76q-84 72 -108 197l106 20q49 -172 203 -172t203 172l106 -20q-21 -124 -106 -197q-85 -76 -203 -76zM1075 831v-145h-710v-541h784v-145h-942v1493h934v-145h-776v-517h710z" />
    <glyph glyph-name="uni04D7" unicode="&#x4d7;" horiz-adv-x="1157" 
d="M795 1264q-85 -76 -203 -76q-121 0 -203 76q-85 73 -106 196l106 21q46 -172 203 -172q154 0 203 172l106 -21q-24 -123 -106 -196zM1067 463h-823q9 -151 112 -248q103 -100 252 -100q116 0 198.5 56t117.5 161l131 -41q-44 -146 -166 -228q-125 -81 -279 -81
q-143 0 -264 71q-120 70 -184 193q-68 121 -68 264q0 139 64 258q61 121 178 195q113 73 254 73q153 0 262 -69q110 -67 164 -187q53 -112 53 -268q0 -26 -2 -49zM246 590h674q-15 138 -103 229q-86 86 -227 86q-128 0 -228 -92q-98 -93 -116 -223z" />
    <glyph glyph-name="uni04DC" unicode="&#x4dc;" horiz-adv-x="1906" 
d="M850 1669q-34 -34 -78 -34t-78 34q-35 34 -35 81t35 81q34 34 78 34t78 -34t34 -81t-34 -81zM1212 1669q-34 -34 -77.5 -34t-77.5 34t-34 81t34 81t77.5 34t77.5 -34q35 -34 35 -81t-35 -81zM1210 764l699 -764h-213l-654 725h-10v-725h-158v725h-10l-653 -725h-213
l698 764l-667 729h204l631 -700h10v700h158v-700h10l631 700h205z" />
    <glyph glyph-name="uni04DD" unicode="&#x4dd;" horiz-adv-x="1556" 
d="M676 1223q-34 -34 -78 -34t-78 34q-35 34 -35 80.5t35 80.5q34 34 78 34t78 -34t34 -80.5t-34 -80.5zM1038 1223q-34 -34 -77.5 -34t-77.5 34t-34 80.5t34 80.5t77.5 34t77.5 -34q35 -34 35 -80.5t-35 -80.5zM1034 524l498 -524h-201l-465 494h-14v-494h-147v494h-15
l-463 -494h-202l497 524l-485 494h190l463 -469h15v469h147v-469h16l463 469h191z" />
    <glyph glyph-name="uni04DE" unicode="&#x4de;" horiz-adv-x="1243" 
d="M494 1669q-34 -34 -78 -34t-78 34q-35 34 -35 81t35 81q34 34 78 34t78 -34t34 -81t-34 -81zM874 1669q-34 -34 -77.5 -34t-77.5 34t-34 81t34 81t77.5 34t77.5 -34q35 -34 35 -81t-35 -81zM610 -16q-110 0 -207.5 36t-166.5 99q-141 131 -162 301l151 29
q9 -82 59 -154.5t134 -118.5q86 -47 192 -47q43 0 90.5 10.5t97.5 35.5t90 60.5t65.5 91.5t25.5 124q0 126 -100 206q-103 80 -261 80q-94 0 -155 -22l-74 125l512 510h-790v143h989v-137l-475 -475q90 3 179 -22t154 -71q84 -58 131.5 -144.5t47.5 -186.5
q0 -111 -46 -203.5t-130 -157.5q-144 -112 -351 -112z" />
    <glyph glyph-name="uni04DF" unicode="&#x4df;" horiz-adv-x="1007" 
d="M389 1223q-34 -34 -78 -34t-78 34q-35 34 -35 80.5t35 80.5q34 34 78 34t78 -34t34 -80.5t-34 -80.5zM752 1223q-34 -34 -78 -34t-78 34t-34 80.5t34 80.5t78 34t78 -34q35 -34 35 -80.5t-35 -80.5zM498 -18q-143 0 -267 79q-116 77 -155 222l135 41q26 -99 106 -158
q77 -57 187 -57q63 0 119.5 19.5t97.5 65.5t41 111q0 64 -43 107q-40 43 -96 61q-62 19 -117 19q-64 0 -111 -13l-67 107l372 305h-598v127h781v-127l-351 -283q95 -2 179 -37t141 -102q57 -69 57 -160q0 -152 -125 -243q-119 -84 -286 -84z" />
    <glyph glyph-name="uni04E2" unicode="&#x4e2;" horiz-adv-x="1603" 
d="M1124 1686h-643v135h643v-135zM389 0h-182v1493h158v-1282l849 1282h183v-1493h-156v1290z" />
    <glyph glyph-name="uni04E3" unicode="&#x4e3;" horiz-adv-x="1230" 
d="M936 1221h-643v133h643v-133zM317 0h-149v1018h149v-813l594 813h152v-1018h-150v807z" />
    <glyph glyph-name="uni04E4" unicode="&#x4e4;" horiz-adv-x="1603" 
d="M690 1669q-34 -34 -78.5 -34t-79.5 34q-34 34 -34 81t34 81q35 34 79.5 34t78.5 -34t34 -81t-34 -81zM1071 1669q-34 -34 -78 -34t-78 34t-34 81t34 81t78 34t78 -34t34 -81t-34 -81zM389 0h-182v1493h158v-1282l849 1282h183v-1493h-156v1290z" />
    <glyph glyph-name="uni04E5" unicode="&#x4e5;" horiz-adv-x="1230" 
d="M512 1223q-34 -34 -78 -34t-78 34q-35 34 -35 80.5t35 80.5q34 34 78 34t78 -34t34 -80.5t-34 -80.5zM874 1223q-34 -34 -77.5 -34t-77.5 34t-34 80.5t34 80.5t77.5 34t77.5 -34q35 -34 35 -80.5t-35 -80.5zM317 0h-149v1018h149v-813l594 813h152v-1018h-150v807z" />
    <glyph glyph-name="uni04E6" unicode="&#x4e6;" horiz-adv-x="1705" 
d="M743 1669q-35 -34 -78.5 -34t-78.5 34q-34 34 -34 81t34 81q35 34 78.5 34t78.5 -34q34 -34 34 -81t-34 -81zM1124 1669q-34 -34 -77.5 -34t-77.5 34q-35 34 -35 81t35 81q34 34 77.5 34t77.5 -34t34 -81t-34 -81zM1604 750q0 -208 -97 -388q-98 -175 -270 -276
q-175 -102 -387 -102q-155 0 -297 59q-142 60 -238 162q-95 95 -155 239q-58 147 -58 297q0 211 99 387q96 178 270 279q169 100 385 100q160 0 297 -57q141 -63 238 -160q101 -107 155 -241q58 -140 58 -299zM1442 741q0 124 -43 237.5t-121 199.5t-189.5 135t-238.5 49
q-162 0 -301 -82q-136 -86 -209 -223q-74 -142 -74 -307q0 -123 43.5 -237t120.5 -198q78 -86 189 -135t237 -49q164 0 301 84q135 78 211 221q74 139 74 305z" />
    <glyph glyph-name="uni04E7" unicode="&#x4e7;" horiz-adv-x="1239" 
d="M518 1223q-35 -34 -79 -34t-79 34q-34 34 -34 80.5t34 80.5q35 34 79 34t79 -34q34 -34 34 -80.5t-34 -80.5zM881 1223q-34 -34 -78 -34t-78 34q-35 34 -35 80.5t35 80.5q34 34 78 34t78 -34t34 -80.5t-34 -80.5zM616 -18q-141 0 -264 69q-120 71 -188 191
q-70 119 -70 264q0 228 152 377q150 153 375 153q142 3 264 -68t193 -193t69 -263q1 -109 -40.5 -208t-113 -170t-170.5 -112.5t-207 -39.5zM621 115q160 0 268 114q104 113 104 277t-106 282q-108 117 -271 117q-161 0 -266 -114q-104 -113 -104 -279q-2 -105 46 -196.5
t135.5 -147t193.5 -53.5z" />
    <glyph glyph-name="uni04E8" unicode="&#x4e8;" horiz-adv-x="1705" 
d="M850 -16q-155 0 -297 59q-142 60 -238 162q-95 95 -155 239q-58 147 -58 297q0 211 99 387q96 178 270 279q169 100 385 100q160 0 297 -57q141 -63 238 -160q101 -107 155 -241q58 -140 58 -299q0 -208 -97 -388q-98 -175 -270 -276q-175 -102 -387 -102zM1135 1292
q-128 70 -285 70q-156 0 -281 -70q-127 -70 -205.5 -191t-95.5 -270h1170q-21 150 -99 270.5t-204 190.5zM1442 686h-1176q10 -112 58.5 -214.5t124.5 -178.5q78 -76 183.5 -119t223.5 -43q117 0 222.5 43t183.5 119q76 77 123.5 178.5t56.5 214.5z" />
    <glyph glyph-name="uni04E9" unicode="&#x4e9;" horiz-adv-x="1239" 
d="M616 -18q-141 0 -264 69q-120 71 -188 191q-70 119 -70 264q0 228 152 377q150 153 375 153q142 3 264 -68t193 -193t69 -263q1 -109 -40.5 -208t-113 -170t-170.5 -112.5t-207 -39.5zM616 907q-144 0 -245 -94q-102 -91 -123 -233h743q-24 141 -127 233q-101 94 -248 94
zM993 453h-747q21 -143 123 -242q104 -98 252 -98q147 0 251 98q106 100 121 242z" />
    <glyph glyph-name="uni04EA" unicode="&#x4ea;" horiz-adv-x="1705" 
d="M743 1831q34 -34 34 -81t-34 -81q-35 -34 -78.5 -34t-78.5 34q-34 34 -34 81t34 81q35 34 78.5 34t78.5 -34zM1124 1831q34 -34 34 -81t-34 -81t-77.5 -34t-77.5 34q-35 34 -35 81t35 81q34 34 77.5 34t77.5 -34zM850 -16q-155 0 -297 59q-142 60 -238 162
q-95 95 -155 239q-58 147 -58 297q0 211 99 387q96 178 270 279q169 100 385 100q160 0 297 -57q141 -63 238 -160q101 -107 155 -241q58 -140 58 -299q0 -208 -97 -388q-98 -175 -270 -276q-175 -102 -387 -102zM1135 1292q-128 70 -285 70q-156 0 -281 -70
q-127 -70 -205.5 -191t-95.5 -270h1170q-21 150 -99 270.5t-204 190.5zM1442 686h-1176q10 -112 58.5 -214.5t124.5 -178.5q78 -76 183.5 -119t223.5 -43q117 0 222.5 43t183.5 119q76 77 123.5 178.5t56.5 214.5z" />
    <glyph glyph-name="uni04EB" unicode="&#x4eb;" horiz-adv-x="1239" 
d="M518 1384q34 -34 34 -80.5t-34 -80.5q-35 -34 -79 -34t-79 34q-34 34 -34 80.5t34 80.5q35 34 79 34t79 -34zM881 1384q34 -34 34 -80.5t-34 -80.5t-78 -34t-78 34q-35 34 -35 80.5t35 80.5q34 34 78 34t78 -34zM616 -18q-141 0 -264 69q-120 71 -188 191
q-70 119 -70 264q0 228 152 377q150 153 375 153q142 3 264 -68t193 -193t69 -263q1 -109 -40.5 -208t-113 -170t-170.5 -112.5t-207 -39.5zM616 907q-144 0 -245 -94q-102 -91 -123 -233h743q-24 141 -127 233q-101 94 -248 94zM993 453h-747q21 -143 123 -242
q104 -98 252 -98q147 0 251 98q106 100 121 242z" />
    <glyph glyph-name="uni04EC" unicode="&#x4ec;" horiz-adv-x="1607" 
d="M678 1669q-34 -34 -78 -34t-78 34t-34 81t34 81t78 34t78 -34q35 -34 35 -81t-35 -81zM1061 1669q-35 -34 -79 -34t-79 34q-34 34 -34 81t34 81q35 34 79 34t79 -34q34 -34 34 -81t-34 -81zM770 1509q155 0 289.5 -54.5t234.5 -154.5q99 -100 155 -243t56 -307
q0 -165 -56.5 -309.5t-156.5 -245.5q-101 -100 -239 -155.5t-293 -55.5q-121 0 -227 34t-179.5 86.5t-131.5 121t-90.5 131t-49.5 122.5l147 53q31 -83 62 -133q48 -83 125 -149q141 -117 348 -117q238 0 395 154q158 158 176 399h-717v145h715q-15 153 -94.5 275.5
t-204 190t-270.5 65.5q-99 0 -188.5 -31.5t-149.5 -79.5q-55 -44 -100 -104q-73 -100 -90 -180l-150 51q23 99 98 201.5t189 177.5q76 52 180.5 82t216.5 30z" />
    <glyph glyph-name="uni04ED" unicode="&#x4ed;" horiz-adv-x="1169" 
d="M473 1223q-34 -34 -78 -34t-78 34q-35 34 -35 80.5t35 80.5q34 34 78 34t78 -34t34 -80.5t-34 -80.5zM836 1223q-34 -34 -78 -34t-78 34t-34 80.5t34 80.5t78 34t78 -34t34 -80.5t-34 -80.5zM563 1036q140 0 258 -65q116 -64 185 -187q69 -117 69 -270q2 -149 -66 -272
t-188 -192.5t-264 -67.5q-96 0 -182 29.5t-144 80.5q-116 94 -153 219l133 47q21 -59 72 -120q27 -35 65 -62q88 -63 213 -63q154 0 252 98q96 101 111 250h-484v129h480q-24 139 -123 227q-98 88 -236 88q-74 0 -139.5 -24t-106.5 -64q-78 -75 -100 -149l-131 45
q36 134 172 227q140 96 307 96z" />
    <glyph glyph-name="uni04EE" unicode="&#x4ee;" horiz-adv-x="1325" 
d="M1008 1686h-643v135h643v-135zM1333 1493l-553 -1112q-46 -90 -65 -125q-28 -47 -68 -96t-74 -74q-128 -89 -348 -86h-106v145h98h53q14 0 58 7q56 7 123 38q98 52 170 199l-598 1104h178l501 -942l459 942h172z" />
    <glyph glyph-name="uni04EF" unicode="&#x4ef;" horiz-adv-x="1132" 
d="M891 1221h-641v133h641v-133zM938 1018h160l-697 -1520h-161l264 572l-463 948h170l373 -787z" />
    <glyph glyph-name="uni04F0" unicode="&#x4f0;" horiz-adv-x="1325" 
d="M594 1669q-34 -34 -78 -34t-78 34q-35 34 -35 81t35 81q34 34 78 34t78 -34t34 -81t-34 -81zM975 1669q-34 -34 -78 -34t-78 34t-34 81t34 81t78 34t78 -34q35 -34 35 -81t-35 -81zM1333 1493l-553 -1112q-46 -90 -65 -125q-28 -47 -68 -96t-74 -74q-128 -89 -348 -86
h-106v145h98h53q14 0 58 7q56 7 123 38q98 52 170 199l-598 1104h178l501 -942l459 942h172z" />
    <glyph glyph-name="uni04F1" unicode="&#x4f1;" horiz-adv-x="1132" 
d="M473 1223q-34 -34 -78 -34t-78 34t-34 80.5t34 80.5t78 34t78 -34q35 -34 35 -80.5t-35 -80.5zM838 1223q-35 -34 -79 -34t-79 34q-34 34 -34 80.5t34 80.5q35 34 79 34t79 -34q34 -34 34 -80.5t-34 -80.5zM401 -502h-161l264 572l-463 948h170l373 -787l354 787h160z
" />
    <glyph glyph-name="uni04F2" unicode="&#x4f2;" horiz-adv-x="1325" 
d="M653 1958h181l-246 -328h-142zM981 1958h180l-243 -328h-142zM1333 1493l-553 -1112q-46 -90 -65 -125q-28 -47 -68 -96t-74 -74q-128 -89 -348 -86h-106v145h98h53q14 0 58 7q56 7 123 38q98 52 170 199l-598 1104h178l501 -942l459 942h172z" />
    <glyph glyph-name="uni04F3" unicode="&#x4f3;" horiz-adv-x="1132" 
d="M551 1520h180l-246 -328h-141zM879 1520h180l-244 -328h-141zM938 1018h160l-697 -1520h-161l264 572l-463 948h170l373 -787z" />
    <glyph glyph-name="uni04F4" unicode="&#x4f4;" horiz-adv-x="1404" 
d="M543 1669q-34 -34 -78 -34t-78 34t-34 81t34 81t78 34t78 -34q35 -34 35 -81t-35 -81zM926 1669q-34 -34 -78.5 -34t-79.5 34q-34 34 -34 81t34 81q35 34 79.5 34t78.5 -34t34 -81t-34 -81zM1040 0v637q-94 -55 -229 -100q-130 -43 -223 -43q-242 0 -371 135
q-47 49 -74.5 125.5t-27.5 169.5v569h155v-551q0 -61 19 -113.5t57 -95t103 -66.5t149 -24q110 0 223 41q125 43 219 100v709h158v-1493h-158z" />
    <glyph glyph-name="uni04F5" unicode="&#x4f5;" horiz-adv-x="1083" 
d="M401 1223q-34 -34 -77.5 -34t-77.5 34t-34 80.5t34 80.5t77.5 34t77.5 -34q35 -34 35 -80.5t-35 -80.5zM766 1223q-35 -34 -79 -34t-79 34q-34 34 -34 80.5t34 80.5q35 34 79 34t79 -34q34 -34 34 -80.5t-34 -80.5zM244 1018v-365q0 -94 55 -144t152 -50q85 0 167 26
q89 25 150 68v465h147v-1018h-147v420q-69 -38 -158 -64q-103 -28 -180 -28q-149 0 -242 78q-94 76 -94 225v387h150z" />
    <glyph glyph-name="uni04F8" unicode="&#x4f8;" horiz-adv-x="1787" 
d="M780 1669q-34 -34 -77.5 -34t-77.5 34t-34 81t34 81t77.5 34t77.5 -34q35 -34 35 -81t-35 -81zM1163 1669q-35 -34 -78.5 -34t-78.5 34q-34 34 -34 81t34 81q35 34 78.5 34t78.5 -34q34 -34 34 -81t-34 -81zM365 911h333q174 0 314 -55q82 -37 133 -80q59 -49 94 -128.5
t35 -176.5q0 -203 -137 -334q-68 -65 -175 -101t-239 -36h-516v1493h158v-582zM1423 1493v-1493h156v1493h-156zM365 145h352q120 0 213 39q47 16 94 56q42 37 67 97t25 132q0 141 -104 217q-111 82 -305 82h-342v-623z" />
    <glyph glyph-name="uni04F9" unicode="&#x4f9;" horiz-adv-x="1599" 
d="M696 1223q-34 -34 -77.5 -34t-77.5 34t-34 80.5t34 80.5t77.5 34t77.5 -34q35 -34 35 -80.5t-35 -80.5zM1061 1223q-35 -34 -79 -34t-79 34q-34 34 -34 80.5t34 80.5q35 34 79 34t79 -34q34 -34 34 -80.5t-34 -80.5zM317 647h322q82 0 152.5 -16.5t129.5 -51.5
t93.5 -96.5t34.5 -144.5q0 -111 -56 -189.5t-142.5 -113.5t-193.5 -35h-489v1018h149v-371zM1282 1018v-1018h150v1018h-150zM317 131h328q49 0 92 10t80.5 32.5t59.5 63.5t22 97q0 51 -22.5 88.5t-61.5 57.5t-83 29t-95 9h-320v-387z" />
    <glyph glyph-name="uni0E3F" unicode="&#xe3f;" horiz-adv-x="1400" 
d="M997 776q77 -20 138 -63.5t94 -98.5q61 -102 61 -204q0 -103 -41 -183.5t-116 -130.5q-149 -96 -369 -96h-6v-195h-129v195h-422v1493h422v207h129v-207q204 -2 335.5 -102.5t131.5 -272.5q0 -56 -21 -123q-9 -34 -37 -77q-25 -40 -70 -78.5t-100 -63.5zM629 829v521
h-267v-521h267zM1065 1100q0 122 -85.5 182.5t-221.5 67.5v-521q156 9 231 84q76 73 76 187zM629 143v547h-267v-547h267zM758 143h10q51 0 100 8.5t97.5 28.5t84 51t58 79.5t22.5 109.5q0 165 -167 231q-81 32 -205 39v-547z" />
    <glyph glyph-name="uni1E20" unicode="&#x1e20;" horiz-adv-x="1638" 
d="M1182 1686h-641v135h641v-135zM1518 1065l-150 -53q-31 91 -102 176q-49 52 -99 86q-128 88 -315 88q-123 0 -233.5 -48.5t-188.5 -133.5q-78 -86 -121 -197.5t-43 -232.5q0 -127 41.5 -239.5t116 -197t186.5 -133.5t246 -49q204 0 356 117q73 57 118.5 143t51.5 187
h-624v145h790v-57q0 -141 -47.5 -265.5t-136.5 -216.5q-89 -94 -221.5 -146t-290.5 -52q-164 0 -305.5 57t-239.5 160q-98 102 -151.5 241.5t-53.5 296.5q0 213 99 389q98 174 272 277q172 100 385 100q131 0 244.5 -35t193.5 -100q161 -128 222 -307z" />
    <glyph glyph-name="uni1E21" unicode="&#x1e21;" horiz-adv-x="1284" 
d="M932 1221h-645v133h645v-133zM967 14v213q-136 -231 -394 -231q-138 0 -251 72q-108 69 -168 188q-58 119 -58 258q0 135 58 254q60 120 170 193q109 75 249 75t244 -71q84 -60 152 -160v213h147v-993q0 -261 -143 -398q-146 -137 -387 -137q-191 0 -324 100
q-136 105 -162 250l136 45q11 -44 34 -86t62.5 -84t105 -68t146.5 -26q162 0 268 90q55 45 85 123t30 180zM604 127q157 0 260 115q105 114 105 274q2 99 -46 189t-133.5 145t-185.5 53q-166 0 -260 -110q-96 -108 -96 -281q-3 -161 96.5 -273.5t259.5 -111.5z" />
    <glyph glyph-name="uni1E30" unicode="&#x1e30;" horiz-adv-x="1294" 
d="M813 1958h180l-245 -328h-142zM1047 1493h217l-732 -715l768 -778h-223l-698 719h-12v-719h-160v1493h160v-659h10z" />
    <glyph glyph-name="uni1E31" unicode="&#x1e31;" horiz-adv-x="1038" 
d="M317 604l484 414h211l-537 -457l561 -561h-207l-505 510h-7v-510h-149v1554h149v-950zM514 1192h141l246 328h-180z" />
    <glyph glyph-name="uni1E60" unicode="&#x1e60;" horiz-adv-x="1226" 
d="M686 1669q-35 -35 -80 -35q-42 0 -80 35q-34 34 -34 82t34 82q35 35 80 35q48 0 80 -35q35 -35 35 -82t-35 -82zM625 -14q-105 0 -202.5 35.5t-166.5 95.5q-68 61 -111.5 137.5t-52.5 153.5l150 41q24 -133 135 -224q112 -92 248 -92q137 0 229 66q48 33 76 87t28 120
q0 139 -124 212q-59 35 -142 52l-198 39q-66 13 -134.5 46t-119.5 81q-107 98 -107 258q0 124 68 219q67 94 176 147q107 49 233 49q93 0 171.5 -22t132.5 -57.5t95 -83.5t63 -96t32 -99l-143 -45q-11 44 -35 85.5t-64.5 82.5t-106.5 65.5t-149 24.5q-124 0 -219 -74
q-94 -76 -94 -190q0 -89 56.5 -152t162.5 -84l188 -37q190 -37 291 -131q69 -62 99 -137q28 -79 28 -137q2 -128 -63.5 -229.5t-179 -155.5t-250.5 -51z" />
    <glyph glyph-name="uni1E61" unicode="&#x1e61;" horiz-adv-x="937" 
d="M465 1188q-45 0 -80 35t-35 84q0 47 35 82q34 34 80 34t80 -34q35 -38 35 -82q0 -46 -35 -84q-35 -35 -80 -35zM840 289q0 -137 -105 -219q-106 -86 -256 -86q-116 0 -197 40.5t-126 106.5q-54 73 -64 156l135 35q7 -38 24.5 -72.5t46.5 -66.5t75.5 -51t105.5 -19
q86 0 148 47q63 42 63 121q0 61 -49 98q-48 37 -119 53l-153 35q-102 20 -174 78q-82 63 -82 188q0 79 35.5 140.5t90.5 95t111.5 50.5t108.5 17q214 -3 305 -135q51 -67 61 -137l-135 -39q-16 64 -59 115q-55 65 -170 65q-86 0 -142 -47q-55 -46 -55 -115q0 -57 36.5 -88.5
t109.5 -50.5l165 -37q53 -12 98 -34t84 -55t61 -81.5t22 -107.5z" />
    <glyph glyph-name="Wgrave" unicode="&#x1e80;" horiz-adv-x="2187" 
d="M1167 1630h-143l-246 328h183zM1006 1493h178l397 -1274h2l393 1274h158l-469 -1493h-174l-397 1282l-402 -1282h-172l-467 1493h164l391 -1268h4z" />
    <glyph glyph-name="wgrave" unicode="&#x1e81;" horiz-adv-x="1650" 
d="M897 1192h-143l-244 328h180zM473 174l277 844h151l277 -846h2l270 846h154l-344 -1018h-164l-271 827h-2l-270 -827h-164l-340 1018h156z" />
    <glyph glyph-name="Wacute" unicode="&#x1e82;" horiz-adv-x="2187" 
d="M1024 1630l205 328h182l-246 -328h-141zM1006 1493h178l397 -1274h2l393 1274h158l-469 -1493h-174l-397 1282l-402 -1282h-172l-467 1493h164l391 -1268h4z" />
    <glyph glyph-name="wacute" unicode="&#x1e83;" horiz-adv-x="1650" 
d="M963 1520h180l-246 -328h-141zM473 174l277 844h151l277 -846h2l270 846h154l-344 -1018h-164l-271 827h-2l-270 -827h-164l-340 1018h156z" />
    <glyph glyph-name="Wdieresis" unicode="&#x1e84;" horiz-adv-x="2187" 
d="M991 1669q-35 -34 -78.5 -34t-78.5 34q-34 34 -34 81t34 81q35 34 78.5 34t78.5 -34q34 -34 34 -81t-34 -81zM1354 1669q-34 -34 -78 -34t-78 34q-35 34 -35 81t35 81q34 34 78 34t78 -34t34 -81t-34 -81zM1006 1493h178l397 -1274h2l393 1274h158l-469 -1493h-174
l-397 1282l-402 -1282h-172l-467 1493h164l391 -1268h4z" />
    <glyph glyph-name="wdieresis" unicode="&#x1e85;" horiz-adv-x="1650" 
d="M723 1223q-35 -34 -79 -34t-79 34q-34 34 -34 80.5t34 80.5q35 34 79 34t79 -34q34 -34 34 -80.5t-34 -80.5zM1085 1223q-34 -34 -77.5 -34t-77.5 34q-35 34 -35 80.5t35 80.5q34 34 77.5 34t77.5 -34t34 -80.5t-34 -80.5zM473 174l277 844h151l277 -846h2l270 846h154
l-344 -1018h-164l-271 827h-2l-270 -827h-164l-340 1018h156z" />
    <glyph glyph-name="uni1E90" unicode="&#x1e90;" horiz-adv-x="1228" 
d="M532 1960h148l262 -330h-158l-174 225h-4l-170 -225h-160zM70 0v143l893 1207h-863v143h1045v-143l-893 -1207h897v-143h-1079z" />
    <glyph glyph-name="uni1E91" unicode="&#x1e91;" horiz-adv-x="980" 
d="M410 1520h147l262 -328h-157l-175 225h-4l-170 -225h-159zM94 891v127h799v-127l-635 -764h637v-127h-815v127l637 764h-623z" />
    <glyph glyph-name="uni1EBC" unicode="&#x1ebc;" 
d="M807 1669q-72 0 -129 45q-58 47 -123 47q-61 0 -76 -92h-106q0 93 45 160q46 61 137 61q42 2 129.5 -46t124.5 -46q64 0 82 88h94q-3 -96 -43 -157q-48 -60 -135 -60zM365 1348v-517h710v-145h-710v-541h784v-145h-942v1493h936v-145h-778z" />
    <glyph glyph-name="uni1EBD" unicode="&#x1ebd;" horiz-adv-x="1157" 
d="M715 1192q-74 0 -129 47q-61 45 -123 45q-63 0 -78 -90h-106q0 94 45 158q46 61 139 61q42 2 129.5 -45.5t124.5 -46.5q63 0 82 88h94q-3 -97 -43 -158q-47 -59 -135 -59zM1067 463h-823q9 -151 112 -248q103 -100 252 -100q116 0 198.5 56t117.5 161l131 -41
q-44 -146 -166 -228q-125 -81 -279 -81q-143 0 -264 71q-120 70 -184 193q-68 121 -68 264q0 139 64 258q61 121 178 195q113 73 254 73q153 0 262 -69q110 -67 164 -187q53 -112 53 -268q0 -26 -2 -49zM246 590h674q-15 138 -103 229q-86 86 -227 86q-128 0 -228 -92
q-98 -93 -116 -223z" />
    <glyph glyph-name="Ygrave" unicode="&#x1ef2;" horiz-adv-x="1413" 
d="M799 1630h-144l-245 328h182zM627 629l-578 864h189l471 -715l477 715h178l-578 -862v-631h-159v629z" />
    <glyph glyph-name="ygrave" unicode="&#x1ef3;" horiz-adv-x="1132" 
d="M670 1192h-142l-245 328h180zM938 1018h160l-697 -1520h-161l264 572l-463 948h170l373 -787z" />
    <glyph glyph-name="uni2000" unicode="&#x2000;" horiz-adv-x="1069" 
 />
    <glyph glyph-name="uni2001" unicode="&#x2001;" horiz-adv-x="2140" 
 />
    <glyph glyph-name="uni2002" unicode="&#x2002;" horiz-adv-x="1069" 
 />
    <glyph glyph-name="uni2003" unicode="&#x2003;" horiz-adv-x="2140" 
 />
    <glyph glyph-name="uni2004" unicode="&#x2004;" horiz-adv-x="712" 
 />
    <glyph glyph-name="uni2005" unicode="&#x2005;" horiz-adv-x="534" 
 />
    <glyph glyph-name="uni2006" unicode="&#x2006;" horiz-adv-x="356" 
 />
    <glyph glyph-name="uni2007" unicode="&#x2007;" horiz-adv-x="356" 
 />
    <glyph glyph-name="uni2008" unicode="&#x2008;" horiz-adv-x="266" 
 />
    <glyph glyph-name="uni2009" unicode="&#x2009;" horiz-adv-x="428" 
 />
    <glyph glyph-name="uni200A" unicode="&#x200a;" horiz-adv-x="118" 
 />
    <glyph glyph-name="uni2010" unicode="&#x2010;" horiz-adv-x="831" 
d="M143 518v158h545v-158h-545z" />
    <glyph glyph-name="uni2011" unicode="&#x2011;" horiz-adv-x="831" 
d="M143 518v158h545v-158h-545z" />
    <glyph glyph-name="figuredash" unicode="&#x2012;" horiz-adv-x="831" 
d="M143 518v158h545v-158h-545z" />
    <glyph glyph-name="endash" unicode="&#x2013;" horiz-adv-x="1161" 
d="M1018 672v-150h-875v150h875z" />
    <glyph glyph-name="emdash" unicode="&#x2014;" horiz-adv-x="1947" 
d="M1806 672v-150h-1663v150h1663z" />
    <glyph glyph-name="quoteleft" unicode="&#x2018;" horiz-adv-x="522" 
d="M379 1507v-77q-61 -12 -107 -70q-44 -58 -47 -129q21 12 49 12q54 0 88.5 -36.5t34.5 -90.5q0 -49 -39 -88q-43 -37 -94 -37q-67 0 -108 53q-39 51 -39 123q0 129 69 226q68 96 193 114z" />
    <glyph glyph-name="quoteright" unicode="&#x2019;" horiz-adv-x="524" 
d="M154 987v78q63 12 108 72q45 61 45 127q-23 -13 -49 -13q-53 0 -87 36t-34 91t39 88q40 37 94 37q67 0 109 -51q37 -52 37 -125q0 -130 -68 -225q-69 -97 -194 -115z" />
    <glyph glyph-name="quotesinglbase" unicode="&#x201a;" horiz-adv-x="546" 
d="M150 -279v78q60 12 106 70q44 58 47 129q-21 -12 -49 -12q-53 0 -87 36t-34 91q0 52 39 88q40 37 94 37q68 0 107 -54q39 -48 39 -123q0 -131 -70 -225q-66 -97 -192 -115z" />
    <glyph glyph-name="quotedblleft" unicode="&#x201c;" horiz-adv-x="888" 
d="M379 1507v-77q-61 -12 -107 -70q-44 -58 -47 -129q21 12 49 12q54 0 88.5 -36.5t34.5 -90.5q0 -49 -39 -88q-43 -37 -94 -37q-67 0 -108 53q-39 51 -39 123q0 129 69 226q68 96 193 114zM748 1507v-77q-64 -13 -107 -70q-47 -62 -47 -129q21 12 49 12q53 0 87 -36t34 -91
q0 -52 -39 -88q-40 -37 -94 -37q-69 0 -107 53q-39 48 -39 123q0 132 70 226q65 95 193 114z" />
    <glyph glyph-name="quotedblright" unicode="&#x201d;" horiz-adv-x="890" 
d="M154 987v78q63 12 108 72q45 61 45 127q-23 -13 -49 -13q-53 0 -87 36t-34 91t39 88q40 37 94 37q67 0 109 -51q37 -52 37 -125q0 -130 -68 -225q-69 -97 -194 -115zM522 987v78q62 12 107 72q44 55 47 127q-23 -13 -49 -13q-54 0 -88.5 36.5t-34.5 90.5q0 53 41 88
q40 37 92 37q66 0 108 -51q39 -55 39 -125q0 -128 -69 -225t-193 -115z" />
    <glyph glyph-name="quotedblbase" unicode="&#x201e;" horiz-adv-x="913" 
d="M150 -279v78q60 12 106 70q44 58 47 129q-21 -12 -49 -12q-53 0 -87 36t-34 91q0 52 39 88q40 37 94 37q68 0 107 -54q39 -48 39 -123q0 -131 -70 -225q-66 -97 -192 -115zM518 -279v78q61 12 107 70q45 60 45 129q-21 -12 -47 -12q-54 0 -88.5 36.5t-34.5 90.5
q0 53 41 88q37 37 92 37q66 0 108 -54q37 -49 37 -123q0 -131 -67 -225q-69 -97 -193 -115z" />
    <glyph glyph-name="dagger" unicode="&#x2020;" horiz-adv-x="1198" 
d="M530 985v428h146v-428h368v-135h-368v-850h-146v850h-376v135h376z" />
    <glyph glyph-name="daggerdbl" unicode="&#x2021;" horiz-adv-x="1198" 
d="M526 137v748h-403v135h403v393h146v-393h405v-135h-405v-748h405v-137h-405v-393h-146v393h-403v137h403z" />
    <glyph glyph-name="bullet" unicode="&#x2022;" horiz-adv-x="960" 
d="M481 362q-141 0 -235 99q-96 96 -96 235q0 135 96 236q97 100 235 100q137 0 234 -100q96 -101 96 -236q0 -139 -96 -235q-99 -99 -234 -99z" />
    <glyph glyph-name="ellipsis" unicode="&#x2026;" horiz-adv-x="1630" 
d="M170 23q-41 44 -41 98q0 55 41 96q39 39 96 39t96 -39q41 -41 41 -96q0 -54 -41 -98q-39 -39 -96 -39t-96 39zM719 23q-39 42 -39 98q0 57 39 96q42 39 98 39q57 0 96 -39t39 -96q0 -56 -39 -98q-39 -39 -96 -39q-56 0 -98 39zM1268 23q-41 41 -41 98q0 58 41 96
q39 39 96 39t96 -39q41 -41 41 -96q0 -54 -41 -98q-39 -39 -96 -39t-96 39z" />
    <glyph glyph-name="uni202F" unicode="&#x202f;" horiz-adv-x="428" 
 />
    <glyph glyph-name="perthousand" unicode="&#x2030;" horiz-adv-x="2387" 
d="M649 934q-98 -98 -237 -98q-140 0 -238 98q-100 97 -100 237q0 141 100 238q98 98 238 98q139 0 237 -98q99 -96 99 -238q0 -141 -99 -237zM1231 1493h151l-972 -1493h-154zM561 1321q-61 61 -149 61q-89 0 -150 -61t-61 -150q0 -88 61 -149t150 -61q88 0 149 61
q62 62 62 149q0 88 -62 150zM1477 88q-95 -98 -238 -98q-145 0 -240 98q-98 98 -98 238q0 139 98 237q99 99 240 99q139 0 238 -99q98 -98 98 -237q0 -140 -98 -238zM1389 475q-65 62 -150 62q-87 0 -149 -62q-62 -65 -62 -149q0 -88 62 -150q61 -61 149 -61q86 0 150 61
q61 61 61 150q0 85 -61 149zM2216 88q-95 -98 -238 -98q-142 0 -237 98q-101 98 -101 238q0 139 101 237q99 99 237 99q139 0 238 -99q98 -95 98 -237q0 -143 -98 -238zM2128 475q-62 62 -150 62q-87 0 -149 -62q-62 -65 -62 -149q0 -88 62 -150q61 -61 149 -61q89 0 150 61
t61 150q0 85 -61 149z" />
    <glyph glyph-name="guilsinglleft" unicode="&#x2039;" horiz-adv-x="661" 
d="M90 573l344 347l90 -91l-241 -251l241 -252l-90 -90z" />
    <glyph glyph-name="guilsinglright" unicode="&#x203a;" horiz-adv-x="661" 
d="M227 236l-92 90l244 247l-244 256l92 91l344 -347z" />
    <glyph glyph-name="uni203D" unicode="&#x203d;" horiz-adv-x="1040" 
d="M569 1147l-10 -426q21 32 80 104q52 61 80 103q33 41 55 92q25 66 25 104q0 98 -72 170q-73 70 -211 70q-141 0 -219 -90q-79 -94 -70 -234l-151 7q0 10 -1 25.5t-1 19.5q0 121 61 215q58 94 162 149q103 53 219 53q128 0 232 -55q101 -55 153 -143q53 -86 53 -191
q0 -78 -34 -155q-15 -27 -43 -66q-10 -16 -28.5 -37.5t-19.5 -23.5q-36 -41 -59 -66q-50 -54 -61 -65q-69 -85 -74 -93q-28 -35 -41 -75q-20 -52 -23 -107h-147l-12 715h157zM406 16q-33 33 -33 78q0 47 33 80q38 33 79 33q45 0 78 -33q33 -29 33 -80q0 -49 -33 -78
q-28 -32 -78 -32q-47 0 -79 32z" />
    <glyph glyph-name="uni2042" unicode="&#x2042;" horiz-adv-x="1746" 
d="M784 1092l-278 92l33 98l280 -90v301h107v-301l280 92l35 -100l-278 -92l170 -238l-84 -63l-177 239l-174 -239l-84 63zM1221 272l-279 95l35 98l280 -92v303h107v-303l281 92l34 -100l-278 -93l170 -237l-86 -64l-174 240l-174 -240l-86 64zM346 270l-278 95l34 98
l279 -92v303h108v-303l279 92l35 -98l-277 -95l170 -237l-86 -64l-176 240l-174 -240l-84 64z" />
    <glyph glyph-name="fraction" unicode="&#x2044;" horiz-adv-x="1163" 
d="M993 1493h152l-973 -1493h-152z" />
    <glyph glyph-name="uni2051" unicode="&#x2051;" horiz-adv-x="958" 
d="M389 1092l-276 92l32 98l281 -90v301h106v-301l281 92l35 -100l-279 -92l170 -238l-84 -63l-176 239l-174 -239l-86 63zM389 270l-276 95l32 98l281 -92v303h106v-303l281 92l35 -98l-279 -95l170 -237l-84 -64l-176 240l-174 -240l-86 64z" />
    <glyph glyph-name="uni205F" unicode="&#x205f;" horiz-adv-x="534" 
 />
    <glyph glyph-name="lira" unicode="&#x20a4;" horiz-adv-x="1245" 
d="M1014 367l147 -17q0 -196 -166 -299q-88 -51 -198 -51h-670v145q103 53 170 154q69 104 72 215h-236v129h219q-10 48 -59 186h-160v129h119q-19 78 -19 138q-3 114 57.5 210.5t162 150t215.5 50.5q196 0 305 -100q111 -99 117 -260l-150 -27q-3 94 -57 162q-28 38 -83 60
t-126 22q-118 0 -199 -78q-82 -79 -82 -194q0 -54 23 -134h518v-129h-475q48 -138 57 -186h418v-129h-404q-9 -228 -190 -369h436q140 0 193 78q45 64 45 144z" />
    <glyph glyph-name="uni20A9" unicode="&#x20a9;" horiz-adv-x="2252" 
d="M1524 0l-217 700h-363l-219 -700h-172l-219 700h-230v109h195l-213 684h164l211 -684h364l213 684h179l213 -684h368l211 684h158l-215 -684h196v-109h-231l-219 -700h-174zM977 809h295l-146 473zM496 700l145 -475h4l148 475h-297zM1464 700l150 -481h2l147 481h-299z
" />
    <glyph glyph-name="dong" unicode="&#x20ab;" horiz-adv-x="1335" 
d="M963 0v217q-136 -231 -398 -231q-104 0 -194.5 42t-153.5 115q-60 73 -93.5 168t-33.5 199q0 100 33.5 194t95.5 168q62 76 153.5 120t192.5 44q140 0 244 -71q86 -64 152 -160v403h-353v133h353v211h147v-211h121v-133h-121v-1208h-145zM598 115q157 0 260 118
q105 117 105 279q3 99 -45 190t-134.5 147t-185.5 54q-167 0 -260 -112q-96 -116 -96 -285q0 -108 42 -194.5t124 -141.5q79 -55 190 -55zM1108 -221v-131h-971v131h971z" />
    <glyph glyph-name="Euro" unicode="&#x20ac;" horiz-adv-x="1744" 
d="M971 -16q-259 0 -455 147q-195 146 -260 391h-166v131h141q-10 89 2 187h-143v131h168q71 246 268 391q200 147 453 147q114 0 217.5 -31t177.5 -83q69 -46 131 -115q107 -121 140 -262l-150 -53q-22 90 -88 180q-39 56 -96 104q-53 47 -144 78q-82 33 -192 33
q-188 0 -340 -107q-149 -104 -211 -282h688l-43 -131h-674q-6 -44 -6 -88q0 -52 6 -99h627l-41 -131h-555q58 -173 209 -282q146 -107 340 -107q98 0 185 29.5t143 75.5q58 45 98 102q39 53 63 102q27 65 35 90l150 -53q-32 -128 -136 -254q-62 -72 -131 -121
q-77 -55 -184 -87.5t-227 -32.5z" />
    <glyph glyph-name="uni20AE" unicode="&#x20ae;" horiz-adv-x="1327" 
d="M752 590l419 158v-140l-419 -159v-449h-156v389l-422 -160v140l422 161v195l-422 -160v142l422 159v480h-500v147h1153v-147h-497v-420l419 159v-141l-419 -160v-194z" />
    <glyph glyph-name="uni20B1" unicode="&#x20b1;" horiz-adv-x="1495" 
d="M1425 973h-155q-24 -171 -164 -281q-141 -108 -379 -108h-299v-584h-156v973h-170v131h170v389h480q246 0 376 -117q126 -111 144 -272h153v-131zM428 1102h684q-18 100 -98 168q-88 76 -275 76h-311v-244zM428 729h305q166 0 260 70q94 72 117 176h-682v-246z" />
    <glyph glyph-name="uni20B4" unicode="&#x20b4;" horiz-adv-x="1378" 
d="M121 985h864q31 54 31 123q0 113 -74 178q-90 78 -250 78q-108 0 -209 -64q-101 -61 -147 -159l-133 71q65 135 200 215q139 80 289 80q239 0 369 -121q113 -101 113 -276q0 -66 -21 -125h100v-131h-1132v131zM1253 537h-854q-51 -57 -51 -148q0 -66 30.5 -118.5
t82.5 -80.5q102 -57 233 -57q110 0 217 64q107 61 154 161l133 -73q-61 -138 -205 -217q-145 -80 -305 -80q-257 0 -395 135q-105 97 -105 264q0 87 35 150h-102v131h1132v-131z" />
    <glyph glyph-name="uni20B8" unicode="&#x20b8;" horiz-adv-x="1339" 
d="M1247 1346h-1155v147h1155v-147zM748 1014v-1014h-156v1014h-500v147h1155v-147h-499z" />
    <glyph glyph-name="uni20B9" unicode="&#x20b9;" horiz-adv-x="1310" 
d="M1225 1362h-381q75 -43 112 -103.5t48 -146.5h221v-129h-224q-21 -142 -122 -246q-105 -108 -256 -129l362 -608h-186l-357 604h-319v148h399q123 0 205 60t111 171h-715v129h717q-25 111 -102 171t-197 60h-418v150h1102v-131z" />
    <glyph glyph-name="uni20BA" unicode="&#x20ba;" horiz-adv-x="1329" 
d="M1106 641l151 -16q-21 -160 -96.5 -290t-206.5 -212q-193 -123 -489 -123h-133v547l-209 -109v148l209 108v205l-209 -108v147l209 109v446h155v-367l457 238v-147l-457 -238v-203l457 236v-148l-457 -237v-484q255 9 398 107q65 45 112 110q79 114 109 281z" />
    <glyph glyph-name="uni20BD" unicode="&#x20bd;" horiz-adv-x="1376" 
d="M455 0h-156v266h-182v131h182v187h-182v137h182v772h479q131 0 234.5 -36t165.5 -101q125 -131 125 -312q0 -196 -138 -325q-69 -64 -175 -99.5t-236 -35.5h-299v-187h448v-131h-448v-266zM455 729h303q200 0 297 100q90 90 90 211q0 46 -11 87.5t-38.5 82.5t-69 70.5
t-108 47.5t-150.5 18h-313v-617z" />
    <glyph glyph-name="uni2113" unicode="&#x2113;" horiz-adv-x="866" 
d="M379 506v-178q0 -219 225 -219q86 0 154 24v-123q-79 -28 -170 -28q-169 0 -259.5 87t-90.5 248v119q-86 -31 -164 -49v121q79 25 164 65v533q0 140 73 231q73 88 211 88q135 0 208 -80t73 -223q0 -179 -121 -344q-116 -161 -303 -272zM524 1300q-43 0 -75 -19.5
t-46 -51.5q-24 -55 -24 -117v-467q287 189 287 483q0 172 -142 172z" />
    <glyph glyph-name="uni2116" unicode="&#x2116;" horiz-adv-x="2494" 
d="M1272 233v1260h151v-1493h-168l-897 1276v-1276h-151v1493h180zM2382 926q0 -154 -109 -260q-107 -107 -260 -107q-155 0 -262 107q-109 106 -109 260q0 156 109 262q107 104 262 104q153 0 260 -104q109 -109 109 -262zM2179 758q64 67 64 168q0 100 -64 170
q-66 69 -166 69q-102 0 -168 -69q-63 -69 -63 -170q0 -102 63 -168q70 -70 168 -70q99 0 166 70zM1653 338h719v-133h-719v133z" />
    <glyph glyph-name="trademark" unicode="&#x2122;" horiz-adv-x="1966" 
d="M719 1493v-115h-258v-745h-127v745h-258v115h643zM985 1348v-715h-117v860h187l276 -696l268 696h197v-860h-121v729h-6l-285 -729h-106l-287 715h-6z" />
    <glyph glyph-name="estimated" unicode="&#x212e;" horiz-adv-x="1650" 
d="M428 748v-484q75 -78 188 -121q115 -47 226 -47q192 0 331.5 82t215.5 234l96 -54q-78 -170 -248 -272q-166 -100 -395 -100q-167 0 -307 59.5t-234 165.5q-93 105 -142.5 245.5t-49.5 301.5q0 154 53 292t149 240q89 99 232 160q134 57 299 57q163 0 297 -57
q140 -59 233 -160q95 -101 148 -238t53 -290v-14h-1145zM1257 860v377q-75 78 -190 121q-115 41 -227 41q-238 0 -412 -160v-379h829z" />
    <glyph glyph-name="uni2153" unicode="&#x2153;" horiz-adv-x="1722" 
d="M319 1493h121v-868h-133v725l-180 -105l-57 98zM326 0h-152l973 1493h151zM1292 -18q-135 0 -219 75q-88 76 -100 207l125 21q9 -87 59 -135t137 -48q72 0 129 45q58 43 58 117q0 68 -56 109q-53 41 -122 41q-50 0 -86 -19l-64 101l295 254h-449v120h600v-141l-237 -203
q110 -15 180 -88q72 -75 72 -180q0 -82 -47 -147q-53 -69 -121 -97q-68 -32 -154 -32z" />
    <glyph glyph-name="uni2154" unicode="&#x2154;" horiz-adv-x="1984" 
d="M98 625v41q3 94 45 155q34 48 72 80q7 6 20.5 18.5t18.5 16.5q23 18 47 33q10 7 45 28q46 27 49 29q41 25 45 27q73 44 109.5 89t36.5 97q0 63 -47 104q-49 46 -121 46q-86 0 -131 -45t-51 -125l-130 18q9 114 89 197q80 77 225 77q133 0 215 -79q84 -78 84 -191
q0 -78 -45 -148t-123 -118l-148 -90q-131 -78 -137 -140h459v-120h-627zM1403 1493h149l-972 -1493h-152zM1552 -18q-132 0 -219 75q-89 77 -98 207l125 21q8 -87 58 -135t136 -48q75 0 132 45q55 43 55 117q0 68 -53 109q-56 41 -125 41q-46 0 -86 -19l-64 101l295 254
h-448v120h602v-141l-238 -203q108 -15 178 -88q72 -72 72 -180q0 -86 -47 -147q-53 -69 -121 -97q-65 -32 -154 -32z" />
    <glyph glyph-name="oneeighth" unicode="&#x215b;" horiz-adv-x="1630" 
d="M319 1493h121v-868h-133v725l-180 -105l-57 98zM326 0h-152l973 1493h151zM1538 236q0 -60 -28.5 -110t-79.5 -81q-101 -63 -222 -63q-79 0 -151.5 26t-124 86t-51.5 142q0 74 49 126q49 55 125 80q-71 27 -111.5 78t-40.5 119q0 77 49 135q47 56 115 86q79 27 143 27
q76 0 144 -26.5t115 -84.5t47 -137q0 -64 -42 -117t-110 -80q76 -22 125 -77t49 -129zM1331 733q-55 37 -123 37q-66 0 -121 -37q-53 -38 -53 -100q0 -65 56 -103q53 -36 120 -36q68 0 121 36t53 103q0 62 -53 100zM1407 240q0 64 -64 106q-64 37 -135 37q-100 0 -164 -64
q-30 -35 -30 -79t31.5 -78.5t76.5 -48.5q44 -15 86 -15q107 0 166 62q33 38 33 80z" />
    <glyph glyph-name="threeeighths" unicode="&#x215c;" horiz-adv-x="1923" 
d="M403 604q-134 0 -219 76q-88 73 -100 207l125 20q9 -88 59.5 -135t137.5 -47q75 0 129 45q57 42 57 117q0 68 -55 108q-49 41 -123 41q-48 0 -86 -18l-64 100l295 254h-448v121h600v-141l-238 -205q109 -12 180 -86q72 -75 72 -180q0 -83 -47 -148q-51 -66 -121 -96
q-70 -33 -154 -33zM1370 1493h152l-973 -1493h-152zM1837 236q0 -59 -29.5 -109t-78.5 -82q-101 -63 -222 -63q-80 0 -152.5 26t-123.5 86t-51 142q0 74 49 126q54 57 125 80q-71 27 -111.5 78t-40.5 119q0 76 47 135q50 56 117 86q79 27 143 27q76 0 144 -26.5t115 -84.5
t47 -137q0 -64 -42 -117t-110 -80q76 -22 125 -77t49 -129zM1630 530q53 36 53 103q0 64 -53 100q-56 37 -123 37t-121 -37q-53 -38 -53 -100q0 -65 56 -103q54 -37 120.5 -37t120.5 37zM1706 240q0 64 -64 106q-64 37 -135 37q-100 0 -164 -64q-32 -37 -32 -79
q0 -44 32 -78.5t78 -48.5q88 -28 176 0q46 14 77.5 48.5t31.5 78.5z" />
    <glyph glyph-name="fiveeighths" unicode="&#x215d;" horiz-adv-x="1892" 
d="M389 604q-131 0 -215 72q-84 74 -98 180l123 27q12 -75 62.5 -116.5t127.5 -41.5q75 0 131 47q58 52 58 133q0 82 -56 129q-57 45 -133 45q-35 0 -78 -14q-46 -18 -80 -55l-122 43l92 440h475v-121h-381l-49 -233h2q73 55 168 55q122 0 207 -82q86 -83 86 -207
q0 -128 -95 -217q-96 -84 -225 -84zM1341 1493h150l-973 -1493h-151zM1806 236q0 -59 -29.5 -109t-78.5 -82q-101 -63 -221 -63q-58 0 -114.5 15.5t-105 45.5t-78.5 80.5t-30 112.5q0 74 49 126q54 57 125 80q-71 27 -111.5 78t-40.5 119q0 75 48 135q51 57 116 86
q79 27 144 27q168 0 260 -111q47 -59 47 -137q0 -64 -43 -117t-111 -80q76 -22 125 -77t49 -129zM1599 530q56 38 56 103q0 62 -56 100q-55 37 -122 37t-121 -37q-53 -38 -53 -100q0 -66 55 -103q54 -37 120.5 -37t120.5 37zM1675 240q0 66 -63 106q-61 37 -135 37
q-44 1 -88 -14t-76 -49.5t-33 -79.5q0 -43 32.5 -78t78.5 -49q88 -28 176 0q45 14 76.5 48.5t31.5 78.5z" />
    <glyph glyph-name="seveneighths" unicode="&#x215e;" horiz-adv-x="1683" 
d="M698 1366l-370 -741h-150l375 747h-475v121h620v-127zM1130 1493h152l-973 -1493h-151zM1597 236q0 -60 -28.5 -110t-79.5 -81q-101 -63 -219 -63q-80 0 -153 26t-125 86t-52 142q0 75 51 126q51 57 125 80q-71 27 -112 78.5t-41 118.5q0 77 49 135q47 56 114 86
q79 27 144 27q168 0 260 -111q47 -59 47 -137q0 -65 -42.5 -117.5t-111.5 -79.5q75 -20 125 -77q49 -55 49 -129zM1393 530q53 38 53 103q0 63 -55 100q-56 37 -123 37t-121 -37q-53 -38 -53 -100q0 -66 55 -103q54 -37 121.5 -37t122.5 37zM1466 240q0 66 -63 106
q-61 37 -133 37q-71 2 -134 -37t-63 -106q0 -44 31.5 -78.5t77.5 -48.5q88 -28 176 0q45 14 76.5 48.5t31.5 78.5z" />
    <glyph glyph-name="arrowleft" unicode="&#x2190;" 
d="M264 623l420 -437l-92 -88l-555 578v37l555 577l92 -88l-418 -434h934v-145h-936z" />
    <glyph glyph-name="arrowup" unicode="&#x2191;" 
d="M561 1049l-436 -418l-88 92l577 553h37l578 -553l-88 -92l-434 418v-936h-146v936z" />
    <glyph glyph-name="arrowright" unicode="&#x2192;" 
d="M1001 768l-419 434l92 88l555 -577v-37l-555 -578l-92 88l419 437h-935v145h935z" />
    <glyph glyph-name="arrowdown" unicode="&#x2193;" 
d="M705 340l436 420l88 -92l-578 -555h-37l-579 555l90 92l434 -418v934h146v-936z" />
    <glyph glyph-name="uni2196" unicode="&#x2196;" 
d="M358 893l-10 -604l-129 2l17 801l26 26l801 17l2 -127l-604 -13l663 -661l-104 -103z" />
    <glyph glyph-name="uni2197" unicode="&#x2197;" 
d="M803 995l-604 13l2 127l803 -17l24 -26l16 -801l-126 -2l-13 604l-661 -662l-103 103z" />
    <glyph glyph-name="uni2198" unicode="&#x2198;" 
d="M907 473l13 604l127 -2l-17 -801l-26 -26l-801 -17l-2 127l604 13l-662 661l103 103z" />
    <glyph glyph-name="uni2199" unicode="&#x2199;" 
d="M461 371l604 -13l-4 -127l-801 17l-24 26l-19 801l129 2l12 -604l660 662l104 -103z" />
    <glyph glyph-name="uni21A9" unicode="&#x21a9;" horiz-adv-x="2056" 
d="M289 461h1052q205 0 338 121q133 124 133 319q0 205 -131 324q-128 116 -348 116h-352v144h369q136 1 252 -44t196 -123t124 -186t42 -231q0 -123 -43.5 -232t-122.5 -188q-79 -78 -195.5 -122t-252.5 -44h-1061l418 -436l-93 -88l-553 578v37l553 577l93 -88z" />
    <glyph glyph-name="uni21B0" unicode="&#x21b0;" horiz-adv-x="1474" 
d="M1202 0v557q0 190 -107 276.5t-325 86.5h-479l420 -435l-95 -88l-553 578v37l553 577l95 -88l-420 -436h502q563 0 563 -502v-563h-154z" />
    <glyph glyph-name="uni21B1" unicode="&#x21b1;" horiz-adv-x="1474" 
d="M121 0v563q0 502 563 502h502l-420 436l92 88l555 -577v-37l-555 -578l-92 88l418 435h-479q-218 0 -325.5 -86.5t-107.5 -276.5v-557h-151z" />
    <glyph glyph-name="uni21B2" unicode="&#x21b2;" horiz-adv-x="1474" 
d="M1354 1493v-563q0 -502 -563 -502h-502l420 -436l-93 -88l-553 577v37l553 580l93 -90l-418 -435h479q218 0 325 87t107 276v557h152z" />
    <glyph glyph-name="uni21B3" unicode="&#x21b3;" horiz-adv-x="1474" 
d="M272 1493v-557q0 -189 107.5 -276t325.5 -87h479l-418 435l92 90l553 -580v-37l-553 -577l-92 88l418 436h-500q-563 0 -563 502v563h151z" />
    <glyph glyph-name="uni21B4" unicode="&#x21b4;" horiz-adv-x="1724" 
d="M72 1493h563q502 0 502 -563v-502l436 420l88 -92l-578 -553h-36l-580 553l90 92l434 -418v479q0 217 -87 324.5t-275 107.5h-557v152z" />
    <glyph glyph-name="partialdiff" unicode="&#x2202;" horiz-adv-x="1255" 
d="M580 -16q-133 -2 -246 65t-177 182t-61 250q-3 130 64.5 240.5t188 174.5t265.5 62q54 0 101 -8q55 -10 129 -45q81 -40 143 -96q-38 291 -151 422q-115 133 -334 133q-139 0 -279 -61l-59 133q168 73 344 73q156 0 279 -58t200 -165q154 -216 154 -577
q0 -121 -21.5 -228t-66.5 -198.5t-110.5 -157.5t-158 -103.5t-204.5 -37.5zM623 813q-134 0 -246 -74q-57 -39 -90 -106.5t-33 -151.5q0 -154 98 -252q101 -98 234 -98q123 1 209.5 66.5t132.5 173.5q57 128 57 276q-159 166 -362 166z" />
    <glyph glyph-name="uni2206" unicode="&#x2206;" horiz-adv-x="1595" 
d="M887 1493l643 -1493h-1464l643 1493h178zM795 1329l-506 -1184h1011z" />
    </font>
</defs>
</svg>
