<?xml version="1.0" standalone="no"?>
<!DOCTYPE svg PUBLIC "-//W3C//DTD SVG 1.1//EN" "http://www.w3.org/Graphics/SVG/1.1/DTD/svg11.dtd" >
<svg xmlns="http://www.w3.org/2000/svg" xmlns:xlink="http://www.w3.org/1999/xlink" version="1.1">
<metadata>
Created by FontForge 20201107 at Mon Dec  1 13:43:45 2025
 By 
Copyright (c) 2016 by THOMAS GILLETT. All rights reserved.
</metadata>
<defs>
<font id="Gordita-Light" horiz-adv-x="1196" >
  <font-face 
    font-family="Gordita Light"
    font-weight="300"
    font-stretch="normal"
    units-per-em="2048"
    panose-1="0 0 0 0 0 0 0 0 0 0"
    ascent="1638"
    descent="-410"
    x-height="1018"
    cap-height="1493"
    bbox="-317 -510 2523 2140"
    underline-thickness="47"
    underline-position="-91"
    unicode-range="U+000D-FB04"
  />
<missing-glyph horiz-adv-x="1523" 
d="M1430 1493v-1493h-1258v1493h1258zM1352 70v1345h-1110z" />
    <glyph glyph-name="ff" unicode="ff" horiz-adv-x="1189" 
d="M807 1018v250q0 130 70 209t192 79q55 0 102 -18v-72q-49 19 -102 19q-87 0 -137.5 -56.5t-50.5 -162.5v-248h280v-68h-280v-950h-74v950h-494v-950h-73v950h-189v68h189v250q0 131 69 209q70 79 193 79q56 0 102 -18v-72q-49 19 -100 19q-88 0 -139.5 -56.5
t-51.5 -162.5v-248h494z" />
    <glyph glyph-name="fi" unicode="fi" horiz-adv-x="1064" 
d="M313 0h-73v950h-189v68h189v250q0 131 69 209q70 79 193 79q56 0 102 -18v-72q-49 19 -100 19q-88 0 -139.5 -56.5t-51.5 -162.5v-248h570v-1018h-76v950h-494v-950zM793 1317q-22 22 -22 53t22 53q22 23 52 23t52 -23q22 -22 22 -53t-22 -53q-22 -23 -52 -23t-52 23z
" />
    <glyph glyph-name="fl" unicode="fl" horiz-adv-x="1062" 
d="M240 0v950h-189v68h189v250q0 131 69 209q70 79 193 79q56 0 102 -18v-72q-49 19 -102 19q-87 0 -138 -56.5t-51 -162.5v-248h494v536h74v-1554h-74v950h-494v-950h-73z" />
    <glyph glyph-name="ffi" unicode="ffi" horiz-adv-x="1634" 
d="M883 0h-74v950h-494v-950h-75v950h-189v68h189v250q0 131 69 209q73 79 195 79q54 0 100 -18v-72q-49 19 -100 19q-87 0 -138 -56.5t-51 -162.5v-248h494v250q0 131 72 209q67 79 192 79q53 0 103 -18v-72q-49 19 -103 19q-88 0 -139 -56t-51 -163v-248h569v-1018h-76
v950h-493v-950zM1362 1317q-22 22 -22 53t22 53q23 23 52.5 23t51.5 -23q22 -22 22 -53t-22 -53q-22 -23 -51.5 -23t-52.5 23z" />
    <glyph glyph-name="ffl" unicode="ffl" horiz-adv-x="1630" 
d="M807 0v950h-494v-950h-73v950h-189v68h189v250q0 131 69 209q70 79 193 79q56 0 102 -18v-72q-49 19 -100 19q-88 0 -139.5 -56.5t-51.5 -162.5v-248h494v250q0 130 70 209t192 79q55 0 102 -18v-72q-49 19 -102 19q-87 0 -137.5 -56.5t-50.5 -162.5v-248h493v536h76
v-1554h-76v950h-493v-950h-74z" />
    <glyph glyph-name=".notdef" horiz-adv-x="1523" 
d="M1430 1493v-1493h-1258v1493h1258zM1352 70v1345h-1110z" />
    <glyph glyph-name=".null" horiz-adv-x="0" 
 />
    <glyph glyph-name="nonmarkingreturn" horiz-adv-x="634" 
 />
    <glyph glyph-name="NULL" horiz-adv-x="0" 
 />
    <glyph glyph-name="NULL" horiz-adv-x="0" 
 />
    <glyph glyph-name="CR" unicode="&#xd;" horiz-adv-x="559" 
 />
    <glyph glyph-name="space" unicode=" " horiz-adv-x="559" 
 />
    <glyph glyph-name="exclam" unicode="!" horiz-adv-x="497" 
d="M209 1493h82l-4 -1096h-74zM197 6q-23 22 -23 53.5t23 53.5q22 23 52 23t52 -23q22 -22 22 -53.5t-22 -53.5q-22 -23 -52 -23t-52 23z" />
    <glyph glyph-name="quotedbl" unicode="&#x22;" horiz-adv-x="675" 
d="M178 1006l-26 352q-2 25 -2 51q0 76 47 76q49 0 49 -76q0 -1 -0.5 -6.5t-1.5 -18t-2 -26.5l-27 -352h-37zM463 1006l-27 352q-4 50 -4 51q0 76 49 76q47 0 47 -76q0 -18 -4 -51l-26 -352h-35z" />
    <glyph glyph-name="numbersign" unicode="#" horiz-adv-x="1507" 
d="M426 416l-86 -416h-74l84 416h-270v69h285l106 523h-270v69h284l86 416h74l-84 -416h535l84 416h73l-82 -416h256v-69h-270l-106 -523h258v-69h-275l-84 -416h-73l84 416h-535zM1081 1008h-534l-107 -523h533z" />
    <glyph glyph-name="dollar" unicode="$" horiz-adv-x="1171" 
d="M557 -195v189q-127 9 -229 69q-102 57 -166 152q-63 94 -78 201l74 20q18 -135 118 -241q48 -55 121.5 -89t161.5 -40v669l-90 17q-135 27 -233 104q-113 86 -113 250q0 113 63 199q63 90 160 139q98 49 211 55v201h76v-203q181 -15 297 -131q104 -111 125 -223l-72 -25
q-8 43 -32.5 89.5t-65 93.5t-107.5 81.5t-147 42.5v-626l65 -15q203 -44 301 -168q74 -89 74 -215q0 -170 -125 -280q-130 -115 -313 -127v-189h-76zM559 811v616q-94 -5 -174 -43.5t-131 -109.5t-51 -164q0 -112 72.5 -184.5t209.5 -100.5zM631 721v-655q69 5 132 27.5
t115.5 62.5t83.5 102.5t31 140.5q0 99 -53 166q-21 29 -53.5 56t-61.5 41q-63 31 -110 43q-6 1 -17.5 3t-17.5 3z" />
    <glyph glyph-name="percent" unicode="%" horiz-adv-x="1648" 
d="M412 838q-140 0 -238 98t-98 238q0 136 98 237q101 96 238 96q136 0 237 -96q99 -102 99 -237q0 -139 -99 -238q-98 -98 -237 -98zM1348 1493l-969 -1493h-84l971 1493h82zM412 1444q-111 0 -191 -80t-80 -190q0 -113 80 -193t191 -80q112 0 192 80q78 81 78 193
q0 109 -78 190q-80 80 -192 80zM1473 88q-98 -98 -238 -98q-137 0 -238 98q-98 98 -98 238q0 136 98 237q104 96 238 96q137 0 238 -96q98 -101 98 -237q0 -140 -98 -238zM1425 516q-78 78 -190 78q-113 0 -191 -78q-79 -79 -79 -190q0 -114 79 -193q81 -78 191 -78
q109 0 190 78q80 80 80 193q0 110 -80 190z" />
    <glyph glyph-name="ampersand" unicode="&#x26;" horiz-adv-x="1329" 
d="M1167 0l-196 215q-201 -229 -449 -229h-10q-110 0 -199.5 40.5t-146.5 120.5q-57 85 -57 193q7 98 45 156q32 53 63 84q36 34 82 71q9 7 41 31q18 13 43 31l39 28l41 29l-84 90q-158 178 -158 314q0 137 98 235t248 98q158 0 254 -96q94 -94 94 -233q0 -110 -71 -193
q-61 -71 -156 -139l-119 -86l402 -436q123 167 196 366l68 -24q-96 -237 -217 -394l250 -272h-101zM522 811l129 94q80 59 129 115q62 75 62 158q0 116 -78 188q-77 74 -199 74q-112 0 -192 -74q-78 -75 -78 -182v-4q0 -61 31 -125q33 -67 108 -148zM520 55q217 0 404 211
l-412 451l-82 -55q-73 -50 -131 -101q-43 -43 -59 -63q-56 -74 -56 -150v-8q0 -92 49 -156q50 -69 125 -98q76 -31 162 -31z" />
    <glyph glyph-name="quotesingle" unicode="'" horiz-adv-x="393" 
d="M178 1006l-26 352q-2 25 -2 51q0 76 47 76q49 0 49 -76q0 -1 -0.5 -6.5t-1.5 -18t-2 -26.5l-27 -352h-37z" />
    <glyph glyph-name="parenleft" unicode="(" horiz-adv-x="755" 
d="M674 1647l33 -50q-249 -147 -385 -364q-134 -218 -134 -516v-21q0 -299 134 -514q132 -214 385 -366l-33 -49q-271 153 -418 391q-145 239 -145 534v31q0 293 145 532q148 239 418 392z" />
    <glyph glyph-name="parenright" unicode=")" horiz-adv-x="755" 
d="M51 1597l31 50q270 -153 418 -392q145 -234 145 -532v-31q0 -300 -145 -534q-147 -238 -418 -391l-31 49q170 103 281 225.5t172 284.5q63 163 63 370v21q0 201 -62 369t-177 290q-104 115 -277 221z" />
    <glyph glyph-name="asterisk" unicode="*" horiz-adv-x="983" 
d="M131 1247l338 -123l-10 369h67l-12 -369l338 123l20 -61l-348 -109l224 -278l-52 -39l-204 284l-203 -284l-53 39l225 278l-350 109z" />
    <glyph glyph-name="plus" unicode="+" horiz-adv-x="1132" 
d="M104 682v68h431v428h75v-428h420v-68h-420v-432h-75v432h-431z" />
    <glyph glyph-name="comma" unicode="," horiz-adv-x="509" 
d="M164 -258v53q44 22 75 59.5t42 75.5q12 46 12 72q-20 -14 -51 -14q-36 0 -60 22t-24 56q0 33 26 57t60 24q50 0 77 -36t27 -95q0 -82 -47 -159q-51 -81 -137 -115z" />
    <glyph glyph-name="hyphen" unicode="-" horiz-adv-x="862" 
d="M152 567v74h559v-74h-559z" />
    <glyph glyph-name="period" unicode="." horiz-adv-x="468" 
d="M293 10q-25 -25 -58.5 -25t-58.5 25q-25 23 -25 57.5t25 59.5t58.5 25t58.5 -25t25 -59.5t-25 -57.5z" />
    <glyph glyph-name="slash" unicode="/" horiz-adv-x="874" 
d="M168 -10h-82l625 1562h82z" />
    <glyph glyph-name="zero" unicode="0" horiz-adv-x="1456" 
d="M950 31q-106 -47 -223 -47t-219 45q-100 42 -172 118q-104 111 -160.5 271t-54.5 327q-3 164 54 325.5t161 272.5q71 77 173 121.5t218 44.5q119 0 221 -43t172 -120q75 -78 119 -172q96 -185 96 -426q0 -235 -94 -424q-111 -214 -291 -293zM922 1395q-90 43 -195 43
t-195 -41q-88 -43 -147 -111q-90 -100 -138 -244t-46 -290q-3 -147 46 -294t140 -249q62 -71 151.5 -112.5t192.5 -41.5q101 0 190.5 41t151.5 111q63 76 103 160q79 171 79 376q0 209 -81 381q-93 198 -252 271z" />
    <glyph glyph-name="one" unicode="1" horiz-adv-x="761" 
d="M39 1239l424 254h78v-1493h-80v1409l-387 -229z" />
    <glyph glyph-name="two" unicode="2" horiz-adv-x="1183" 
d="M111 0v37q0 262 344 483l217 139q129 84 213 177q94 108 94 239q0 150 -109 256q-107 107 -276 107q-195 0 -307 -133q-89 -106 -92 -252l-74 12q3 162 117 297q57 68 150.5 107.5t207.5 39.5q104 0 192 -35t148 -96q123 -123 123 -301q0 -248 -314 -454l-219 -142
q-180 -120 -252 -213q-78 -101 -81 -196h876v-72h-958z" />
    <glyph glyph-name="three" unicode="3" horiz-adv-x="1193" 
d="M1085 418q0 -93 -41 -176t-110 -140q-147 -118 -342 -118q-191 0 -328 116q-139 115 -166 301l76 21q21 -168 139 -268q117 -99 281 -99q75 0 148 25t132 70t95.5 114.5t36.5 151.5q0 149 -113 250q-120 110 -346 110h-72l-31 60l514 585h-825v72h918v-72l-502 -573
q124 0 219 -31q116 -41 209 -127q108 -103 108 -272z" />
    <glyph glyph-name="four" unicode="4" horiz-adv-x="1245" 
d="M51 371v80l801 1042h90v-1051h236v-71h-236v-371h-80v371h-811zM133 442h729v949z" />
    <glyph glyph-name="five" unicode="5" horiz-adv-x="1179" 
d="M573 -16q-182 0 -320 115.5t-163 279.5l74 16q24 -147 145 -245t264 -95q157 0 285 109q63 56 100 137t37 174q0 128 -57 217q-61 93 -154 142q-92 47 -200 47q-231 0 -369 -176l-72 26l166 762h709v-72h-649l-136 -612q146 143 359 143q206 0 346 -137
q137 -134 137 -340q0 -138 -69 -250q-67 -113 -185 -178q-120 -63 -248 -63z" />
    <glyph glyph-name="six" unicode="6" horiz-adv-x="1255" 
d="M645 -16q-186 0 -317 108q-122 107 -162 236q-41 134 -41 323q0 262 90 455q87 193 250 301q162 104 375 104q135 0 266 -45l-23 -71q-125 45 -245 45q-147 0 -275 -64q-132 -66 -213 -184q-142 -204 -151 -528h4q32 73 82.5 131.5t103.5 91.5q56 32 109 51q88 29 161 29
q133 0 250 -66q112 -63 178 -174q64 -107 64 -235q0 -109 -51.5 -215.5t-141.5 -182.5q-61 -52 -143 -81t-170 -29zM647 895q-113 0 -210 -51.5t-158 -145.5q-62 -95 -62 -211q-2 -116 57 -216.5t159 -159t214 -56.5q112 -2 211.5 60t157.5 164t55 213q0 173 -125 286
q-123 117 -299 117z" />
    <glyph glyph-name="seven" unicode="7" horiz-adv-x="1069" 
d="M51 1493h969v-72l-692 -1421h-86l690 1421h-881v72z" />
    <glyph glyph-name="eight" unicode="8" horiz-adv-x="1255" 
d="M629 -18q-296 0 -434 186q-72 90 -72 223q0 121 92 227q90 107 258 150q-153 46 -230 138t-77 214q0 89 42.5 165.5t113.5 123.5q143 98 309 98q168 0 311 -98q69 -49 110.5 -125t41.5 -164q0 -120 -78.5 -213t-231.5 -139q167 -43 260 -150q91 -108 91 -227
q0 -96 -42 -175.5t-116 -131.5q-148 -102 -348 -102zM1012 1122q0 130 -111 221t-274 91q-161 0 -275 -91q-108 -89 -108 -225q0 -96 59 -170q55 -72 146 -112q84 -37 180 -37q159 0 272 90q111 91 111 233zM1055 389q2 96 -58 176t-159 123.5t-211 40.5
q-116 0 -211.5 -41.5t-155.5 -118.5q-59 -80 -59 -180q0 -102 61 -178q59 -76 154.5 -116t212.5 -40q118 0 212.5 38.5t153.5 115.5q60 78 60 180z" />
    <glyph glyph-name="nine" unicode="9" horiz-adv-x="1253" 
d="M438 -16q-144 0 -280 47l24 71q139 -47 254 -47q312 0 482 244q134 195 137 532h-2q-32 -72 -84.5 -131t-106.5 -92q-50 -30 -108 -51q-90 -29 -164 -29q-98 0 -189 38t-157 104q-66 68 -104 155t-38 179q0 94 36.5 184.5t101.5 163.5q66 74 163 116.5t207 42.5
q143 0 267 -75q126 -78 190 -224q61 -140 61 -372q0 -409 -184 -633q-187 -223 -506 -223zM602 600q170 0 301 115q62 54 97.5 130.5t35.5 162.5q2 116 -56.5 217t-158.5 159.5t-213 55.5q-113 3 -212.5 -56.5t-157 -161.5t-54.5 -216q0 -175 123 -289q123 -117 295 -117z
" />
    <glyph glyph-name="colon" unicode=":" horiz-adv-x="468" 
d="M293 891q-25 -23 -58.5 -23t-58.5 23q-25 25 -25 59.5t25 59.5t58.5 25t58.5 -25t25 -59.5t-25 -59.5zM293 10q-25 -25 -58.5 -25t-58.5 25q-25 23 -25 57.5t25 59.5t58.5 25t58.5 -25t25 -59.5t-25 -57.5z" />
    <glyph glyph-name="semicolon" unicode=";" horiz-adv-x="514" 
d="M309 891q-25 -23 -58 -23t-58 23q-25 25 -25 59.5t25 59.5t58 25t58 -25t25 -59.5t-25 -59.5zM170 -258v53q44 22 75 59.5t42 75.5q9 34 12 72q-20 -14 -53 -14q-34 0 -58 22.5t-24 55.5t26 57t60 24q49 0 75.5 -36t26.5 -95q0 -85 -45 -159q-51 -81 -137 -115z" />
    <glyph glyph-name="less" unicode="&#x3c;" horiz-adv-x="1230" 
d="M156 713l909 -457v-80l-987 498v76l987 499v-78z" />
    <glyph glyph-name="equal" unicode="=" horiz-adv-x="1189" 
d="M158 905v72h876v-72h-876zM158 457v71h876v-71h-876z" />
    <glyph glyph-name="greater" unicode="&#x3e;" horiz-adv-x="1228" 
d="M164 1249l989 -501v-74l-989 -498v80l911 457l-911 458v78z" />
    <glyph glyph-name="question" unicode="?" horiz-adv-x="1019" 
d="M518 397h-78q0 127 84 244q49 68 170 193q76 78 118 145.5t42 144.5q0 136 -98 224q-101 88 -246 88q-151 0 -252 -101q-99 -99 -102 -254l-78 4v9q0 180 125 299q125 116 307 116q113 2 211 -47t156.5 -138.5t56.5 -197.5q0 -85 -51 -178q-11 -24 -56 -80
q-15 -17 -35 -40.5t-26 -30.5l-70 -70q-87 -88 -131 -167.5t-47 -162.5zM426 6q-35 32 -14.5 82t67.5 47q30 0 52 -22t22 -54q0 -31 -22.5 -53t-51.5 -22q-34 0 -53 22z" />
    <glyph glyph-name="at" unicode="@" horiz-adv-x="1662" 
d="M764 244q-134 0 -221 96q-88 94 -88 229q0 78 28.5 153t79.5 134t125 94t156 35q87 0 164 -47q78 -47 108 -137h2l29 178h76l-86 -530q-3 -28 -2 -58.5t25 -55t67 -24.5q66 0 121 49q53 42 94 113q35 65 53 133q16 78 16 125q0 165 -86 301q-84 134 -227 207
q-144 72 -313 72q-138 0 -273 -58q-131 -58 -223 -153q-94 -99 -149 -226q-56 -130 -56 -270q0 -191 90 -350q85 -153 246 -244q155 -88 352 -88q102 0 224 39q123 47 194 107l39 -58q-78 -70 -213 -114q-122 -41 -244 -41q-212 0 -387 94q-173 99 -270 268
q-100 169 -100 387q0 157 61 297q62 145 164 250q100 103 244 166q141 63 299 63q189 0 346 -80q155 -78 256 -227q94 -149 94 -340q0 -103 -43 -219q-47 -122 -131 -197q-82 -73 -188 -73q-82 0 -121 53q-40 48 -33 102h-4q-38 -62 -119 -108q-78 -47 -176 -47zM858 913
q-144 0 -235 -98q-93 -104 -93 -246q0 -107 70 -180q67 -76 176 -76q119 0 209 84q92 86 107 203l4 18q2 16 2 52q0 101 -68 172t-172 71z" />
    <glyph glyph-name="A" unicode="A" horiz-adv-x="1433" 
d="M14 0l660 1493h86l657 -1493h-84l-186 426h-864l-189 -426h-80zM1116 498l-403 909l-400 -909h803z" />
    <glyph glyph-name="B" unicode="B" horiz-adv-x="1380" 
d="M221 1493h488q130 0 227.5 -32t153 -87t82 -119t26.5 -137q0 -96 -59 -194q-66 -109 -221 -156q87 -13 158 -53t112 -94q80 -113 80 -224q0 -173 -138 -286q-138 -111 -401 -111h-508v1493zM301 799h422q196 0 297 88q98 88 98 229q0 139 -104 221q-107 84 -307 84h-406
v-622zM301 72h432q217 0 336 88q119 87 119 237q0 147 -117 238q-119 90 -332 90h-438v-653z" />
    <glyph glyph-name="C" unicode="C" horiz-adv-x="1601" 
d="M1448 502l72 -27q-43 -136 -150 -260q-54 -60 -131 -117q-76 -53 -179.5 -83.5t-217.5 -30.5q-157 -1 -294 59t-231.5 162.5t-149 242.5t-54.5 297q0 155 53 297q53 135 151 244q96 103 234 162q137 61 295 61q217 0 385 -108q69 -46 131 -115q108 -119 145 -264l-71 -27
q-22 98 -103 203q-56 73 -110 117q-56 48 -162 88q-103 35 -217 35q-188 0 -336 -95q-151 -92 -234 -249q-81 -153 -81 -342q0 -193 81 -346q79 -157 232 -254q147 -97 340 -97q286 0 467 213q62 70 108 164q25 63 27 70z" />
    <glyph glyph-name="D" unicode="D" horiz-adv-x="1527" 
d="M221 1493h397q168 0 316.5 -56t255.5 -157q107 -100 167 -238.5t60 -296.5q0 -163 -61 -303q-60 -138 -168 -237q-107 -98 -254 -151.5t-316 -53.5h-397v1493zM301 72h320q202 0 366 86q167 87 256 239q94 152 94 346q0 197 -94 349q-90 154 -258 243q-164 86 -367 86
h-317v-1349z" />
    <glyph glyph-name="E" unicode="E" horiz-adv-x="1245" 
d="M1116 1421h-815v-622h752v-74h-752v-653h825v-72h-905v1493h895v-72z" />
    <glyph glyph-name="F" unicode="F" horiz-adv-x="1183" 
d="M1042 707h-743v-707h-78v1493h887v-72h-809v-643h743v-71z" />
    <glyph glyph-name="G" unicode="G" horiz-adv-x="1630" 
d="M1530 696v-73q0 -132 -49.5 -249t-139.5 -204q-91 -88 -220 -137t-277 -49q-210 0 -381 100q-169 104 -258 274q-92 173 -92 387q0 154 53 295t149 244q94 105 234 164q137 61 301 61q105 0 204.5 -28t174.5 -76q73 -46 131 -107q113 -116 141 -251l-74 -25
q-11 71 -71.5 158.5t-153.5 152.5q-68 47 -161 76t-193 29q-143 0 -266.5 -54t-208.5 -149t-132.5 -220.5t-47.5 -262.5q0 -197 81 -353q80 -158 230 -249q151 -95 344 -95q121 0 230.5 40t192.5 111.5t132 178.5t49 233v7h-690v71h768z" />
    <glyph glyph-name="H" unicode="H" horiz-adv-x="1570" 
d="M221 0v1493h80v-694h969v694h80v-1493h-80v725h-969v-725h-80z" />
    <glyph glyph-name="I" unicode="I" horiz-adv-x="522" 
d="M221 0v1493h80v-1493h-80z" />
    <glyph glyph-name="J" unicode="J" horiz-adv-x="1175" 
d="M532 -16q-211 0 -327 122q-117 120 -117 336v156h78v-149q0 -203 110 -299q103 -95 252 -95q166 0 265 111q98 107 98 274v1053h80v-1047q0 -203 -121 -333q-120 -129 -318 -129z" />
    <glyph glyph-name="K" unicode="K" horiz-adv-x="1234" 
d="M221 1493h80v-694h8l770 694h115l-797 -711l840 -782h-115l-813 758h-8v-758h-80v1493z" />
    <glyph glyph-name="L" unicode="L" horiz-adv-x="1099" 
d="M299 72h745v-72h-823v1493h78v-1421z" />
    <glyph glyph-name="M" unicode="M" horiz-adv-x="1964" 
d="M299 0h-78v1493h105l657 -1403l653 1403h105v-1493h-78v1380l-641 -1380h-80l-643 1374v-1374z" />
    <glyph glyph-name="N" unicode="N" horiz-adv-x="1622" 
d="M221 1493h94l1008 -1380v1380h78v-1493h-90l-1012 1386v-1386h-78v1493z" />
    <glyph glyph-name="O" unicode="O" horiz-adv-x="1691" 
d="M846 -16q-210 0 -379 102q-172 104 -262 276q-92 176 -92 383q0 155 53 297q53 135 151 244q96 103 234 162q137 61 297 61q210 0 379 -102q168 -101 260 -277q94 -175 94 -382q0 -208 -94 -383q-91 -174 -262 -277q-168 -104 -379 -104zM846 1438q-140 0 -264 -56
q-126 -57 -207 -147q-86 -95 -134 -221t-48 -262q0 -139 48 -266t134 -224q84 -92 209 -149q122 -58 266 -58q180 0 336 95q147 92 231 249q82 155 82 344q0 138 -47 265t-133 223q-82 91 -209 151q-124 56 -264 56z" />
    <glyph glyph-name="P" unicode="P" horiz-adv-x="1263" 
d="M221 1493h422q338 0 469 -186q76 -105 76 -248q0 -93 -33.5 -172.5t-100 -141.5t-176.5 -97.5t-253 -35.5h-324v-612h-80v1493zM301 686h326q256 0 374 115q109 103 109 254q0 188 -152 291q-115 75 -323 75h-334v-735z" />
    <glyph glyph-name="Q" unicode="Q" horiz-adv-x="1695" 
d="M1544 -18l-213 186q-200 -182 -485 -182q-210 0 -379 102q-171 103 -262 274q-92 176 -92 383q0 154 54 294.5t150 244.5q94 102 234 164q139 59 297 59q214 0 379 -102q168 -101 260 -275q94 -175 94 -382q0 -150 -51 -285.5t-144 -239.5l209 -182zM193 752
q0 -139 48 -266t134 -222q87 -96 209 -151q124 -56 266 -56q246 0 426 160l-299 262l51 58l301 -265q170 198 170 471q0 138 -47.5 264.5t-132.5 221.5q-82 91 -209 151q-124 56 -264 56q-137 0 -264 -54q-126 -57 -207 -147q-86 -95 -134 -221t-48 -262z" />
    <glyph glyph-name="R" unicode="R" horiz-adv-x="1333" 
d="M301 0h-80v1493h447q339 0 467 -184q73 -105 73 -242q0 -173 -116 -289q-119 -113 -340 -137l501 -641h-100l-496 633h-356v-633zM301 707h348q102 -1 184.5 20t136.5 56t90.5 82t52 97t15.5 103q0 54 -13.5 103t-47 96t-85 81t-133 55t-185.5 21h-363v-714z" />
    <glyph glyph-name="S" unicode="S" horiz-adv-x="1218" 
d="M1100 399q2 -119 -65 -215.5t-178 -149t-239 -50.5q-101 0 -193 35t-159 96q-138 125 -162 297l74 20q21 -143 131 -256q54 -56 136 -88.5t178 -32.5q148 0 270 86q60 41 94.5 107.5t34.5 146.5q0 68 -25.5 124t-71 93.5t-100.5 62t-120 36.5l-213 41q-138 27 -236 104
q-113 89 -113 254q0 118 70 209q65 91 174 141q104 49 223 49q99 0 186.5 -33t145.5 -90q118 -112 143 -239l-71 -25q-10 56 -50.5 122.5t-105.5 115.5q-46 35 -112.5 56.5t-139.5 21.5q-97 0 -183.5 -40t-141.5 -114q-58 -76 -58 -170q0 -232 287 -289l213 -41
q102 -19 185.5 -67.5t137.5 -131.5t54 -186z" />
    <glyph glyph-name="T" unicode="T" horiz-adv-x="1167" 
d="M45 1421v72h1075v-72h-493v-1421h-78v1421h-504z" />
    <glyph glyph-name="U" unicode="U" horiz-adv-x="1486" 
d="M1286 1493v-907q0 -278 -141 -441q-139 -161 -400 -161q-262 0 -403 162.5t-141 435.5v911h80v-909q0 -260 125 -394q123 -135 342 -135q117 0 205.5 38.5t143.5 109t82 165.5t27 214v911h80z" />
    <glyph glyph-name="V" unicode="V" horiz-adv-x="1429" 
d="M717 92l575 1401h84l-618 -1493h-86l-619 1493h84z" />
    <glyph glyph-name="W" unicode="W" horiz-adv-x="2101" 
d="M614 0h-88l-465 1493h84l428 -1391l441 1391h73l445 -1391l428 1391h80l-465 -1493h-88l-436 1366z" />
    <glyph glyph-name="X" unicode="X" horiz-adv-x="1314" 
d="M610 762l-563 731h92l516 -676l521 676h92l-563 -731l585 -762h-92l-543 707l-540 -707h-92z" />
    <glyph glyph-name="Y" unicode="Y" horiz-adv-x="1368" 
d="M59 1493h95l532 -780l528 780h95l-586 -852v-641h-78v641z" />
    <glyph glyph-name="Z" unicode="Z" horiz-adv-x="1169" 
d="M1008 1421h-918v72h1006v-72l-949 -1349h951v-72h-1039v72z" />
    <glyph glyph-name="bracketleft" unicode="[" horiz-adv-x="774" 
d="M283 1561v-1708h419v-66h-495v1841h495v-67h-419z" />
    <glyph glyph-name="backslash" unicode="\" horiz-adv-x="874" 
d="M82 1552h82l624 -1562h-81z" />
    <glyph glyph-name="bracketright" unicode="]" horiz-adv-x="774" 
d="M72 1561v67h493v-1841h-493v66h420v1708h-420z" />
    <glyph glyph-name="asciicircum" unicode="^" horiz-adv-x="1060" 
d="M494 1493h75l375 -633h-84l-330 561l-329 -561h-84z" />
    <glyph glyph-name="underscore" unicode="_" horiz-adv-x="997" 
d="M997 -225h-997v65h997v-65z" />
    <glyph glyph-name="grave" unicode="`" horiz-adv-x="350" 
d="M27 1520h86l215 -328h-70z" />
    <glyph glyph-name="a" unicode="a" horiz-adv-x="1077" 
d="M449 -18q-149 0 -244 77q-99 77 -99 213q0 74 35 132t94 91.5t127 50.5t142 17h332v72q0 155 -81.5 242.5t-230.5 87.5q-192 -3 -274 -129q-41 -57 -55 -134l-72 17q7 69 61 149q29 45 72 82q45 38 115.5 62t150.5 24q178 0 283 -102q106 -106 106 -293v-287
q0 -252 15 -354h-74q-7 29 -10 104q-6 79 -6 121q-59 -118 -162 -178q-106 -65 -225 -65zM838 496h-330q-121 0 -215 -47q-51 -27 -80 -72.5t-29 -102.5q0 -106 76 -161q72 -60 191 -60q158 -3 273 100.5t114 264.5v78z" />
    <glyph glyph-name="b" unicode="b" horiz-adv-x="1280" 
d="M256 1552v-811q55 131 168 213t260 82q145 0 258 -73q112 -72 174 -193t62 -260q0 -103 -35 -198.5t-99 -168.5q-64 -74 -158.5 -116.5t-201.5 -42.5q-149 0 -262 82q-115 85 -166 208v-274h-74v1552h74zM680 57q188 0 305 129q115 127 115 322v2q0 192 -117 321
q-117 132 -303 132q-124 0 -225 -64q-102 -70 -150 -168q-53 -103 -53 -219v-4q0 -120 54 -222.5t153 -164.5q98 -64 221 -64z" />
    <glyph glyph-name="c" unicode="c" horiz-adv-x="1175" 
d="M614 -18q-104 0 -198.5 40.5t-163.5 110.5q-69 72 -109.5 170t-40.5 203q0 146 70 268q69 122 186 191q113 71 258 71q163 0 299 -94q127 -93 168 -229l-69 -25q-10 43 -51.5 101t-104.5 104q-104 72 -244 72q-123 0 -221 -64q-99 -60 -155 -166t-56 -223
q0 -119 55.5 -223t155.5 -168q103 -68 223 -68q143 0 244 76q36 25 76 72q59 72 78 137l71 -25q-49 -135 -157 -225q-125 -106 -314 -106z" />
    <glyph glyph-name="d" unicode="d" horiz-adv-x="1282" 
d="M1026 0v279q-50 -127 -166 -211q-119 -84 -262 -84q-108 0 -202.5 42.5t-157.5 116.5q-64 73 -99 168.5t-35 198.5q0 141 62 262q61 119 176 193q115 71 256 71q149 0 262 -82q114 -82 166 -209v807h74v-1552h-74zM602 57q123 0 221 64q102 61 154 166q53 103 53 221v4
q0 119 -52.5 220.5t-150.5 166.5q-101 64 -225 64q-188 0 -303 -127q-117 -129 -117 -322v-2q-5 -189 115.5 -323.5t304.5 -131.5z" />
    <glyph glyph-name="e" unicode="e" horiz-adv-x="1157" 
d="M1059 496h-877q2 -118 56 -218t151 -161q101 -64 223 -64q137 0 238 78q97 75 135 191l70 -21q-47 -143 -164 -229q-119 -88 -283 -88q-142 0 -260 71q-113 68 -180 193q-66 123 -66 262v4q0 99 38 195.5t104 169.5q66 72 158.5 114.5t191.5 42.5q118 0 210.5 -43.5
t147.5 -120.5q107 -149 107 -360q3 -10 0 -16zM182 563h799q-3 58 -17 112.5t-44 108t-73.5 93t-109.5 64t-147 24.5q-105 0 -197 -56q-92 -57 -149 -151q-56 -93 -62 -195z" />
    <glyph glyph-name="f" unicode="f" horiz-adv-x="624" 
d="M604 1538v-72q-49 19 -100 19q-88 0 -139.5 -56.5t-51.5 -162.5v-248h283v-68h-283v-950h-73v950h-189v68h189v250q0 131 69 209q70 79 193 79q56 0 102 -18z" />
    <glyph glyph-name="g" unicode="g" horiz-adv-x="1280" 
d="M596 -436q194 0 309 127q119 128 119 348v248q-50 -124 -168 -209q-113 -82 -260 -82q-145 0 -260 74q-113 71 -172.5 188t-59.5 258q0 144 60.5 261.5t173.5 187.5q110 71 258 71q144 0 260 -78q112 -78 168 -206v266h74v-977q0 -132 -39 -238.5t-109 -173.5
q-142 -139 -350 -139q-181 0 -313 100q-134 99 -181 258l70 25q12 -51 44.5 -102.5t82.5 -99t127 -77.5t166 -30zM600 70q123 0 221 61q100 60 152 164q53 97 53 219v6q0 118 -51.5 218t-149.5 163q-103 62 -225 62q-185 0 -301 -125q-117 -126 -117 -320v-2
q0 -193 117 -319q118 -127 301 -127z" />
    <glyph glyph-name="h" unicode="h" 
d="M625 1036q190 0 297 -116q106 -118 106 -308v-612h-74v598q0 171 -90 272q-92 95 -250 95q-150 0 -254 -107t-104 -274v-584h-74v1552h74v-759q41 112 141 178q103 65 228 65z" />
    <glyph glyph-name="i" unicode="i" horiz-adv-x="438" 
d="M168 1317q-23 22 -23 53t23 53q22 23 52 23t52 -23q22 -22 22 -53t-22 -53q-22 -23 -52 -23t-52 23zM256 0h-74v1018h74v-1018z" />
    <glyph glyph-name="j" unicode="j" horiz-adv-x="452" 
d="M182 1317q-22 22 -22 53t22 53q22 23 52 23t53 -23q22 -22 22 -53t-22 -53q-23 -23 -53 -23t-52 23zM197 -242v1260h73v-1254q0 -272 -258 -272q-35 0 -67 4v70q28 -4 61 -4q54 0 93.5 17t59.5 46.5t29 62t9 70.5z" />
    <glyph glyph-name="k" unicode="k" horiz-adv-x="966" 
d="M340 557l616 -557h-108l-588 537h-4v-537h-74v1552h74v-977h4l557 443h113z" />
    <glyph glyph-name="l" unicode="l" horiz-adv-x="438" 
d="M182 0v1552h74v-1552h-74z" />
    <glyph glyph-name="m" unicode="m" horiz-adv-x="1843" 
d="M891 0v614q0 165 -82 256q-83 95 -225 95q-122 0 -224 -99q-47 -47 -75.5 -117.5t-28.5 -148.5v-600h-74v1018h74v-211q39 94 125 160q87 69 211 69q142 0 227 -73q88 -73 123 -191q43 110 137 186q96 78 221 78q192 0 287 -125q90 -116 90 -290v-621h-73v610
q0 169 -82 260q-83 95 -230 95q-119 0 -223 -97q-47 -47 -74.5 -116.5t-27.5 -149.5v-602h-76z" />
    <glyph glyph-name="n" unicode="n" 
d="M625 1036q190 0 297 -116q106 -118 106 -308v-612h-74v598q0 171 -90 272q-92 95 -250 95q-150 0 -254 -107t-104 -274v-584h-74v1018h74v-225q41 112 141 178q103 65 228 65z" />
    <glyph glyph-name="o" unicode="o" horiz-adv-x="1249" 
d="M625 -16q-142 -3 -263.5 67t-191.5 191.5t-68 263.5q0 107 40 206.5t110 170.5t168 112t205 41q142 3 263 -67.5t190.5 -192.5t66.5 -264q3 -143 -65 -265.5t-189.5 -194t-265.5 -68.5zM850 903q-103 62 -227 62q-123 0 -228 -60q-101 -61 -157 -164.5t-56 -228.5
q-3 -122 55 -228.5t162 -169.5t226 -61q189 0 317 131q125 131 125 324q0 126 -57 229.5t-160 165.5z" />
    <glyph glyph-name="p" unicode="p" horiz-adv-x="1280" 
d="M256 1018v-277q55 131 168 213t260 82q145 0 258 -73q112 -72 174 -193t62 -260q0 -103 -35 -198.5t-99 -168.5q-64 -74 -158.5 -116.5t-201.5 -42.5q-149 0 -262 82q-115 85 -166 208v-776h-74v1520h74zM680 57q188 0 305 129q115 127 115 322v2q0 192 -117 321
q-117 132 -303 132q-124 0 -225 -64q-102 -70 -150 -168q-53 -103 -53 -219v-4q0 -120 54 -222.5t153 -164.5q98 -64 221 -64z" />
    <glyph glyph-name="q" unicode="q" horiz-adv-x="1282" 
d="M1026 -502v781q-50 -127 -166 -211q-119 -84 -262 -84q-108 0 -202.5 42.5t-157.5 116.5q-64 73 -99 168.5t-35 198.5q0 141 62 262q61 119 176 193q115 71 256 71q149 0 262 -82q114 -82 166 -209v273h74v-1520h-74zM602 57q123 0 221 64q102 61 154 166q53 103 53 221
v4q0 119 -52.5 220.5t-150.5 166.5q-101 64 -225 64q-188 0 -303 -127q-117 -129 -117 -322v-2q-5 -189 115.5 -323.5t304.5 -131.5z" />
    <glyph glyph-name="r" unicode="r" horiz-adv-x="673" 
d="M635 1032q1 0 7.5 -1t12.5 -1v-76q-2 0 -8 1t-8 1q-121 0 -209 -63q-90 -63 -133 -162q-41 -100 -41 -219v-512h-74v1018h74v-266q41 124 145 200q109 80 234 80z" />
    <glyph glyph-name="s" unicode="s" horiz-adv-x="944" 
d="M125 760q0 85 51 151q53 65 129 95q73 30 158 30q134 0 235 -67q105 -72 125 -195l-69 -20q-21 101 -101 157q-77 54 -192 54q-142 0 -219 -91q-41 -50 -41 -112q0 -78 55 -127q56 -49 133 -64l193 -36q118 -24 186 -101q70 -76 70 -170q0 -66 -30 -122t-81 -91
q-106 -67 -238 -67q-155 0 -258 75q-106 74 -133 220l74 18q20 -119 104 -181.5t216 -62.5q141 0 227 92q43 49 43 117q0 74 -53.5 129t-147.5 74l-192 37q-100 18 -172 90q-72 69 -72 168z" />
    <glyph glyph-name="t" unicode="t" horiz-adv-x="657" 
d="M311 950v-682q0 -112 39 -157q44 -50 152 -50q22 0 82 11v-72q-39 -8 -88 -8q-142 0 -199 63q-61 64 -61 205v690h-193v68h193v293h75v-293h273v-68h-273z" />
    <glyph glyph-name="u" unicode="u" 
d="M571 -18q-190 0 -297 116q-108 117 -108 305v615h76v-598q0 -176 90 -273q90 -96 250 -96q148 0 254 109q104 107 104 272v586h74v-1018h-74v225q-44 -113 -141 -176q-101 -67 -228 -67z" />
    <glyph glyph-name="v" unicode="v" horiz-adv-x="1083" 
d="M543 82l407 936h80l-448 -1018h-80l-451 1018h84z" />
    <glyph glyph-name="w" unicode="w" horiz-adv-x="1636" 
d="M492 0h-76l-361 1018h82l318 -928l327 928h74l326 -928l323 928h76l-360 -1018h-78l-324 915z" />
    <glyph glyph-name="x" unicode="x" horiz-adv-x="1015" 
d="M43 0l420 518l-404 500h93l356 -447l360 447h88l-403 -498l420 -520h-92l-373 467l-377 -467h-88z" />
    <glyph glyph-name="y" unicode="y" horiz-adv-x="1101" 
d="M133 1018l434 -877l416 877h80l-723 -1520h-80l266 561l-477 959h84z" />
    <glyph glyph-name="z" unicode="z" horiz-adv-x="948" 
d="M90 950v68h778v-68l-706 -882h708v-68h-798v68l706 882h-688z" />
    <glyph glyph-name="braceleft" unicode="{" horiz-adv-x="772" 
d="M379 360l-31 -202q-17 -98 -4 -174q12 -68 88 -99q71 -32 236 -32h34v-66h-47q-114 0 -192 18t-119.5 51t-62 79.5t-18 103.5t10.5 123l31 211q12 79 -4 139.5t-53 94.5t-84 50.5t-103 16.5h-18v65h18q55 0 102.5 17t84.5 51.5t53 94.5t4 138l-31 211q-9 60 -10 104.5
t7.5 90t34.5 76.5t69.5 56.5t114 37.5t165.5 12h47v-67h-34q-158 0 -234 -31t-90 -98q-13 -76 4 -175l31 -204q10 -82 -4 -154q-9 -46 -31 -82q-23 -39 -68.5 -68.5t-107.5 -39.5v-2q178 -36 207 -193q14 -72 4 -154z" />
    <glyph glyph-name="bar" unicode="|" horiz-adv-x="487" 
d="M281 -221h-74v1921h74v-1921z" />
    <glyph glyph-name="braceright" unicode="}" horiz-adv-x="772" 
d="M424 158l-31 202q-13 81 4 156q8 41 31 82q24 38 69.5 68.5t106.5 40.5v2q-95 19 -145.5 69t-61.5 121q-17 74 -4 154l31 204q18 106 4 173.5t-89.5 99t-236.5 31.5h-32v67h45q115 0 194 -18t120 -51.5t61.5 -80t18 -104t-10.5 -123.5l-31 -211q-13 -78 3 -138
t53.5 -94.5t85 -51.5t102.5 -17h18v-65h-18q-56 0 -103 -16.5t-84.5 -50.5t-53.5 -94.5t-3 -139.5l31 -211q15 -104 8 -170q-11 -76 -66 -125q-86 -80 -325 -80h-45v66h32q158 0 235 31.5t91 99.5q11 67 -4 174z" />
    <glyph glyph-name="asciitilde" unicode="~" horiz-adv-x="1177" 
d="M369 737q79 0 170 -51q4 -3 30.5 -21t44.5 -30q17 -10 41 -25.5t31 -19.5q14 -12 57 -29q40 -16 70 -16q47 0 83 19t79 61l47 -45q-37 -50 -93.5 -79.5t-117.5 -29.5q-49 0 -96 21t-121 69q-2 2 -23.5 17t-25.5 16q-2 2 -5.5 4t-9 5.5t-10.5 6.5q-23 14 -49 27
q-11 7 -51 20q-27 9 -53 9q-80 0 -162 -82l-47 45q37 50 93.5 79t117.5 29z" />
    <glyph glyph-name="uni00A0" unicode="&#xa0;" horiz-adv-x="559" 
 />
    <glyph glyph-name="exclamdown" unicode="&#xa1;" horiz-adv-x="446" 
d="M170 907q-22 22 -22 53t22 54t52 23t52 -23t22 -54t-22 -53q-22 -23 -52 -23t-52 23zM186 623h74l4 -1096h-80z" />
    <glyph glyph-name="cent" unicode="&#xa2;" horiz-adv-x="1181" 
d="M573 -195v185q-195 15 -329 164q-131 146 -131 352q0 209 133 354q132 150 327 168v186h74v-184q158 -9 277 -100q120 -91 157 -219l-67 -23q-18 69 -105 162q-44 46 -114 76.5t-150 36.5v-906q82 4 150.5 35.5t113.5 79.5q78 83 107 166l67 -23q-41 -124 -147 -217
q-114 -99 -289 -108v-185h-74zM575 59v902q-164 -15 -276 -148q-111 -129 -111 -301q0 -170 109 -303q114 -135 278 -150z" />
    <glyph glyph-name="sterling" unicode="&#xa3;" horiz-adv-x="1200" 
d="M1030 313l78 -10q0 -102 -80 -194q-40 -49 -109.5 -79t-154.5 -30h-658v72q112 90 191 211q78 122 78 237q0 76 -27 164h-231v72h207q-2 6 -10.5 28t-14.5 39q-25 64 -27 74q-14 38 -20 66q-23 73 -23 147q0 172 119 285q116 110 289 110q179 0 285 -92q107 -91 116 -233
l-75 -13q-6 115 -93 193q-82 76 -233 76q-140 0 -236 -93q-94 -97 -94 -235q0 -42 12 -94q8 -47 19 -80q3 -8 7.5 -21t13 -35t14.5 -38q21 -60 30 -84h422v-72h-397q25 -89 25 -162q0 -230 -248 -450h553q174 0 239 123q33 55 33 118z" />
    <glyph glyph-name="currency" unicode="&#xa4;" horiz-adv-x="1280" 
d="M117 41l184 182q-115 127 -115 291q0 165 113 293l-182 182l53 53l182 -184q125 98 287 98t287 -98l184 184l51 -53l-180 -180q117 -126 117 -295q0 -167 -117 -293l180 -180l-51 -51l-184 184q-122 -96 -287 -96q-160 0 -285 96l-184 -184zM909 252q111 102 111 262
q0 161 -111 266q-110 107 -270 107q-155 0 -266 -105q-109 -106 -109 -268t109 -262q108 -105 266 -105q159 0 270 105z" />
    <glyph glyph-name="yen" unicode="&#xa5;" horiz-adv-x="1316" 
d="M184 625v69h408l-518 799h90l495 -780l496 780h88l-516 -799h406v-69h-437v-269h437v-69h-437v-287h-73l-2 287h-437v69h437v269h-437z" />
    <glyph glyph-name="brokenbar" unicode="&#xa6;" horiz-adv-x="481" 
d="M205 954v746h71v-746h-71zM276 -221h-71v743h71v-743z" />
    <glyph glyph-name="section" unicode="&#xa7;" horiz-adv-x="1210" 
d="M997 244q0 -114 -102 -187q-104 -73 -277 -73q-172 0 -305 88q-126 88 -153 219l76 18q17 -105 122 -180q104 -76 267 -76q139 0 219 53q78 52 78 138t-99 145q-93 55 -321 103q-216 44 -315 111t-99 171q0 100 96 166q103 67 265 70v4q-230 80 -230 235q0 114 105 185
q101 71 276 71q157 0 272 -75q119 -76 150 -193l-76 -18q-25 93 -121 155q-94 64 -229 64q-140 0 -219 -52q-80 -53 -80 -137q0 -91 100 -145q99 -58 320 -105q216 -44 314.5 -111t98.5 -169q0 -100 -96 -166q-97 -66 -264 -72v-2q227 -76 227 -235zM707 934
q-145 29 -244 29q-122 0 -215 -52q-86 -56 -86 -131q0 -78 82 -127q82 -54 270 -94q139 -31 244 -31q127 0 213 56q86 53 86 129q0 74 -80 127q-78 49 -270 94z" />
    <glyph glyph-name="dieresis" unicode="&#xa8;" horiz-adv-x="501" 
d="M51 1296q-22 23 -22 54.5t22 54.5q23 22 53 22t52 -22q22 -23 22 -54.5t-22 -54.5q-22 -22 -52 -22t-53 22zM352 1296q-22 23 -22 54.5t22 54.5q22 22 52.5 22t52.5 -22q22 -23 22 -54.5t-22 -54.5q-22 -22 -52.5 -22t-52.5 22z" />
    <glyph glyph-name="copyright" unicode="&#xa9;" horiz-adv-x="1728" 
d="M1239 90q-170 -102 -377 -102t-375 102q-174 103 -272 277q-100 169 -100 381q0 161 59 296q60 142 160 242q101 105 237 162q132 59 291 59t291 -59q135 -57 240 -162q96 -96 161 -242q60 -145 60 -296q0 -205 -101 -381q-106 -178 -274 -277zM862 1444q-185 0 -342 -92
q-162 -95 -248 -254q-92 -160 -92 -350q0 -141 56 -271q51 -126 143 -221q93 -93 219 -147q127 -56 264 -56q139 0 266 56t218 147q90 93 145 221q53 130 53 271q0 188 -90 350t-248 254q-160 92 -344 92zM1229 598l65 -23q-43 -121 -141 -200q-112 -94 -276 -94
q-190 0 -322 135q-131 134 -131 329q-3 125 58.5 234.5t168 173.5t228.5 61q149 0 264 -84q117 -85 147 -204l-65 -23q-16 69 -99 152q-41 41 -108 66.5t-141 25.5q-107 0 -195 -55q-87 -56 -137 -146q-47 -87 -47 -196q0 -104 48 -195t136 -149q89 -58 197 -58
q61 0 117.5 18.5t95.5 47.5q34 25 65 63q52 60 72 121z" />
    <glyph glyph-name="ordfeminine" unicode="&#xaa;" horiz-adv-x="1081" 
d="M813 911h-4q-42 -83 -115 -133q-73 -53 -170 -53q-157 0 -250 109q-98 107 -98 258q0 153 98 260q97 106 252 106q97 0 168 -51q77 -55 115 -133h4v172h68v-711h-68v176zM815 1090v4q0 120 -80 209q-84 90 -207 90q-122 0 -202 -86q-78 -87 -78 -213q0 -128 78 -215
q79 -88 202 -88q124 0 205 90q82 85 82 209zM881 434h-697v66h697v-66z" />
    <glyph glyph-name="guillemotleft" unicode="&#xab;" horiz-adv-x="1046" 
d="M197 573l299 -286l-47 -45l-349 331l349 340l47 -47zM596 573l299 -286l-47 -45l-348 331l348 340l47 -47z" />
    <glyph glyph-name="logicalnot" unicode="&#xac;" horiz-adv-x="1249" 
d="M1081 977v-465h-61v408h-887v57h948z" />
    <glyph glyph-name="uni00AD" unicode="&#xad;" horiz-adv-x="862" 
d="M152 567v74h559v-74h-559z" />
    <glyph glyph-name="registered" unicode="&#xae;" horiz-adv-x="1191" 
d="M594 524q-128 0 -242 66q-112 66 -176 180q-65 115 -65 246q0 100 37.5 191t103.5 157q65 67 155 105t187 38q129 3 242.5 -64t180 -181.5t64.5 -245.5q1 -98 -38 -189.5t-105 -158.5t-156.5 -106.5t-187.5 -37.5zM594 1454q-112 3 -211.5 -57t-157.5 -162.5t-55 -218.5
q0 -178 125 -309q126 -129 299 -129q178 0 301 129q125 128 125 309q0 180 -125 311q-121 127 -301 127zM481 733h-59v565h196q94 0 145.5 -45t51.5 -118q0 -67 -42.5 -110.5t-110.5 -51.5l163 -240h-71l-156 230h-117v-230zM721 1051q35 35 35 79q0 51 -33 80
q-36 33 -109 33h-133v-227h131q74 0 109 35z" />
    <glyph glyph-name="degree" unicode="&#xb0;" horiz-adv-x="890" 
d="M211 938q-98 98 -98 236q0 139 98 237q96 96 235 96q135 0 236 -96q96 -96 96 -237q0 -140 -96 -236q-98 -98 -236 -98q-141 0 -235 98zM256 1362q-78 -78 -78 -188q0 -111 78 -189t190 -78q114 0 189 78q78 78 78 189q0 110 -78 188t-189 78q-109 0 -190 -78z" />
    <glyph glyph-name="plusminus" unicode="&#xb1;" horiz-adv-x="1218" 
d="M156 700v68h422v410h75v-410h410v-68h-410v-413h-75v413h-422zM1063 68v-68h-907v68h907z" />
    <glyph glyph-name="uni00B2" unicode="&#xb2;" horiz-adv-x="880" 
d="M135 811v12q0 175 217 307l137 87q82 50 123 102.5t41 118.5q0 81 -59 137q-58 55 -152 55q-110 0 -172 -65q-50 -59 -53 -138l-70 13q6 92 74 172q35 39 92.5 62.5t126.5 23.5q128 0 207 -76q78 -78 78 -182q0 -157 -174 -264l-141 -89q-76 -46 -117 -83
q-58 -52 -70 -127h508v-66h-596z" />
    <glyph glyph-name="uni00B3" unicode="&#xb3;" horiz-adv-x="827" 
d="M707 1063q0 -112 -84 -193q-82 -79 -215 -79q-116 0 -199 71q-84 72 -96 176l69 13q12 -93 76 -142q63 -51 150 -51q93 0 159 57q68 56 68 148q0 53 -28.5 96t-76.5 68q-51 26 -114 26h-54l-34 64l276 297h-469v65h557v-67l-270 -291h4q66 0 129 -29q69 -31 110.5 -92.5
t41.5 -136.5z" />
    <glyph glyph-name="acute" unicode="&#xb4;" horiz-adv-x="342" 
d="M94 1192h-67l215 328h86z" />
    <glyph glyph-name="uni00B5" unicode="&#xb5;" horiz-adv-x="1253" 
d="M276 1018v-604q0 -85 25 -162q37 -97 118 -149t199 -52q148 0 254 109q103 106 103 272v586h76v-1018h-76v225q-41 -113 -141 -176q-98 -67 -228 -67q-114 0 -200 47.5t-130 136.5v-479h-73v1331h73z" />
    <glyph glyph-name="paragraph" unicode="&#xb6;" horiz-adv-x="985" 
d="M676 770h-211q-161 0 -277 107q-114 108 -114 256q0 151 114 256q113 104 277 104h291v-1493h-80v770z" />
    <glyph glyph-name="middot" unicode="&#xb7;" horiz-adv-x="468" 
d="M293 543q-25 -25 -58.5 -25t-58.5 25t-25 58t25 58t58.5 25t58.5 -25t25 -58t-25 -58z" />
    <glyph glyph-name="uni00B9" unicode="&#xb9;" horiz-adv-x="538" 
d="M61 1534l246 145h64v-868h-70v793l-209 -123z" />
    <glyph glyph-name="ordmasculine" unicode="&#xba;" horiz-adv-x="1081" 
d="M541 725q-156 0 -260 104q-107 107 -107 261t105 262q103 106 262 106q156 0 260 -104t104 -260t-104 -263q-103 -106 -260 -106zM539 1393q-125 0 -211 -86q-82 -88 -82 -213t84 -215q85 -88 211 -88q129 0 211 88q84 87 84 211q0 126 -86 215q-85 88 -211 88zM897 434
h-713v66h713v-66z" />
    <glyph glyph-name="guillemotright" unicode="&#xbb;" horiz-adv-x="1046" 
d="M547 573l-348 -331l-47 45l299 286l-299 293l47 47zM946 573l-348 -331l-47 45l299 286l-299 293l47 47z" />
    <glyph glyph-name="onequarter" unicode="&#xbc;" horiz-adv-x="1484" 
d="M72 1346l245 147h64v-868h-70v790l-209 -121zM1239 1493l-969 -1493h-84l971 1493h82zM1188 193h-481v71l477 606h71v-614h148v-63h-148v-193h-67v193zM1188 776l-410 -520h410v520z" />
    <glyph glyph-name="onehalf" unicode="&#xbd;" horiz-adv-x="1576" 
d="M72 1346l245 147h64v-868h-70v790l-209 -121zM1239 1493l-969 -1493h-84l971 1493h82zM877 0v12q0 175 217 307l137 87q81 50 121.5 102.5t40.5 118.5q0 82 -58 137t-151 55q-113 0 -172 -65q-51 -57 -54 -138l-69 13q3 90 74 170q35 40 92 64t127 24q125 0 207 -76
q77 -77 77 -182q0 -157 -174 -264l-143 -89q-70 -42 -115 -83q-55 -50 -71 -127h510v-66h-596z" />
    <glyph glyph-name="threequarters" unicode="&#xbe;" horiz-adv-x="1679" 
d="M686 874q0 -109 -84 -190q-83 -80 -215 -80q-115 0 -199 72t-96 176l70 10q12 -89 76 -141q63 -51 149 -51q92 0 160 59q67 58 67 148q0 52 -28 95t-76 68q-49 27 -115 27h-53l-35 61l277 299h-469v66h557v-68l-271 -290h5q66 0 129 -29q69 -31 110 -93t41 -139z
M1438 1493l-969 -1493h-84l971 1493h82zM1384 193h-479v71l477 606h72v-614h148v-63h-148v-193h-70v193zM1384 776l-407 -520h407v520z" />
    <glyph glyph-name="questiondown" unicode="&#xbf;" horiz-adv-x="997" 
d="M582 1014q35 -32 14 -82t-68 -47q-31 0 -52 22t-21 54q0 31 21 53t52 22q29 0 54 -22zM487 623h78q0 -131 -84 -244q-64 -89 -168 -193q-77 -77 -119 -145t-42 -145q0 -137 100 -224q101 -90 244 -90q152 0 252 103q102 102 102 254l80 -5v-8q0 -178 -127 -299
q-125 -116 -307 -116q-173 -3 -299 108.5t-125 274.5q0 85 51 178q28 46 57 82q36 41 62 71q6 6 28.5 29t38.5 39q87 89 131 167.5t47 162.5z" />
    <glyph glyph-name="Agrave" unicode="&#xc0;" horiz-adv-x="1433" 
d="M457 1958h86l215 -330h-70zM760 1493l657 -1493h-84l-186 426h-864l-189 -426h-80l660 1493h86zM1116 498l-403 909l-400 -909h803z" />
    <glyph glyph-name="Aacute" unicode="&#xc1;" horiz-adv-x="1433" 
d="M748 1628h-68l215 330h86zM14 0l660 1493h86l657 -1493h-84l-186 426h-864l-189 -426h-80zM1116 498l-403 909l-400 -909h803z" />
    <glyph glyph-name="Acircumflex" unicode="&#xc2;" horiz-adv-x="1433" 
d="M674 1958h84l254 -330h-74l-221 270l-223 -270h-74zM14 0l660 1493h86l657 -1493h-84l-186 426h-864l-189 -426h-80zM1116 498l-403 909l-400 -909h803z" />
    <glyph glyph-name="Atilde" unicode="&#xc3;" horiz-adv-x="1433" 
d="M14 0l660 1493h86l657 -1493h-84l-186 426h-864l-189 -426h-80zM1116 498l-403 909l-400 -909h803zM977 1812l49 -18q-19 -71 -57 -115q-40 -49 -103 -49q-64 0 -149 64q-74 63 -135 63q-83 0 -121 -115l-55 23q53 160 169 160q38 0 81.5 -18.5t76.5 -45.5
q79 -63 129 -63q72 0 115 114z" />
    <glyph glyph-name="Adieresis" unicode="&#xc4;" horiz-adv-x="1433" 
d="M506 1735q-22 22 -22 53.5t22 54.5q22 22 52 22t52 -22q22 -23 22 -54.5t-22 -53.5q-22 -23 -52 -23t-52 23zM825 1735q-22 24 -22 53.5t22 53.5t52 22q31 0 52 -22t21 -54q0 -31 -21.5 -53.5t-51.5 -22.5q-29 0 -52 23zM14 0l660 1493h86l657 -1493h-84l-186 426h-864
l-189 -426h-80zM1116 498l-403 909l-400 -909h803z" />
    <glyph glyph-name="Aring" unicode="&#xc5;" horiz-adv-x="1433" 
d="M522 1614q0 76 56 135q55 55 135 55t135 -55q55 -58 55 -135q0 -60 -33 -106.5t-88 -65.5l635 -1442h-84l-186 426h-864l-189 -426h-80l635 1440q-58 19 -92.5 66t-34.5 108zM713 1741q-54 0 -88.5 -35.5t-34.5 -91.5q0 -54 34.5 -90.5t88.5 -36.5t90 39q35 35 35 88
t-37 90t-88 37zM313 498h803l-403 909z" />
    <glyph glyph-name="AE" unicode="&#xc6;" horiz-adv-x="1943" 
d="M893 1493h924v-72h-781v-622h715v-74h-715v-653h789v-72h-869v426h-624l-258 -426h-84zM956 498v923h-24l-557 -923h581z" />
    <glyph glyph-name="Ccedilla" unicode="&#xc7;" horiz-adv-x="1601" 
d="M1448 502l72 -27q-40 -132 -140 -248q-56 -65 -123 -114q-70 -53 -165.5 -87t-198.5 -40q18 -55 18 -119q0 -196 -143 -281q-74 -47 -182 -47q-32 0 -56 8v64q14 -2 50 -2q126 0 192 67t66 195q0 43 -13 113q-152 3 -286.5 63t-227.5 164q-95 104 -146.5 242t-51.5 292
q0 155 53 297q53 135 151 244q96 103 234 162q137 61 295 61q217 0 385 -108q69 -46 131 -115q106 -117 147 -264l-71 -27q-12 56 -58 135q-57 97 -139 168q-165 140 -397 140q-188 0 -336 -95q-151 -92 -234 -249q-81 -153 -81 -342q0 -193 81 -346q79 -157 232 -254
q147 -97 340 -97q154 0 271 59t196 154q62 70 108 164q25 63 27 70z" />
    <glyph glyph-name="Egrave" unicode="&#xc8;" horiz-adv-x="1245" 
d="M420 1958h84l215 -330h-68zM301 72h825v-72h-905v1493h895v-72h-815v-622h752v-74h-752v-653z" />
    <glyph glyph-name="Eacute" unicode="&#xc9;" horiz-adv-x="1245" 
d="M694 1628h-69l215 330h86zM1116 1421h-815v-622h752v-74h-752v-653h825v-72h-905v1493h895v-72z" />
    <glyph glyph-name="Ecircumflex" unicode="&#xca;" horiz-adv-x="1245" 
d="M633 1958h84l252 -330h-74l-221 270l-221 -270h-74zM1116 1421h-815v-622h752v-74h-752v-653h825v-72h-905v1493h895v-72z" />
    <glyph glyph-name="Edieresis" unicode="&#xcb;" horiz-adv-x="1245" 
d="M457 1735q-22 22 -22 53.5t22 54.5q22 22 52 22t52 -22q22 -23 22 -54.5t-22 -53.5q-22 -23 -52 -23t-52 23zM776 1735q-22 24 -22.5 53.5t21.5 53.5t52 22q31 0 52.5 -22t21.5 -54q0 -31 -21.5 -53.5t-52.5 -22.5t-51 23zM221 1493h895v-72h-815v-622h752v-74h-752v-653
h825v-72h-905v1493z" />
    <glyph glyph-name="Igrave" unicode="&#xcc;" horiz-adv-x="522" 
d="M0 1958h86l215 -330h-70zM301 1493v-1493h-80v1493h80z" />
    <glyph glyph-name="Iacute" unicode="&#xcd;" horiz-adv-x="522" 
d="M291 1628h-70l215 330h86zM221 0v1493h80v-1493h-80z" />
    <glyph glyph-name="Icircumflex" unicode="&#xce;" horiz-adv-x="522" 
d="M219 1958h84l254 -330h-74l-223 270l-221 -270h-74zM221 0v1493h80v-1493h-80z" />
    <glyph glyph-name="Idieresis" unicode="&#xcf;" horiz-adv-x="522" 
d="M59 1733q-22 23 -22 54.5t22 53.5q22 23 52.5 23t52.5 -23q22 -22 22 -53.5t-22 -54.5q-22 -22 -52.5 -22t-52.5 22zM358 1733q-22 23 -22 54.5t22 53.5q23 23 53.5 23t53.5 -23q22 -22 22 -53.5t-22 -54.5q-23 -22 -53.5 -22t-53.5 22zM221 0v1493h80v-1493h-80z" />
    <glyph glyph-name="Eth" unicode="&#xd0;" horiz-adv-x="1527" 
d="M66 799h157v694h398q167 0 315.5 -56t255.5 -157q106 -100 165.5 -239t59.5 -296q0 -161 -59 -303q-58 -134 -168 -237q-107 -98 -254.5 -151.5t-314.5 -53.5h-398v725h-157v74zM819 725h-518v-653h322q202 0 366 86q163 85 256 239q92 154 92 346q0 195 -92 349
q-93 154 -258 243q-167 86 -366 86h-320v-622h518v-74z" />
    <glyph glyph-name="Ntilde" unicode="&#xd1;" horiz-adv-x="1622" 
d="M221 1493h94l1008 -1380v1380h78v-1493h-90l-1012 1386v-1386h-78v1493zM1073 1812l49 -18q-19 -71 -57 -115q-43 -49 -102 -49q-65 0 -150 64q-74 63 -135 63q-82 0 -123 -115l-53 23q53 160 170 160q77 0 157 -64q79 -63 129 -63q72 0 115 114z" />
    <glyph glyph-name="Ograve" unicode="&#xd2;" horiz-adv-x="1691" 
d="M586 1958h86l215 -330h-70zM846 -16q-210 0 -379 102q-172 104 -262 276q-92 176 -92 383q0 155 53 297q53 135 151 244q96 103 234 162q137 61 297 61q210 0 379 -102q168 -101 260 -277q94 -175 94 -382q0 -208 -94 -383q-91 -174 -262 -277q-168 -104 -379 -104z
M846 1438q-140 0 -264 -56q-126 -57 -207 -147q-86 -95 -134 -221t-48 -262q0 -139 48 -266t134 -224q84 -92 209 -149q122 -58 266 -58q180 0 336 95q147 92 231 249q82 155 82 344q0 138 -47 265t-133 223q-82 91 -209 151q-124 56 -264 56z" />
    <glyph glyph-name="Oacute" unicode="&#xd3;" horiz-adv-x="1691" 
d="M874 1628h-67l215 330h84zM846 -16q-210 0 -379 102q-172 104 -262 276q-92 176 -92 383q0 155 53 297q53 135 151 244q96 103 234 162q137 61 297 61q210 0 379 -102q168 -101 260 -277q94 -175 94 -382q0 -208 -94 -383q-91 -174 -262 -277q-168 -104 -379 -104z
M846 1438q-140 0 -264 -56q-126 -57 -207 -147q-86 -95 -134 -221t-48 -262q0 -139 48 -266t134 -224q84 -92 209 -149q122 -58 266 -58q180 0 336 95q147 92 231 249q82 155 82 344q0 138 -47 265t-133 223q-82 91 -209 151q-124 56 -264 56z" />
    <glyph glyph-name="Ocircumflex" unicode="&#xd4;" horiz-adv-x="1691" 
d="M803 1958h84l254 -330h-74l-221 270l-221 -270h-74zM846 -16q-210 0 -379 102q-172 104 -262 276q-92 176 -92 383q0 155 53 297q53 135 151 244q96 103 234 162q137 61 297 61q210 0 379 -102q168 -101 260 -277q94 -175 94 -382q0 -208 -94 -383q-91 -174 -262 -277
q-168 -104 -379 -104zM846 1438q-140 0 -264 -56q-126 -57 -207 -147q-86 -95 -134 -221t-48 -262q0 -139 48 -266t134 -224q84 -92 209 -149q122 -58 266 -58q180 0 336 95q147 92 231 249q82 155 82 344q0 138 -47 265t-133 223q-82 91 -209 151q-124 56 -264 56z" />
    <glyph glyph-name="Otilde" unicode="&#xd5;" horiz-adv-x="1691" 
d="M846 -16q-210 0 -379 102q-172 104 -262 276q-92 176 -92 383q0 155 53 297q53 135 151 244q96 103 234 162q137 61 297 61q210 0 379 -102q168 -101 260 -277q94 -175 94 -382q0 -208 -94 -383q-91 -174 -262 -277q-168 -104 -379 -104zM846 1438q-140 0 -264 -56
q-126 -57 -207 -147q-86 -95 -134 -221t-48 -262q0 -139 48 -266t134 -224q84 -92 209 -149q122 -58 266 -58q180 0 336 95q147 92 231 249q82 155 82 344q0 138 -47 265t-133 223q-82 91 -209 151q-124 56 -264 56zM1106 1812l49 -18q-19 -71 -57 -115q-40 -49 -103 -49
q-66 0 -147 64q-78 63 -137 63q-83 0 -121 -115l-55 23q56 160 172 160q36 0 79 -18.5t76 -45.5q79 -63 129 -63q72 0 115 114z" />
    <glyph glyph-name="Odieresis" unicode="&#xd6;" horiz-adv-x="1691" 
d="M635 1735q-22 22 -22 53.5t22 54.5q22 22 52 22t52 -22q22 -23 22 -54.5t-22 -53.5q-22 -23 -52 -23t-52 23zM954 1735q-22 24 -22 53.5t22 53.5t52 22q31 0 52 -22t21 -54q0 -31 -21.5 -53.5t-51.5 -22.5q-29 0 -52 23zM846 -16q-210 0 -379 102q-172 104 -262 276
q-92 176 -92 383q0 155 53 297q53 135 151 244q96 103 234 162q137 61 297 61q210 0 379 -102q168 -101 260 -277q94 -175 94 -382q0 -208 -94 -383q-91 -174 -262 -277q-168 -104 -379 -104zM846 1438q-140 0 -264 -56q-126 -57 -207 -147q-86 -95 -134 -221t-48 -262
q0 -139 48 -266t134 -224q84 -92 209 -149q122 -58 266 -58q180 0 336 95q147 92 231 249q82 155 82 344q0 138 -47 265t-133 223q-82 91 -209 151q-124 56 -264 56z" />
    <glyph glyph-name="multiply" unicode="&#xd7;" horiz-adv-x="1116" 
d="M504 610l-387 402l49 47l387 -397l391 401l51 -49l-393 -404l393 -403l-51 -47l-391 401l-379 -391l-51 49z" />
    <glyph glyph-name="Oslash" unicode="&#xd8;" horiz-adv-x="1699" 
d="M1587 1518l-209 -234q98 -103 151.5 -242t53.5 -294q0 -157 -55 -297q-52 -136 -150 -242q-95 -105 -233 -164q-137 -61 -297 -61q-276 0 -475 172l-207 -232l-51 47l209 234q-99 105 -154 245t-55 295q0 157 55 297q115 289 385 406q137 61 295 61q280 0 479 -178
l207 234zM195 752q0 -140 47 -266.5t135 -221.5l901 1010q-182 164 -430 164q-140 0 -264 -56q-120 -54 -207 -147q-86 -95 -134 -221t-48 -262zM852 55q182 0 338 95q147 92 231 249q82 155 82 344q0 137 -46 262t-132 220l-901 -1010q180 -160 428 -160z" />
    <glyph glyph-name="Ugrave" unicode="&#xd9;" horiz-adv-x="1486" 
d="M494 1958h86l215 -330h-70zM1206 582v911h80v-907q0 -278 -141 -441q-139 -161 -400 -161q-262 0 -403 162.5t-141 435.5v911h80v-909q0 -260 125 -394q123 -135 342 -135q117 0 205.5 38.5t143.5 109t82 165.5t27 214z" />
    <glyph glyph-name="Uacute" unicode="&#xda;" horiz-adv-x="1486" 
d="M764 1628h-68l215 330h84zM1286 1493v-907q0 -278 -141 -441q-139 -161 -400 -161q-262 0 -403 162.5t-141 435.5v911h80v-909q0 -260 125 -394q123 -135 342 -135q117 0 205.5 38.5t143.5 109t82 165.5t27 214v911h80z" />
    <glyph glyph-name="Ucircumflex" unicode="&#xdb;" horiz-adv-x="1486" 
d="M702 1958h84l252 -330h-73l-222 270l-221 -270h-73zM1286 1493v-907q0 -278 -141 -441q-139 -161 -400 -161q-262 0 -403 162.5t-141 435.5v911h80v-909q0 -260 125 -394q123 -135 342 -135q117 0 205.5 38.5t143.5 109t82 165.5t27 214v911h80z" />
    <glyph glyph-name="Udieresis" unicode="&#xdc;" horiz-adv-x="1486" 
d="M532 1735q-35 32 -14 82t68 47q30 0 51.5 -22t21.5 -54q0 -31 -22 -53.5t-51 -22.5q-31 0 -54 23zM852 1735q-22 22 -22 53.5t22 54.5q22 22 52 22t52 -22q22 -23 22 -54.5t-22 -53.5q-22 -23 -52 -23t-52 23zM1286 1493v-907q0 -278 -141 -441q-139 -161 -400 -161
q-262 0 -403 162.5t-141 435.5v911h80v-909q0 -260 125 -394q123 -135 342 -135q117 0 205.5 38.5t143.5 109t82 165.5t27 214v911h80z" />
    <glyph glyph-name="Yacute" unicode="&#xdd;" horiz-adv-x="1368" 
d="M702 1628h-69l215 330h86zM59 1493h95l532 -780l528 780h95l-586 -852v-641h-78v641z" />
    <glyph glyph-name="Thorn" unicode="&#xde;" horiz-adv-x="1261" 
d="M299 1198h344q339 -3 469 -188q76 -105 76 -246q0 -188 -133 -315q-69 -63 -180 -98.5t-250 -35.5h-326v-315h-78v1495h78v-297zM299 389h326q258 0 376 115q109 106 109 256q0 145 -102 250q-53 55 -149.5 85.5t-223.5 30.5h-336v-737z" />
    <glyph glyph-name="germandbls" unicode="&#xdf;" horiz-adv-x="1191" 
d="M872 473l-106 49q-50 23 -84 49q-29 19 -43 39q-39 49 -39 117q0 61 42.5 114.5t125.5 110.5l45 31q143 94 143 211q0 141 -98 217t-235 76q-177 0 -271 -113q-96 -111 -96 -291v-1083h-74v1092q0 132 51.5 236.5t151.5 166.5q101 61 240 61q232 0 350 -163
q59 -83 59 -197q0 -97 -63 -170q-55 -60 -111 -98l-53 -37q-69 -45 -100 -83.5t-31 -80.5q0 -61 61 -106q12 -9 39 -23q3 -2 16.5 -7.5t14.5 -6.5l106 -49q97 -44 154 -115.5t57 -157.5q0 -84 -47 -149t-114 -99q-71 -30 -144 -30q-72 0 -131.5 24t-97.5 64.5t-59.5 89.5
t-26.5 102l69 19q1 -24 8.5 -51.5t26 -60t44.5 -58.5t69.5 -43t97.5 -17q90 0 160 58q70 52 70 147q0 74 -52 129q-51 51 -125 86z" />
    <glyph glyph-name="agrave" unicode="&#xe0;" horiz-adv-x="1077" 
d="M297 1520h84l215 -328h-68zM449 -18q-149 0 -244 77q-99 77 -99 213q0 74 35 132t94 91.5t127 50.5t142 17h332v72q0 155 -81.5 242.5t-230.5 87.5q-192 -3 -274 -129q-41 -57 -55 -134l-72 17q7 69 61 149q29 45 72 82q45 38 115.5 62t150.5 24q178 0 283 -102
q106 -106 106 -293v-287q0 -252 15 -354h-74q-7 29 -10 104q-6 79 -6 121q-59 -118 -162 -178q-106 -65 -225 -65zM838 496h-330q-121 0 -215 -47q-51 -27 -80 -72.5t-29 -102.5q0 -106 76 -161q72 -60 191 -60q158 -3 273 100.5t114 264.5v78z" />
    <glyph glyph-name="aacute" unicode="&#xe1;" horiz-adv-x="1077" 
d="M555 1192h-70l215 328h86zM449 -18q-149 0 -244 77q-99 77 -99 213q0 74 35 132t94 91.5t127 50.5t142 17h332v72q0 155 -81.5 242.5t-230.5 87.5q-192 -3 -274 -129q-41 -57 -55 -134l-72 17q7 69 61 149q29 45 72 82q45 38 115.5 62t150.5 24q178 0 283 -102
q106 -106 106 -293v-287q0 -252 15 -354h-74q-7 29 -10 104q-6 79 -6 121q-59 -118 -162 -178q-106 -65 -225 -65zM838 496h-330q-121 0 -215 -47q-51 -27 -80 -72.5t-29 -102.5q0 -106 76 -161q72 -60 191 -60q158 -3 273 100.5t114 264.5v78z" />
    <glyph glyph-name="acircumflex" unicode="&#xe2;" horiz-adv-x="1077" 
d="M483 1520h84l252 -328h-71l-224 270l-221 -270h-74zM449 -18q-149 0 -244 77q-99 77 -99 213q0 74 35 132t94 91.5t127 50.5t142 17h332v72q0 155 -81.5 242.5t-230.5 87.5q-192 -3 -274 -129q-41 -57 -55 -134l-72 17q7 69 61 149q29 45 72 82q45 38 115.5 62t150.5 24
q178 0 283 -102q106 -106 106 -293v-287q0 -252 15 -354h-74q-7 29 -10 104q-6 79 -6 121q-59 -118 -162 -178q-106 -65 -225 -65zM838 496h-330q-121 0 -215 -47q-51 -27 -80 -72.5t-29 -102.5q0 -106 76 -161q72 -60 191 -60q158 -3 273 100.5t114 264.5v78z" />
    <glyph glyph-name="atilde" unicode="&#xe3;" horiz-adv-x="1077" 
d="M449 -18q-149 0 -244 77q-99 77 -99 213q0 74 35 132t94 91.5t127 50.5t142 17h332v72q0 155 -81.5 242.5t-230.5 87.5q-192 -3 -274 -129q-41 -57 -55 -134l-72 17q7 69 61 149q29 45 72 82q45 38 115.5 62t150.5 24q178 0 283 -102q106 -106 106 -293v-287
q0 -252 15 -354h-74q-7 29 -10 104q-6 79 -6 121q-59 -118 -162 -178q-106 -65 -225 -65zM838 496h-330q-121 0 -215 -47q-51 -27 -80 -72.5t-29 -102.5q0 -106 76 -161q72 -60 191 -60q158 -3 273 100.5t114 264.5v78zM782 1374l49 -16q-18 -69 -57 -117q-38 -47 -102 -47
q-72 0 -150 63q-78 62 -135 62q-83 0 -121 -115l-55 25q53 160 170 160q73 0 158 -64q77 -65 129 -65q71 0 114 114z" />
    <glyph glyph-name="adieresis" unicode="&#xe4;" horiz-adv-x="1077" 
d="M311 1296q-23 23 -23 54.5t23 54.5q22 22 52.5 22t52.5 -22q22 -23 22 -54.5t-22 -54.5q-22 -22 -52.5 -22t-52.5 22zM610 1296q-22 23 -22 54.5t22 54.5q22 22 53 22t54 -22q22 -23 22 -54.5t-22 -54.5q-23 -22 -54 -22t-53 22zM449 -18q-149 0 -244 77q-99 77 -99 213
q0 74 35 132t94 91.5t127 50.5t142 17h332v72q0 155 -81.5 242.5t-230.5 87.5q-192 -3 -274 -129q-41 -57 -55 -134l-72 17q7 69 61 149q29 45 72 82q45 38 115.5 62t150.5 24q178 0 283 -102q106 -106 106 -293v-287q0 -252 15 -354h-74q-7 29 -10 104q-6 79 -6 121
q-59 -118 -162 -178q-106 -65 -225 -65zM838 496h-330q-121 0 -215 -47q-51 -27 -80 -72.5t-29 -102.5q0 -106 76 -161q72 -60 191 -60q158 -3 273 100.5t114 264.5v78z" />
    <glyph glyph-name="aring" unicode="&#xe5;" horiz-adv-x="1077" 
d="M926 0h-74q-7 29 -10 104q-6 79 -6 121q-59 -118 -162 -178q-106 -65 -225 -65q-149 0 -244 77q-99 77 -99 213q0 74 35 132t94 91.5t127 50.5t142 17h332v72q0 155 -81.5 242.5t-230.5 87.5q-192 -3 -274 -129q-41 -57 -55 -134l-72 17q7 70 63 155q32 48 86 87t121 59
q-59 53 -59 127q0 78 55 133q58 55 135 55q80 0 135 -55q58 -58 58 -133q0 -73 -62 -129q122 -34 189 -131t67 -246v-287q0 -252 15 -354zM649 1147q0 51 -37 88t-88 37q-54 0 -88.5 -35.5t-34.5 -89.5t34.5 -90.5t88.5 -36.5t89.5 36.5t35.5 90.5zM838 496h-330
q-121 0 -215 -47q-51 -27 -80 -72.5t-29 -102.5q0 -106 76 -161q72 -60 191 -60q158 -3 273 100.5t114 264.5v78z" />
    <glyph glyph-name="ae" unicode="&#xe6;" horiz-adv-x="1820" 
d="M1720 496h-876q2 -119 55.5 -218.5t151.5 -160.5q98 -64 223 -64q138 0 239 78q97 79 134 191l67 -21q-43 -141 -160 -229q-119 -88 -282 -88q-132 0 -242 61.5t-178 169.5q-58 -111 -166 -172q-107 -61 -233 -61h-4q-149 0 -244 77q-99 77 -99 213q0 74 35 132t94 91.5
t127 50.5t142 17h268q9 105 51 187q-26 103 -103 159t-196 56q-192 -3 -274 -129q-41 -57 -55 -134l-72 17q7 69 61 149q29 45 72 82q45 38 115.5 62t150.5 24q121 0 211.5 -54.5t136.5 -154.5q68 96 168 152q105 57 219 57q121 0 213 -44t145 -119t79 -166t26 -195v-16z
M844 563h798q-11 202 -133 316q-96 86 -256 86q-162 0 -280 -121q-120 -117 -129 -281zM815 287q-42 91 -45 209h-262q-121 0 -215 -47q-51 -27 -80 -72.5t-29 -102.5q0 -106 76 -161q72 -60 191 -60q115 0 219 64q106 65 145 170z" />
    <glyph glyph-name="ccedilla" unicode="&#xe7;" horiz-adv-x="1175" 
d="M1014 338l71 -25q-49 -131 -149 -219q-106 -93 -264 -108q18 -52 18 -119q0 -195 -141 -281q-77 -47 -182 -47q-34 0 -58 8v64q14 -2 49 -2q126 0 192 67t66 195q0 49 -12 111q-102 3 -195 43.5t-161 111.5q-67 70 -106.5 167.5t-39.5 201.5q0 146 70 268q69 122 186 191
q113 71 258 71q164 0 297 -94q129 -92 170 -229l-69 -25q-10 43 -51.5 101t-104.5 104q-104 72 -244 72q-123 0 -221 -64q-99 -60 -155 -166t-56 -223q0 -119 55.5 -223t155.5 -168q103 -68 223 -68q143 0 244 76q36 25 76 72q59 72 78 137z" />
    <glyph glyph-name="egrave" unicode="&#xe8;" horiz-adv-x="1157" 
d="M332 1520h86l215 -328h-70zM1059 496h-877q2 -118 56 -218t151 -161q101 -64 223 -64q137 0 238 78q97 75 135 191l70 -21q-47 -143 -164 -229q-119 -88 -283 -88q-142 0 -260 71q-113 68 -180 193q-66 123 -66 262v4q0 99 38 195.5t104 169.5q66 72 158.5 114.5
t191.5 42.5q118 0 210.5 -43.5t147.5 -120.5q107 -149 107 -360q3 -10 0 -16zM182 563h799q-3 58 -17 112.5t-44 108t-73.5 93t-109.5 64t-147 24.5q-105 0 -197 -56q-92 -57 -149 -151q-56 -93 -62 -195z" />
    <glyph glyph-name="eacute" unicode="&#xe9;" horiz-adv-x="1157" 
d="M616 1192h-69l215 328h86zM1059 496h-877q2 -118 56 -218t151 -161q101 -64 223 -64q137 0 238 78q97 75 135 191l70 -21q-47 -143 -164 -229q-119 -88 -283 -88q-142 0 -260 71q-113 68 -180 193q-66 123 -66 262v4q0 99 38 195.5t104 169.5q66 72 158.5 114.5
t191.5 42.5q118 0 210.5 -43.5t147.5 -120.5q107 -149 107 -360q3 -10 0 -16zM182 563h799q-3 58 -17 112.5t-44 108t-73.5 93t-109.5 64t-147 24.5q-105 0 -197 -56q-92 -57 -149 -151q-56 -93 -62 -195z" />
    <glyph glyph-name="ecircumflex" unicode="&#xea;" horiz-adv-x="1157" 
d="M553 1520h84l254 -328h-74l-221 270l-221 -270h-74zM1059 496h-877q2 -118 56 -218t151 -161q101 -64 223 -64q137 0 238 78q97 75 135 191l70 -21q-47 -143 -164 -229q-119 -88 -283 -88q-142 0 -260 71q-113 68 -180 193q-66 123 -66 262v4q0 99 38 195.5t104 169.5
q66 72 158.5 114.5t191.5 42.5q118 0 210.5 -43.5t147.5 -120.5q107 -149 107 -360q3 -10 0 -16zM182 563h799q-3 58 -17 112.5t-44 108t-73.5 93t-109.5 64t-147 24.5q-105 0 -197 -56q-92 -57 -149 -151q-56 -93 -62 -195z" />
    <glyph glyph-name="edieresis" unicode="&#xeb;" horiz-adv-x="1157" 
d="M387 1296q-22 23 -22 54.5t22 54.5q22 22 52.5 22t52.5 -22q22 -23 22 -54.5t-22 -54.5q-22 -22 -52.5 -22t-52.5 22zM686 1296q-22 23 -22 54.5t22 54.5q23 22 53.5 22t53.5 -22q22 -23 22 -54.5t-22 -54.5q-23 -22 -53.5 -22t-53.5 22zM1059 496h-877q2 -118 56 -218
t151 -161q101 -64 223 -64q137 0 238 78q97 75 135 191l70 -21q-47 -143 -164 -229q-119 -88 -283 -88q-142 0 -260 71q-113 68 -180 193q-66 123 -66 262v4q0 99 38 195.5t104 169.5q66 72 158.5 114.5t191.5 42.5q118 0 210.5 -43.5t147.5 -120.5q107 -149 107 -360
q3 -10 0 -16zM182 563h799q-3 58 -17 112.5t-44 108t-73.5 93t-109.5 64t-147 24.5q-105 0 -197 -56q-92 -57 -149 -151q-56 -93 -62 -195z" />
    <glyph glyph-name="igrave" unicode="&#xec;" horiz-adv-x="440" 
d="M-41 1520h84l215 -328h-68zM258 0h-76v1018h76v-1018z" />
    <glyph glyph-name="iacute" unicode="&#xed;" horiz-adv-x="440" 
d="M250 1192h-70l215 328h86zM258 0h-76v1018h76v-1018z" />
    <glyph glyph-name="icircumflex" unicode="&#xee;" horiz-adv-x="440" 
d="M178 1520h84l254 -328h-74l-223 270l-221 -270h-74zM258 0h-76v1018h76v-1018z" />
    <glyph glyph-name="idieresis" unicode="&#xef;" horiz-adv-x="440" 
d="M20 1296q-23 23 -23 54.5t23 54.5q22 22 52.5 22t52.5 -22q22 -23 22 -54.5t-22 -54.5q-22 -22 -52.5 -22t-52.5 22zM319 1296q-22 23 -22 54.5t22 54.5q22 22 53 22t54 -22q22 -23 22 -54.5t-22 -54.5q-23 -22 -54 -22t-53 22zM258 0h-76v1018h76v-1018z" />
    <glyph glyph-name="eth" unicode="&#xf0;" horiz-adv-x="1253" 
d="M993 1421l-227 -104q375 -328 375 -764v-16q0 -112 -40 -215t-110 -179q-70 -74 -167 -116.5t-203 -42.5q-142 -3 -262.5 67t-189.5 191.5t-67 263.5q0 137 66 260q63 119 180 190q121 74 264 74q117 0 224 -56.5t194 -162.5q-82 270 -334 475l-278 -129l-31 60l250 114
q-134 101 -287 164l39 61q167 -72 318 -192l256 117zM623 53q88 -1 171 36.5t143 101t95 150t33 177.5q0 100 -18 170q-40 99 -166 184q-127 86 -265 86q-124 0 -225 -61q-96 -56 -153 -162q-56 -103 -56 -223q0 -189 125 -326q124 -133 316 -133z" />
    <glyph glyph-name="ntilde" unicode="&#xf1;" 
d="M625 1036q190 0 297 -116q108 -120 108 -308v-612h-76v598q0 175 -90 272q-89 95 -250 95q-150 0 -254 -107t-104 -274v-584h-74v1018h74v-225q44 113 143 178q100 65 226 65zM866 1374l49 -16q-18 -69 -57 -117q-41 -47 -102 -47q-72 0 -150 63q-78 62 -135 62
q-82 0 -123 -115l-53 25q53 160 170 160q73 0 158 -64q77 -65 129 -65q71 0 114 114z" />
    <glyph glyph-name="ograve" unicode="&#xf2;" horiz-adv-x="1249" 
d="M367 1520h86l215 -328h-70zM625 -16q-141 -3 -262.5 67t-192 191.5t-68.5 263.5q0 108 40.5 207t111.5 170q70 71 168 112t205 41q142 3 263 -67.5t190.5 -192.5t66.5 -264q3 -143 -65 -265.5t-190 -194t-267 -68.5zM850 903q-103 62 -227 62q-123 0 -228 -60
q-101 -61 -157 -164.5t-56 -228.5q-3 -122 55 -228.5t162 -169.5t226 -61q189 0 317 131q125 131 125 324q0 126 -57 229.5t-160 165.5z" />
    <glyph glyph-name="oacute" unicode="&#xf3;" horiz-adv-x="1249" 
d="M659 1192h-69l215 328h86zM625 -16q-142 -3 -263.5 67t-191.5 191.5t-68 263.5q-1 108 39.5 207t111 170.5t168.5 113t206 39.5q145 0 264.5 -69t187.5 -189.5t68 -265.5q2 -143 -66.5 -265.5t-190 -194t-265.5 -68.5zM850 903q-103 62 -227 62q-123 0 -228 -60
q-101 -61 -157 -164.5t-56 -228.5q-3 -122 55 -228.5t162 -169.5t226 -61q189 0 317 131q125 131 125 324q0 126 -57 229.5t-160 165.5z" />
    <glyph glyph-name="ocircumflex" unicode="&#xf4;" horiz-adv-x="1249" 
d="M584 1520h82l254 -328h-74l-221 270l-222 -270h-73zM625 -16q-142 -3 -263.5 67t-191.5 191.5t-68 263.5q-1 108 39.5 207t111 170.5t168.5 113t206 39.5q142 3 262.5 -67.5t190 -192.5t67.5 -264q2 -143 -66.5 -265.5t-190 -194t-265.5 -68.5zM850 903q-103 62 -227 62
q-123 0 -228 -60q-101 -61 -157 -164.5t-56 -228.5q-3 -122 55 -228.5t162 -169.5t226 -61q189 0 317 131q125 131 125 324q0 126 -57 229.5t-160 165.5z" />
    <glyph glyph-name="otilde" unicode="&#xf5;" horiz-adv-x="1249" 
d="M881 1376l53 -18q-19 -70 -57 -117t-103 -47q-35 0 -75.5 18t-71.5 45q-82 62 -138 62q-79 0 -120 -115l-54 25q50 157 168 157q38 0 81.5 -18.5t74.5 -44.5q83 -63 131 -63q39 0 67.5 32.5t43.5 83.5zM625 -16q-142 -3 -263.5 67t-191.5 191.5t-68 263.5
q-1 108 39.5 207t111 170.5t168.5 113t206 39.5q142 3 262.5 -67.5t190 -192.5t67.5 -264q2 -143 -66.5 -265.5t-190 -194t-265.5 -68.5zM395 905q-101 -61 -157 -164.5t-56 -228.5t58 -229q57 -108 159 -168q103 -62 226 -62q189 0 317 131q125 131 125 324
q0 126 -57 229.5t-160 165.5t-227 62q-123 0 -228 -60z" />
    <glyph glyph-name="odieresis" unicode="&#xf6;" horiz-adv-x="1249" 
d="M426 1296q-23 23 -23 54.5t23 54.5q22 22 52 22t52 -22q22 -23 22 -54.5t-22 -54.5q-22 -22 -52 -22t-52 22zM725 1296q-22 23 -22 54.5t22 54.5q22 22 52 22t52 -22q23 -23 23 -54.5t-23 -54.5q-22 -22 -52 -22t-52 22zM625 -16q-142 -3 -263.5 67t-191.5 191.5
t-68 263.5q0 107 40 206.5t110 170.5t168 112t205 41q142 3 263 -67.5t190.5 -192.5t66.5 -264q3 -143 -65 -265.5t-189.5 -194t-265.5 -68.5zM850 903q-103 62 -227 62q-123 0 -228 -60q-101 -61 -157 -164.5t-56 -228.5q-3 -122 55 -228.5t162 -169.5t226 -61
q189 0 317 131q125 131 125 324q0 126 -57 229.5t-160 165.5z" />
    <glyph glyph-name="divide" unicode="&#xf7;" horiz-adv-x="1267" 
d="M715 1096q0 -34 -24 -58t-58 -24q-32 0 -56 24t-24 58q0 32 24 56t56 24q34 0 58 -24t24 -56zM172 682v68h924v-68h-924zM690 389q38 -35 16.5 -88.5t-73.5 -50.5q-32 0 -56 24t-24 58q0 33 23.5 56.5t56.5 23.5q37 0 57 -23z" />
    <glyph glyph-name="oslash" unicode="&#xf8;" horiz-adv-x="1253" 
d="M1149 1038l-145 -157q143 -152 143 -369q3 -143 -65 -265.5t-189.5 -194t-265.5 -68.5q-193 0 -330 114l-143 -159l-48 43l144 159q-144 147 -144 365q0 107 40 206.5t110 170.5q70 72 167.5 112.5t205.5 40.5q188 0 329 -114l146 159zM625 965q-122 2 -224.5 -59.5
t-159.5 -166t-55 -227.5q0 -182 115 -315l608 667q-122 101 -284 101zM629 53q187 0 315 131q127 133 127 324q0 185 -119 313l-606 -667q119 -101 283 -101z" />
    <glyph glyph-name="ugrave" unicode="&#xf9;" 
d="M344 1520h86l215 -328h-70zM571 -18q-190 0 -297 116q-108 117 -108 305v615h76v-598q0 -176 90 -273q90 -96 250 -96q148 0 254 109q104 107 104 272v586h74v-1018h-74v225q-44 -113 -141 -176q-101 -67 -228 -67z" />
    <glyph glyph-name="uacute" unicode="&#xfa;" 
d="M614 1192h-69l215 328h86zM571 -18q-190 0 -297 116q-108 117 -108 305v615h76v-598q0 -172 90 -273q93 -96 252 -96q148 0 254 109q102 108 102 272v586h74v-1018h-74v225q-41 -113 -141 -176q-101 -67 -228 -67z" />
    <glyph glyph-name="ucircumflex" unicode="&#xfb;" 
d="M547 1520h86l252 -328h-74l-221 270l-221 -270h-74zM571 -18q-190 0 -297 116q-108 117 -108 305v615h76v-598q0 -172 90 -273q93 -96 252 -96q148 0 254 109q102 108 102 272v586h74v-1018h-74v225q-41 -113 -141 -176q-101 -67 -228 -67z" />
    <glyph glyph-name="udieresis" unicode="&#xfc;" 
d="M389 1296q-23 23 -23 54.5t23 54.5q22 22 52.5 22t52.5 -22q22 -23 22 -54.5t-22 -54.5q-22 -22 -52.5 -22t-52.5 22zM688 1296q-22 23 -22 54.5t22 54.5q22 22 53 22t54 -22q22 -23 22 -54.5t-22 -54.5q-23 -22 -54 -22t-53 22zM571 -18q-190 0 -297 116
q-108 117 -108 305v615h76v-598q0 -176 90 -273q90 -96 250 -96q148 0 254 109q104 107 104 272v586h74v-1018h-74v225q-44 -113 -141 -176q-101 -67 -228 -67z" />
    <glyph glyph-name="yacute" unicode="&#xfd;" horiz-adv-x="1103" 
d="M575 1192h-67l215 328h86zM133 1018l434 -877l416 877h80l-721 -1520h-80l264 561l-477 959h84z" />
    <glyph glyph-name="thorn" unicode="&#xfe;" horiz-adv-x="1206" 
d="M633 -18q-91 0 -195 49q-115 58 -180 184v-633h-76v1970h76v-743q65 114 170 170q113 55 205 55q103 0 193.5 -44.5t150.5 -119.5q59 -72 91 -165.5t32 -192.5q0 -138 -54.5 -257.5t-163 -196t-249.5 -76.5zM629 963q-92 0 -168.5 -38.5t-124.5 -105.5q-98 -134 -98 -307
q0 -176 98 -313q47 -68 123.5 -108t169.5 -40q113 0 199 59t133 154q63 117 63 248q0 80 -25.5 158t-72.5 144.5t-124.5 107.5t-172.5 41z" />
    <glyph glyph-name="ydieresis" unicode="&#xff;" horiz-adv-x="1101" 
d="M356 1296q-22 23 -22 54.5t22 54.5q22 22 52.5 22t52.5 -22q22 -23 22 -54.5t-22 -54.5q-22 -22 -52.5 -22t-52.5 22zM655 1296q-22 23 -22 54.5t22 54.5q23 22 53.5 22t53.5 -22q22 -23 22 -54.5t-22 -54.5q-23 -22 -53.5 -22t-53.5 22zM133 1018l434 -877l416 877h80
l-723 -1520h-80l266 561l-477 959h84z" />
    <glyph glyph-name="Amacron" unicode="&#x100;" horiz-adv-x="1433" 
d="M397 1749h635v-70h-635v70zM14 0l660 1493h86l657 -1493h-84l-186 426h-864l-189 -426h-80zM1116 498l-403 909l-400 -909h803z" />
    <glyph glyph-name="amacron" unicode="&#x101;" horiz-adv-x="1077" 
d="M199 1292h637v-69h-637v69zM449 -18q-149 0 -244 77q-99 77 -99 213q0 74 35 132t94 91.5t127 50.5t142 17h332v72q0 155 -81.5 242.5t-230.5 87.5q-192 -3 -274 -129q-41 -57 -55 -134l-72 17q7 69 61 149q29 45 72 82q45 38 115.5 62t150.5 24q178 0 283 -102
q106 -106 106 -293v-287q0 -252 15 -354h-74q-7 29 -10 104q-6 79 -6 121q-59 -118 -162 -178q-106 -65 -225 -65zM838 496h-330q-121 0 -215 -47q-51 -27 -80 -72.5t-29 -102.5q0 -106 76 -161q72 -60 191 -60q158 -3 273 100.5t114 264.5v78z" />
    <glyph glyph-name="Abreve" unicode="&#x102;" horiz-adv-x="1433" 
d="M14 0l660 1493h86l657 -1493h-84l-186 426h-864l-189 -426h-80zM1116 498l-403 909l-400 -909h803zM940 1956h55q0 -145 -77 -225q-82 -82 -207 -82q-123 0 -205 82q-80 83 -80 225h55q6 -111 66 -174.5t164 -63.5t164 64t65 174z" />
    <glyph glyph-name="abreve" unicode="&#x103;" horiz-adv-x="1077" 
d="M449 -18q-149 0 -244 77q-99 77 -99 213q0 74 35 132t94 91.5t127 50.5t142 17h332v72q0 155 -81.5 242.5t-230.5 87.5q-192 -3 -274 -129q-41 -57 -55 -134l-72 17q7 69 61 149q29 45 72 82q45 38 115.5 62t150.5 24q178 0 283 -102q106 -106 106 -293v-287
q0 -252 15 -354h-74q-7 29 -10 104q-6 79 -6 121q-59 -118 -162 -178q-106 -65 -225 -65zM838 496h-330q-121 0 -215 -47q-51 -27 -80 -72.5t-29 -102.5q0 -106 76 -161q72 -60 191 -60q158 -3 273 100.5t114 264.5v78zM748 1497h55q0 -142 -78 -223q-79 -82 -207 -82
q-126 0 -205 82q-80 83 -80 223h56q6 -111 65.5 -174t163.5 -63q105 0 165 63.5t65 173.5z" />
    <glyph glyph-name="Aogonek" unicode="&#x104;" horiz-adv-x="1433" 
d="M1483 -393v-68q-40 -4 -56 -4q-103 0 -176 55q-71 59 -71 160q0 124 163 250h-10l-186 426h-864l-189 -426h-80l660 1493h86l657 -1493q-64 -48 -112 -111q-50 -62 -50 -120t33.5 -98t85.5 -54q53 -13 109 -10zM1116 498l-403 909l-400 -909h803z" />
    <glyph glyph-name="aogonek" unicode="&#x105;" horiz-adv-x="1077" 
d="M991 -393v-68q-40 -4 -55 -4q-103 0 -176 55q-72 60 -72 160q0 124 164 250q-7 29 -10 104q-6 79 -6 121q-59 -118 -162 -178q-106 -65 -225 -65q-149 0 -244 77q-99 77 -99 213q0 74 35 132t94 91.5t127 50.5t142 17h332v72q0 155 -81.5 242.5t-230.5 87.5
q-192 -3 -274 -129q-41 -57 -55 -134l-72 17q7 69 61 149q29 45 72 82q45 38 115.5 62t150.5 24q178 0 283 -102q106 -106 106 -293v-287q0 -252 15 -354q-66 -50 -113 -111q-49 -61 -49 -120q0 -58 33.5 -98t85.5 -54q53 -13 108 -10zM838 496h-330q-121 0 -215 -47
q-51 -27 -80 -72.5t-29 -102.5q0 -106 76 -161q72 -60 191 -60q158 -3 273 100.5t114 264.5v78z" />
    <glyph glyph-name="Cacute" unicode="&#x106;" horiz-adv-x="1605" 
d="M874 1628h-69l215 330h86zM1454 502l72 -27q-48 -143 -152 -260q-54 -60 -131 -117q-76 -53 -178.5 -83.5t-216.5 -30.5q-210 0 -379 102q-170 102 -264 274q-92 176 -92 385q0 157 55 297q53 135 151 244q102 105 236 162q137 61 295 61q217 0 385 -108q69 -46 131 -115
q106 -117 147 -264l-71 -27q-26 98 -103 203q-51 67 -110 117q-59 48 -164 88q-100 35 -217 35q-138 0 -262 -56t-209 -147q-86 -92 -134 -218.5t-48 -264.5q0 -139 47.5 -266.5t134.5 -223.5q86 -97 209.5 -152t263.5 -55q284 0 469 213q61 72 106 164q3 8 13.5 32.5
t15.5 37.5z" />
    <glyph glyph-name="cacute" unicode="&#x107;" horiz-adv-x="1177" 
d="M643 1192h-70l215 328h86zM614 -18q-137 -3 -256 68t-188.5 193t-67.5 263q0 146 70 268q69 122 186 191q116 71 258 71q166 0 299 -94q130 -93 168 -229l-69 -25q-10 43 -51.5 101t-104.5 104q-104 72 -244 72q-120 0 -221 -64q-100 -62 -155 -166q-56 -106 -56 -223
q0 -118 56 -222.5t155 -168.5q103 -68 223 -68q71 0 136 21t108 55q31 22 78 72q54 65 78 137l69 -25q-44 -132 -157 -225q-122 -106 -314 -106z" />
    <glyph glyph-name="Ccircumflex" unicode="&#x108;" horiz-adv-x="1605" 
d="M813 1958h84l252 -330h-74l-221 270l-221 -270h-74zM1454 502l72 -27q-48 -143 -152 -260q-54 -60 -131 -117q-76 -53 -178.5 -83.5t-216.5 -30.5q-210 0 -379 102q-170 102 -264 274q-92 176 -92 385q0 157 55 297q53 135 151 244q102 105 236 162q137 61 295 61
q217 0 385 -108q69 -46 131 -115q106 -117 147 -264l-71 -27q-26 98 -103 203q-51 67 -110 117q-59 48 -164 88q-100 35 -217 35q-138 0 -262 -56t-209 -147q-86 -92 -134 -218.5t-48 -264.5q0 -139 47.5 -266.5t134.5 -223.5q86 -97 209.5 -152t263.5 -55q284 0 469 213
q61 72 106 164q3 8 13.5 32.5t15.5 37.5z" />
    <glyph glyph-name="ccircumflex" unicode="&#x109;" horiz-adv-x="1177" 
d="M573 1520h84l254 -328h-73l-222 270l-221 -270h-73zM614 -18q-137 -3 -256 68t-188.5 193t-67.5 263q0 146 70 268q69 122 186 191q116 71 258 71q166 0 299 -94q130 -93 168 -229l-69 -25q-10 43 -51.5 101t-104.5 104q-104 72 -244 72q-120 0 -221 -64
q-100 -62 -155 -166q-56 -106 -56 -223q0 -118 56 -222.5t155 -168.5q103 -68 223 -68q71 0 136 21t108 55q31 22 78 72q54 65 78 137l69 -25q-44 -132 -157 -225q-122 -106 -314 -106z" />
    <glyph glyph-name="Cdotaccent" unicode="&#x10a;" horiz-adv-x="1605" 
d="M803 1737q-22 23 -22 54t22 54q22 22 52 22t52 -22q22 -23 22 -54t-22 -54q-22 -22 -52 -22t-52 22zM1454 502l72 -27q-48 -143 -152 -260q-54 -60 -131 -117q-76 -53 -178.5 -83.5t-216.5 -30.5q-210 0 -379 102q-170 102 -264 274q-92 176 -92 385q0 157 55 297
q53 135 151 244q102 105 236 162q137 61 295 61q217 0 385 -108q69 -46 131 -115q106 -117 147 -264l-71 -27q-26 98 -103 203q-51 67 -110 117q-59 48 -164 88q-100 35 -217 35q-138 0 -262 -56t-209 -147q-87 -93 -135.5 -219.5t-48.5 -263.5q0 -140 48.5 -267.5
t133.5 -222.5t209 -151t266 -56q284 0 469 213q61 72 106 164q3 8 13.5 32.5t15.5 37.5z" />
    <glyph glyph-name="cdotaccent" unicode="&#x10b;" horiz-adv-x="1177" 
d="M563 1296q-22 23 -22 54.5t22 54.5q23 22 53 22t52 -22q22 -23 22 -54.5t-22 -54.5q-22 -22 -52 -22t-53 22zM614 -18q-137 -3 -256 68t-188.5 193t-67.5 263q0 146 70 268q69 122 186 191q116 71 258 71q166 0 299 -94q130 -93 168 -229l-69 -25q-10 43 -51.5 101
t-104.5 104q-104 72 -244 72q-120 0 -221 -64q-100 -62 -155 -166q-56 -106 -56 -223q0 -118 56 -222.5t155 -168.5q103 -68 223 -68q71 0 136 21t108 55q31 22 78 72q54 65 78 137l69 -25q-44 -132 -157 -225q-122 -106 -314 -106z" />
    <glyph glyph-name="Ccaron" unicode="&#x10c;" horiz-adv-x="1605" 
d="M633 1958l221 -270l221 270h74l-254 -330h-84l-254 330h76zM1454 502l72 -27q-48 -143 -152 -260q-54 -60 -131 -117q-76 -53 -178.5 -83.5t-216.5 -30.5q-210 0 -379 102q-170 102 -264 274q-92 176 -92 385q0 157 55 297q53 135 151 244q102 105 236 162q137 61 295 61
q217 0 385 -108q69 -46 131 -115q106 -117 147 -264l-71 -27q-26 98 -103 203q-51 67 -110 117q-59 48 -164 88q-100 35 -217 35q-138 0 -262 -56t-209 -147q-86 -92 -134 -218.5t-48 -264.5q0 -139 47.5 -266.5t134.5 -223.5q86 -97 209.5 -152t263.5 -55q284 0 469 213
q61 72 106 164q3 8 13.5 32.5t15.5 37.5z" />
    <glyph glyph-name="ccaron" unicode="&#x10d;" horiz-adv-x="1175" 
d="M397 1501l221 -270l222 270h73l-254 -327h-84l-251 327h73zM614 -18q-104 0 -198.5 40.5t-163.5 110.5q-69 72 -109.5 170t-40.5 203q0 146 70 268q69 122 186 191q113 71 258 71q163 0 299 -94q127 -93 168 -229l-69 -25q-10 43 -51.5 101t-104.5 104q-104 72 -244 72
q-123 0 -221 -64q-99 -60 -155 -166t-56 -223q0 -119 55.5 -223t155.5 -168q103 -68 223 -68q143 0 244 76q36 25 76 72q59 72 78 137l71 -25q-49 -135 -157 -225q-125 -106 -314 -106z" />
    <glyph glyph-name="Dcaron" unicode="&#x10e;" horiz-adv-x="1529" 
d="M414 1948l221 -269l221 269h74l-254 -328h-82l-256 328h76zM621 0h-400v1493h400q168 0 316 -56t255 -157q107 -100 167 -238.5t60 -296.5q0 -163 -61 -303q-60 -138 -168 -237q-107 -98 -254 -151.5t-315 -53.5zM621 1421h-320v-1349h322q202 0 366 86q167 87 256 239
q94 152 94 346q0 142 -54.5 269.5t-149.5 218.5q-98 90 -231.5 140t-282.5 50z" />
    <glyph glyph-name="dcaron" unicode="&#x10f;" horiz-adv-x="1318" 
d="M1303 1174h-54l29 380h90zM1026 0v279q-50 -127 -166 -211q-119 -84 -262 -84q-108 0 -202.5 42.5t-157.5 116.5q-64 73 -99 168.5t-35 198.5q0 141 62 262q61 119 176 193q115 71 256 71q149 0 262 -82q114 -82 166 -209v807h74v-1552h-74zM602 57q123 0 221 64
q102 61 154 166q53 103 53 221v4q0 119 -52.5 220.5t-150.5 166.5q-101 64 -225 64q-188 0 -303 -127q-117 -129 -117 -322v-2q-5 -189 115.5 -323.5t304.5 -131.5z" />
    <glyph glyph-name="Dcroat" unicode="&#x110;" horiz-adv-x="1527" 
d="M66 799h157v694h398q167 0 315.5 -56t255.5 -157q106 -100 165.5 -239t59.5 -296q0 -161 -59 -303q-58 -134 -168 -237q-107 -98 -254.5 -151.5t-314.5 -53.5h-398v725h-157v74zM819 725h-518v-653h322q202 0 366 86q163 85 256 239q92 154 92 346q0 195 -92 349
q-93 154 -258 243q-167 86 -366 86h-320v-622h518v-74z" />
    <glyph glyph-name="dslash" unicode="&#x111;" horiz-adv-x="1282" 
d="M1223 1251h-121v-1251h-76v279q-50 -127 -166 -211q-119 -84 -262 -84q-108 0 -202.5 42.5t-157.5 116.5q-64 73 -99 168.5t-35 198.5q0 105 36.5 201.5t101.5 169.5q66 72 159 113.5t197 41.5q149 0 262 -82q113 -79 166 -209v506h-416v70h416v231h76v-231h121v-70z
M602 57q122 0 223 64q100 62 152 166q53 97 53 221v4q0 179 -115 313q-56 64 -138.5 101t-174.5 37q-188 0 -303 -127q-117 -129 -117 -322v-2q0 -192 117 -324q116 -131 303 -131z" />
    <glyph glyph-name="Emacron" unicode="&#x112;" horiz-adv-x="1245" 
d="M356 1749h637v-70h-637v70zM1118 1421h-817v-622h752v-74h-752v-653h825v-72h-905v1493h897v-72z" />
    <glyph glyph-name="emacron" unicode="&#x113;" horiz-adv-x="1157" 
d="M274 1292h635v-69h-635v69zM1059 496h-877q2 -118 56 -218t151 -161q101 -64 223 -64q137 0 238 78q97 75 135 191l70 -21q-47 -143 -164 -229q-119 -88 -283 -88q-142 0 -260 71q-113 68 -180 193q-66 123 -66 262v4q0 99 38 195.5t104 169.5q66 72 158.5 114.5
t191.5 42.5q118 0 210.5 -43.5t147.5 -120.5q107 -149 107 -360q3 -10 0 -16zM182 563h799q-3 58 -17 112.5t-44 108t-73.5 93t-109.5 64t-147 24.5q-105 0 -197 -56q-92 -57 -149 -151q-56 -93 -62 -195z" />
    <glyph glyph-name="Edotaccent" unicode="&#x116;" horiz-adv-x="1245" 
d="M623 1737q-22 23 -22 54t22 54q22 22 51.5 22t52.5 -22q22 -23 22 -54t-22 -54q-23 -22 -52.5 -22t-51.5 22zM1118 1421h-817v-622h752v-74h-752v-653h825v-72h-905v1493h897v-72z" />
    <glyph glyph-name="edotaccent" unicode="&#x117;" horiz-adv-x="1157" 
d="M541 1296q-22 23 -22 54.5t22 54.5q22 22 51.5 22t52.5 -22q22 -23 22 -54.5t-22 -54.5q-23 -22 -52.5 -22t-51.5 22zM1059 496h-877q2 -118 56 -218t151 -161q101 -64 223 -64q137 0 238 78q97 75 135 191l70 -21q-47 -143 -164 -229q-119 -88 -283 -88q-142 0 -260 71
q-113 68 -180 193q-66 123 -66 262v4q0 99 38 195.5t104 169.5q66 72 158.5 114.5t191.5 42.5q118 0 210.5 -43.5t147.5 -120.5q107 -149 107 -360q3 -10 0 -16zM182 563h799q-3 58 -17 112.5t-44 108t-73.5 93t-109.5 64t-147 24.5q-105 0 -197 -56q-92 -57 -149 -151
q-56 -93 -62 -195z" />
    <glyph glyph-name="Eogonek" unicode="&#x118;" horiz-adv-x="1245" 
d="M1192 -393l-2 -68q-36 -4 -53 -4q-106 0 -176 55q-72 57 -72 160q0 129 164 250h-832v1493h895v-72h-815v-622h752v-74h-752v-653h825v-72q-64 -48 -112 -111q-49 -61 -49 -120q0 -58 33 -98t85 -54q53 -13 109 -10z" />
    <glyph glyph-name="eogonek" unicode="&#x119;" horiz-adv-x="1157" 
d="M805 -393v-68q-36 -4 -53 -4q-106 0 -179 55q-71 59 -71 160q0 116 145 234h-39q-142 0 -260 71q-113 68 -180 193q-66 123 -66 262v4q0 99 38 195.5t104 169.5q66 72 158.5 114.5t191.5 42.5q118 0 210.5 -43.5t147.5 -120.5q107 -149 107 -360q3 -10 0 -16h-877
q2 -118 56 -218t151 -161q101 -64 223 -64q137 0 238 78q97 75 135 191l70 -21q-34 -110 -117 -190q-85 -82 -199 -111q-59 -45 -110 -111q-49 -61 -49 -120q0 -62 34 -99q62 -70 191 -63zM182 563h799q-3 58 -17 112.5t-44 108t-73.5 93t-109.5 64t-147 24.5
q-105 0 -197 -56q-92 -57 -149 -151q-56 -93 -62 -195z" />
    <glyph glyph-name="Ecaron" unicode="&#x11a;" horiz-adv-x="1245" 
d="M453 1958l223 -270l221 270h74l-254 -330h-84l-254 330h74zM301 799h752v-74h-752v-653h825v-72h-905v1493h897v-72h-817v-622z" />
    <glyph glyph-name="ecaron" unicode="&#x11b;" horiz-adv-x="1157" 
d="M373 1501l221 -270l223 270h74l-254 -327h-84l-254 327h74zM1059 496h-877q2 -118 56 -218t151 -161q101 -64 223 -64q137 0 238 78q97 75 135 191l70 -21q-47 -143 -164 -229q-119 -88 -283 -88q-142 0 -260 71q-113 68 -180 193q-66 123 -66 262v4q0 99 38 195.5
t104 169.5q66 72 158.5 114.5t191.5 42.5q118 0 210.5 -43.5t147.5 -120.5q107 -149 107 -360q3 -10 0 -16zM182 563h799q-3 58 -17 112.5t-44 108t-73.5 93t-109.5 64t-147 24.5q-105 0 -197 -56q-92 -57 -149 -151q-56 -93 -62 -195z" />
    <glyph glyph-name="Gcircumflex" unicode="&#x11c;" horiz-adv-x="1632" 
d="M809 1958h84l254 -330h-74l-223 270l-221 -270h-74zM1532 696v-73q0 -132 -49.5 -249t-139.5 -204q-91 -88 -220 -137t-277 -49q-210 0 -381 100q-171 103 -260 274q-92 173 -92 387q0 155 53.5 295.5t150.5 243.5q90 103 234 164q137 61 299 61q107 0 206 -28t173 -76
q74 -45 133 -107q113 -116 141 -251l-73 -25q-11 71 -72 158t-154 153q-68 47 -161 76t-193 29q-144 0 -267.5 -53.5t-209.5 -149.5q-85 -95 -132.5 -220.5t-47.5 -262.5q0 -144 47.5 -272.5t132.5 -221.5q86 -96 209.5 -149.5t267.5 -53.5q121 0 230.5 40t192.5 111.5
t132 178.5t49 233v7h-690v71h768z" />
    <glyph glyph-name="gcircumflex" unicode="&#x11d;" horiz-adv-x="1280" 
d="M561 1520h84l252 -328h-74l-221 270l-221 -270h-74zM596 -436q196 0 311 127q117 126 117 348v248q-51 -126 -166 -209q-116 -82 -262 -82t-258 74q-114 71 -174 187.5t-60 258.5q0 143 61.5 261t174.5 188q110 71 256 71q143 0 262 -78q114 -82 166 -206v266h76v-977
q0 -132 -39 -238.5t-109 -173.5q-142 -139 -352 -139q-181 0 -313 100q-134 99 -181 258l72 25q12 -51 44 -102.5t82 -99t126.5 -77.5t165.5 -30zM596 70q125 0 223 61q102 63 152 164q53 103 53 219v6q0 117 -52.5 217t-150.5 164q-100 62 -225 62q-186 0 -299 -125
q-117 -126 -117 -320v-2q0 -193 117 -319q115 -127 299 -127z" />
    <glyph glyph-name="Gbreve" unicode="&#x11e;" horiz-adv-x="1632" 
d="M1532 696v-73q0 -132 -49.5 -249t-139.5 -204q-91 -88 -220 -137t-277 -49q-210 0 -381 100q-171 103 -260 274q-92 173 -92 387q0 155 53.5 295.5t150.5 243.5q90 103 234 164q137 61 299 61q107 0 206 -28t173 -76q74 -45 133 -107q113 -116 141 -251l-73 -25
q-11 71 -72 158t-154 153q-68 47 -161 76t-193 29q-144 0 -267.5 -53.5t-209.5 -149.5q-85 -95 -132.5 -220.5t-47.5 -262.5q0 -144 47.5 -272.5t132.5 -221.5q86 -96 209.5 -149.5t267.5 -53.5q121 0 230.5 40t192.5 111.5t132 178.5t49 233v7h-690v71h768zM1079 1956h58
q0 -142 -80 -225q-82 -82 -207 -82q-123 0 -205 82q-80 83 -80 225h56q6 -111 65.5 -174.5t163.5 -63.5q106 0 165 63.5t64 174.5z" />
    <glyph glyph-name="gbreve" unicode="&#x11f;" horiz-adv-x="1280" 
d="M596 -436q196 0 311 127q117 126 117 348v248q-51 -126 -166 -209q-116 -82 -262 -82t-258 74q-114 71 -174 187.5t-60 258.5q0 143 61.5 261t174.5 188q110 71 256 71q143 0 262 -78q114 -82 166 -206v266h76v-977q0 -132 -39 -238.5t-109 -173.5q-142 -139 -352 -139
q-181 0 -313 100q-134 99 -181 258l72 25q12 -51 44 -102.5t82 -99t126.5 -77.5t165.5 -30zM596 70q125 0 223 61q102 63 152 164q53 103 53 219v6q0 117 -52.5 217t-150.5 164q-100 62 -225 62q-186 0 -299 -125q-117 -126 -117 -320v-2q0 -193 117 -319q115 -127 299 -127
zM831 1497h56q0 -139 -78 -223q-79 -82 -207 -82q-126 0 -205 82q-80 83 -80 223h56q5 -110 64.5 -173.5t164.5 -63.5t164.5 63.5t64.5 173.5z" />
    <glyph glyph-name="Gdotaccent" unicode="&#x120;" horiz-adv-x="1630" 
d="M795 1737q-22 23 -22 54t22 54q22 22 52 22t52 -22q22 -23 22 -54t-22 -54q-22 -22 -52 -22t-52 22zM1530 696v-73q0 -132 -49.5 -249t-139.5 -204q-91 -88 -220 -137t-277 -49q-210 0 -381 100q-169 104 -258 274q-92 173 -92 387q0 154 53 295t149 244q94 105 234 164
q137 61 301 61q105 0 204.5 -28t174.5 -76q73 -46 131 -107q113 -116 141 -251l-74 -25q-11 71 -71.5 158.5t-153.5 152.5q-68 47 -161 76t-193 29q-143 0 -266.5 -54t-208.5 -149t-132.5 -220.5t-47.5 -262.5q0 -197 81 -353q80 -158 230 -249q151 -95 344 -95
q121 0 230.5 40t192.5 111.5t132 178.5t49 233v7h-690v71h768z" />
    <glyph glyph-name="gdotaccent" unicode="&#x121;" horiz-adv-x="1280" 
d="M569 1296q-22 23 -22 54.5t22 54.5q22 22 52.5 22t52.5 -22q22 -23 22 -54.5t-22 -54.5q-22 -22 -52.5 -22t-52.5 22zM596 -436q194 0 309 127q119 128 119 348v248q-50 -124 -168 -209q-113 -82 -260 -82q-145 0 -260 74q-113 71 -172.5 188t-59.5 258q0 144 60.5 261.5
t173.5 187.5q110 71 258 71q144 0 260 -78q112 -78 168 -206v266h74v-977q0 -132 -39 -238.5t-109 -173.5q-142 -139 -350 -139q-181 0 -313 100q-134 99 -181 258l70 25q12 -51 44.5 -102.5t82.5 -99t127 -77.5t166 -30zM600 70q123 0 221 61q100 60 152 164q53 97 53 219
v6q0 118 -51.5 218t-149.5 163q-103 62 -225 62q-185 0 -301 -125q-117 -126 -117 -320v-2q0 -193 117 -319q118 -127 301 -127z" />
    <glyph glyph-name="Gcommaaccent" unicode="&#x122;" horiz-adv-x="1630" 
d="M1530 696v-73q0 -132 -49.5 -249t-139.5 -204q-91 -88 -220 -137t-277 -49q-210 0 -381 100q-169 104 -258 274q-92 173 -92 387q0 154 53 295t149 244q94 105 234 164q137 61 301 61q105 0 204.5 -28t174.5 -76q73 -46 131 -107q113 -116 141 -251l-74 -25
q-11 71 -71.5 158.5t-153.5 152.5q-68 47 -161 76t-193 29q-143 0 -266.5 -54t-208.5 -149t-132.5 -220.5t-47.5 -262.5q0 -197 81 -353q80 -158 230 -249q151 -95 344 -95q121 0 230.5 40t192.5 111.5t132 178.5t49 233v7h-690v71h768zM764 -508v47q36 18 63 50.5t37 64.5
q8 27 8 63q-21 -14 -43 -14q-31 0 -51 19.5t-20 48.5q0 31 21 51t52 20q43 0 66 -31t23 -83q0 -73 -39 -138q-44 -68 -117 -98z" />
    <glyph glyph-name="gcommaaccent" unicode="&#x123;" horiz-adv-x="1280" 
d="M707 1550v-47q-38 -20 -65.5 -52.5t-35.5 -64.5q-10 -33 -10 -61q18 12 45 12q30 0 50 -18.5t20 -48.5q0 -29 -21.5 -49.5t-52.5 -20.5q-42 0 -65 31t-23 82q0 68 41 139q41 68 117 98zM596 -436q194 0 309 127q119 128 119 348v248q-50 -124 -168 -209
q-113 -82 -260 -82q-145 0 -260 74q-113 71 -172.5 188t-59.5 258q0 144 60.5 261.5t173.5 187.5q110 71 258 71q144 0 260 -78q112 -78 168 -206v266h74v-977q0 -132 -39 -238.5t-109 -173.5q-142 -139 -350 -139q-181 0 -313 100q-134 99 -181 258l70 25
q12 -51 44.5 -102.5t82.5 -99t127 -77.5t166 -30zM600 70q123 0 221 61q100 60 152 164q53 97 53 219v6q0 118 -51.5 218t-149.5 163q-103 62 -225 62q-185 0 -301 -125q-117 -126 -117 -320v-2q0 -193 117 -319q118 -127 301 -127z" />
    <glyph glyph-name="Hbar" unicode="&#x126;" horiz-adv-x="1572" 
d="M223 0v1126h-155v70h155v297h78v-297h969v297h80v-297h155v-70h-155v-1126h-80v725h-969v-725h-78zM301 1126v-327h969v327h-969z" />
    <glyph glyph-name="hbar" unicode="&#x127;" 
d="M954 0v598q0 171 -90 272q-92 95 -250 95q-150 0 -254 -107t-104 -274v-584h-74v1251h-151v70h151v233h74v-233h389v-70h-389v-458q41 112 141 178q103 65 228 65q190 0 297 -116q106 -118 106 -308v-612h-74z" />
    <glyph glyph-name="Itilde" unicode="&#x128;" horiz-adv-x="522" 
d="M301 1493v-1493h-80v1493h80zM524 1812l49 -18q-19 -71 -57 -115q-40 -49 -102 -49q-67 0 -148 64q-78 63 -137 63q-83 0 -121 -115l-55 23q56 160 170 160q38 0 81.5 -18.5t76.5 -45.5q79 -63 129 -63q71 0 114 114z" />
    <glyph glyph-name="itilde" unicode="&#x129;" horiz-adv-x="440" 
d="M182 1018h76v-1018h-76v1018zM479 1374l49 -16q-18 -69 -57 -117q-38 -47 -102 -47q-35 0 -76 18.5t-72 44.5q-82 62 -137 62q-83 0 -121 -115l-55 25q56 160 172 160q71 0 156 -64q81 -65 129 -65q71 0 114 114z" />
    <glyph glyph-name="Imacron" unicode="&#x12a;" horiz-adv-x="522" 
d="M4 1749h514v-70h-514v70zM221 0v1493h80v-1493h-80z" />
    <glyph glyph-name="imacron" unicode="&#x12b;" horiz-adv-x="440" 
d="M-35 1292h506v-69h-506v69zM258 0h-76v1018h76v-1018z" />
    <glyph glyph-name="Ibreve" unicode="&#x12c;" horiz-adv-x="522" 
d="M221 0v1493h80v-1493h-80zM489 1956h56q0 -144 -78 -225q-82 -82 -207 -82q-123 0 -205 82q-80 83 -80 225h56q6 -111 65.5 -174.5t163.5 -63.5t164 64t65 174z" />
    <glyph glyph-name="ibreve" unicode="&#x12d;" horiz-adv-x="440" 
d="M260 0h-78v1018h78v-1018zM449 1497h55q0 -142 -78 -223q-79 -82 -207 -82q-126 0 -205 82q-80 80 -80 223h56q6 -111 65.5 -174t163.5 -63q105 0 165 63.5t65 173.5z" />
    <glyph glyph-name="Iogonek" unicode="&#x12e;" horiz-adv-x="522" 
d="M344 -492q-103 0 -174 56q-72 57 -72 157q0 122 148 279h-25v1493h80v-1493q-129 -153 -129 -272q0 -70 53 -111t125 -41q62 0 127 16v-65q-71 -19 -133 -19z" />
    <glyph glyph-name="iogonek" unicode="&#x12f;" horiz-adv-x="438" 
d="M168 1317q-23 22 -23 53t23 53q22 23 52 23t52 -23q22 -22 22 -53t-22 -53q-22 -23 -52 -23t-52 23zM322 -393v-68q-40 -4 -56 -4q-104 0 -174 55q-74 59 -74 160q0 124 166 250h-2v1018h74v-1018q-66 -50 -113 -111q-49 -65 -49 -120q0 -58 34 -98t87 -54
q50 -13 107 -10z" />
    <glyph glyph-name="Idot" unicode="&#x130;" horiz-adv-x="522" 
d="M209 1737q-22 23 -22 54t22 54q22 22 52 22t52 -22q22 -23 22 -54t-22 -54q-22 -22 -52 -22t-52 22zM221 0v1493h80v-1493h-80z" />
    <glyph glyph-name="dotlessi" unicode="&#x131;" horiz-adv-x="440" 
d="M258 0h-76v1018h76v-1018z" />
    <glyph glyph-name="IJ" unicode="&#x132;" horiz-adv-x="1290" 
d="M647 -16q-214 0 -330 122q-116 119 -116 336v80h80v-73q0 -202 108 -299q106 -95 254 -95q162 0 264 111q99 108 99 274v1053h79v-1047q0 -204 -120 -333t-318 -129zM201 1493h80v-739h-80v739z" />
    <glyph glyph-name="Kcommaaccent" unicode="&#x136;" horiz-adv-x="1234" 
d="M221 1493h80v-694h8l770 694h115l-797 -711l840 -782h-115l-813 758h-8v-758h-80v1493zM573 -508v47q38 18 65.5 50.5t37.5 64.5q8 40 8 63q-21 -14 -45 -14q-29 0 -49.5 19.5t-20.5 48.5q0 30 21.5 50.5t52.5 20.5q42 0 65 -31t23 -83q0 -70 -41 -138t-117 -98z" />
    <glyph glyph-name="kcommaaccent" unicode="&#x137;" horiz-adv-x="966" 
d="M340 557l616 -557h-108l-588 537h-4v-537h-74v1552h74v-977h4l557 443h113zM432 -508v47q36 18 63 50.5t37 64.5q8 26 11 63q-21 -14 -45 -14q-31 0 -51.5 19.5t-20.5 48.5q0 30 22 50.5t52 20.5q43 0 65.5 -30.5t22.5 -83.5q0 -73 -39 -138q-40 -67 -117 -98z" />
    <glyph glyph-name="Lacute" unicode="&#x139;" horiz-adv-x="1099" 
d="M295 1628h-70l215 330h86zM299 72h745v-72h-823v1493h78v-1421z" />
    <glyph glyph-name="lacute" unicode="&#x13a;" horiz-adv-x="440" 
d="M250 1683h-70l217 330h84zM182 0v1552h76v-1552h-76z" />
    <glyph glyph-name="Lcommaaccent" unicode="&#x13b;" horiz-adv-x="1099" 
d="M299 72h745v-72h-823v1493h78v-1421zM555 -508v47q54 26 81.5 74.5t29.5 103.5q-18 -14 -43 -14q-31 0 -51.5 19.5t-20.5 48.5q0 30 21.5 50.5t52.5 20.5q43 0 65.5 -30.5t22.5 -83.5q0 -73 -39 -138q-44 -69 -119 -98z" />
    <glyph glyph-name="lcommaaccent" unicode="&#x13c;" horiz-adv-x="438" 
d="M182 0v1552h74v-1552h-74zM137 -508v47q103 50 111 178q-21 -14 -45 -14q-30 0 -51 19.5t-21 48.5q0 30 21.5 50.5t52.5 20.5q43 0 66.5 -31t23.5 -83q0 -70 -41 -138t-117 -98z" />
    <glyph glyph-name="Lcaron" unicode="&#x13d;" horiz-adv-x="1110" 
d="M881 1145h-54l27 381h92zM299 72h745v-72h-823v1493h78v-1421z" />
    <glyph glyph-name="lcaron" unicode="&#x13e;" horiz-adv-x="475" 
d="M461 1174h-55l28 380h90zM182 0v1552h74v-1552h-74z" />
    <glyph glyph-name="Ldot" unicode="&#x13f;" horiz-adv-x="1132" 
d="M299 72h745v-72h-823v1493h78v-1421zM920 666q-22 22 -22 53t22 53q22 23 52 23t52 -23q22 -22 22 -53t-22 -53q-22 -23 -52 -23t-52 23z" />
    <glyph glyph-name="ldot" unicode="&#x140;" horiz-adv-x="610" 
d="M182 0v1552h74v-1552h-74zM465 666q-22 22 -22 53t22 53q22 23 52 23t52 -23q22 -22 22 -53t-22 -53q-22 -23 -52 -23t-52 23z" />
    <glyph glyph-name="Lslash" unicode="&#x141;" horiz-adv-x="1122" 
d="M39 635l203 92v766h77v-731l469 211v-80l-469 -209v-612h746v-72h-823v647l-203 -90v78z" />
    <glyph glyph-name="lslash" unicode="&#x142;" horiz-adv-x="583" 
d="M258 829v723h76v-684l194 97v-82l-194 -95v-788h-76v750l-195 -95v80z" />
    <glyph glyph-name="Nacute" unicode="&#x143;" horiz-adv-x="1624" 
d="M842 1628h-68l215 330h86zM221 1493h96l1006 -1380v1380h80v-1493h-90l-1012 1386v-1386h-80v1493z" />
    <glyph glyph-name="nacute" unicode="&#x144;" horiz-adv-x="1200" 
d="M637 1192h-68l215 328h86zM629 1036q190 0 297 -116q108 -120 108 -308v-612h-76v598q0 175 -90 272q-89 95 -250 95q-152 0 -256 -107q-106 -109 -106 -274v-584h-74v1018h74v-225q43 111 145 178q103 65 228 65z" />
    <glyph glyph-name="Ncommaaccent" unicode="&#x145;" horiz-adv-x="1622" 
d="M221 1493h94l1008 -1380v1380h78v-1493h-90l-1012 1386v-1386h-78v1493zM723 -508v47q37 18 63.5 50.5t36.5 64.5q8 26 11 63q-21 -14 -46 -14q-31 0 -51 19.5t-20 48.5q0 30 22 50.5t52 20.5q43 0 66.5 -31t23.5 -83q0 -70 -41 -138t-117 -98z" />
    <glyph glyph-name="ncommaaccent" unicode="&#x146;" 
d="M625 1036q190 0 297 -116q106 -118 106 -308v-612h-74v598q0 171 -90 272q-92 95 -250 95q-150 0 -254 -107t-104 -274v-584h-74v1018h74v-225q41 112 141 178q103 65 228 65zM524 -508v47q54 26 81.5 74.5t29.5 103.5q-17 -14 -43 -14q-31 0 -51.5 19.5t-20.5 48.5
q0 30 21.5 50.5t52.5 20.5q43 0 65.5 -30.5t22.5 -83.5q0 -73 -39 -138q-44 -69 -119 -98z" />
    <glyph glyph-name="Ncaron" unicode="&#x147;" horiz-adv-x="1626" 
d="M618 1939l222 -270l223 270h74l-254 -329h-84l-254 329h73zM221 1493h96l1008 -1380v1380h78v-1493h-88l-1012 1386v-1386h-82v1493z" />
    <glyph glyph-name="ncaron" unicode="&#x148;" 
d="M379 1501l221 -270l221 270h74l-254 -327h-84l-252 327h74zM625 1036q190 0 297 -116q106 -118 106 -308v-612h-74v598q0 171 -90 272q-92 95 -250 95q-150 0 -254 -107t-104 -274v-584h-74v1018h74v-225q41 112 141 178q103 65 228 65z" />
    <glyph glyph-name="Eng" unicode="&#x14a;" horiz-adv-x="1622" 
d="M1323 0l-1024 1389v-1389h-78v1493h94l1008 -1370v1370h78v-1731q0 -141 -61.5 -205.5t-202.5 -64.5q-28 0 -86 8v72q44 -8 82 -8q108 0 149 47q41 44 41 160v229z" />
    <glyph glyph-name="eng" unicode="&#x14b;" 
d="M954 -229v827q0 171 -90 272q-92 95 -250 95q-150 0 -254 -107t-104 -274v-584h-74v1018h74v-225q41 112 141 178q103 65 228 65q190 0 297 -116q106 -118 106 -308v-850q0 -141 -57 -204q-63 -66 -203 -66q-28 0 -86 8v72q44 -8 82 -8q108 0 149 47q41 44 41 160z" />
    <glyph glyph-name="Omacron" unicode="&#x14c;" horiz-adv-x="1691" 
d="M526 1749h635v-70h-635v70zM846 -16q-210 0 -379 102q-172 104 -262 276q-92 176 -92 383q0 155 53 297q53 135 151 244q96 103 234 162q137 61 297 61q210 0 379 -102q168 -101 260 -277q94 -175 94 -382q0 -208 -94 -383q-91 -174 -262 -277q-168 -104 -379 -104z
M846 1438q-140 0 -264 -56q-126 -57 -207 -147q-86 -95 -134 -221t-48 -262q0 -139 48 -266t134 -224q84 -92 209 -149q122 -58 266 -58q180 0 336 95q147 92 231 249q82 155 82 344q0 138 -47 265t-133 223q-82 91 -209 151q-124 56 -264 56z" />
    <glyph glyph-name="omacron" unicode="&#x14d;" horiz-adv-x="1251" 
d="M307 1292h637v-69h-637v69zM627 -16q-142 -3 -264 67t-192.5 191.5t-68.5 263.5q-1 108 40 207t111 170.5t169 113t207 39.5q145 0 264.5 -69t187.5 -189.5t68 -265.5q3 -143 -65.5 -265.5t-190.5 -194t-266 -68.5zM625 965q-190 0 -318 -131q-125 -131 -125 -322
q0 -190 127 -326q130 -133 320 -133q187 0 315 131q127 133 127 324q3 188 -128 324.5t-318 132.5z" />
    <glyph glyph-name="Ohungarumlaut" unicode="&#x150;" horiz-adv-x="1691" 
d="M735 1628h-69l215 330h86zM1010 1628h-70l215 330h84zM846 -16q-210 0 -379 102q-172 104 -262 276q-92 176 -92 383q0 155 53 297q53 135 151 244q96 103 234 162q137 61 297 61q210 0 379 -102q168 -101 260 -277q94 -175 94 -382q0 -208 -94 -383q-91 -174 -262 -277
q-168 -104 -379 -104zM846 1438q-140 0 -264 -56q-126 -57 -207 -147q-86 -95 -134 -221t-48 -262q0 -139 48 -266t134 -224q84 -92 209 -149q122 -58 266 -58q180 0 336 95q147 92 231 249q82 155 82 344q0 138 -47 265t-133 223q-82 91 -209 151q-124 56 -264 56z" />
    <glyph glyph-name="ohungarumlaut" unicode="&#x151;" horiz-adv-x="1249" 
d="M514 1192h-68l213 328h86zM788 1192h-69l215 328h86zM625 -16q-142 -3 -263.5 67t-191.5 191.5t-68 263.5q0 107 40 206.5t110 170.5t168 112t205 41q142 3 263 -67.5t190.5 -192.5t66.5 -264q3 -143 -65 -265.5t-189.5 -194t-265.5 -68.5zM850 903q-103 62 -227 62
q-123 0 -228 -60q-101 -61 -157 -164.5t-56 -228.5q-3 -122 55 -228.5t162 -169.5t226 -61q189 0 317 131q125 131 125 324q0 126 -57 229.5t-160 165.5z" />
    <glyph glyph-name="OE" unicode="&#x152;" horiz-adv-x="2516" 
d="M846 -14q-210 0 -379 102q-171 103 -262 274q-92 176 -92 383q0 154 54 294.5t150 244.5q94 102 234 164q139 59 297 59q222 0 399 -121q175 -125 244 -329h2v436h895v-72h-817v-622h753v-74h-753v-653h827v-72h-905v430h-2q-72 -202 -242 -321q-173 -123 -403 -123z
M850 57q138 0 262 56q120 54 207 147q86 93 134 217.5t48 259.5v11q0 135 -48 260.5t-134 220.5q-82 91 -209 151q-124 56 -264 56q-137 0 -264 -54q-126 -57 -207 -147q-86 -95 -134 -221t-48 -262q0 -140 47.5 -267t134.5 -223q88 -96 211.5 -150.5t263.5 -54.5z" />
    <glyph glyph-name="oe" unicode="&#x153;" horiz-adv-x="2113" 
d="M625 -16q-222 0 -371 149q-152 155 -152 373q0 107 40 206.5t110 170.5q70 72 168 112.5t207 40.5q164 0 297 -94q128 -94 178 -252q43 147 168 248q122 98 278 98q98 0 177.5 -29t132.5 -78.5t89 -117.5t52 -142.5t16 -156.5v-16h-878q2 -118 55.5 -218t150.5 -161
q101 -64 224 -64q136 0 237 78q97 75 135 191l68 -21q-44 -142 -162 -229q-116 -88 -282 -88q-163 0 -291 98q-126 99 -170 250q-48 -159 -178 -250q-131 -98 -299 -98zM399 115q103 -62 228 -62q124 0 227 62q101 60 157 162t56 225v10q3 120 -55.5 225.5t-162.5 168
t-226 59.5q-123 2 -225.5 -59.5t-159.5 -166t-54 -227.5q0 -123 56 -229q61 -109 159 -168zM1137 563l800 2q-11 201 -135 314q-46 39 -113.5 62.5t-144.5 23.5q-104 0 -196 -56q-94 -58 -150 -151q-55 -91 -61 -195z" />
    <glyph glyph-name="Racute" unicode="&#x154;" horiz-adv-x="1333" 
d="M889 1958l-232 -330h-69l215 330h86zM301 0h-80v1493h447q339 0 467 -184q73 -105 73 -242q0 -173 -116 -289q-119 -113 -340 -137l501 -641h-100l-496 633h-356v-633zM301 707h348q102 -1 184.5 20t136.5 56t90.5 82t52 97t15.5 103q0 54 -13.5 103t-47 96t-85 81
t-133 55t-185.5 21h-363v-714z" />
    <glyph glyph-name="racute" unicode="&#x155;" horiz-adv-x="673" 
d="M365 1192h-70l215 328h86zM635 1032q1 0 7.5 -1t12.5 -1v-76q-2 0 -8 1t-8 1q-121 0 -209 -63q-90 -63 -133 -162q-41 -100 -41 -219v-512h-74v1018h74v-266q41 124 145 200q109 80 234 80z" />
    <glyph glyph-name="Rcommaaccent" unicode="&#x156;" horiz-adv-x="1333" 
d="M301 0h-80v1493h447q339 0 467 -184q73 -105 73 -242q0 -173 -116 -289q-119 -113 -340 -137l501 -641h-100l-496 633h-356v-633zM301 707h348q102 -1 184.5 20t136.5 56t90.5 82t52 97t15.5 103q0 54 -13.5 103t-47 96t-85 81t-133 55t-185.5 21h-363v-714zM573 -508v47
q54 26 82 74t31 104q-21 -14 -45 -14q-31 0 -51.5 19.5t-20.5 48.5q0 30 21.5 50.5t52.5 20.5q43 0 65.5 -30.5t22.5 -83.5q0 -73 -39 -138q-40 -67 -119 -98z" />
    <glyph glyph-name="rcommaaccent" unicode="&#x157;" horiz-adv-x="673" 
d="M635 1032q1 0 7.5 -1t12.5 -1v-76q-2 0 -8 1t-8 1q-121 0 -209 -63q-90 -63 -133 -162q-41 -100 -41 -219v-512h-74v1018h74v-266q41 124 145 200q109 80 234 80zM147 -508v47q54 26 81.5 74.5t29.5 103.5q-21 -14 -43 -14q-31 0 -51.5 19.5t-20.5 48.5q0 30 21 50.5
t51 20.5q44 0 67 -30.5t23 -83.5q0 -73 -39 -138q-44 -69 -119 -98z" />
    <glyph glyph-name="Rcaron" unicode="&#x158;" horiz-adv-x="1333" 
d="M426 1958l221 -270l223 270h72l-252 -330h-84l-254 330h74zM221 0v1493h447q339 0 467 -184q73 -105 73 -242q0 -173 -116 -289q-119 -113 -340 -137l501 -641h-100l-496 633h-356v-633h-80zM301 707h348q102 -1 184.5 20t136.5 56t90.5 82t52 97t15.5 103
q0 54 -13.5 103t-47 96t-85 81t-133 55t-185.5 21h-363v-714z" />
    <glyph glyph-name="rcaron" unicode="&#x159;" horiz-adv-x="673" 
d="M195 1501l221 -270l221 270h74l-254 -327h-84l-252 327h74zM635 1032q1 0 7.5 -1t12.5 -1v-76q-2 0 -8 1t-8 1q-121 0 -209 -63q-90 -63 -133 -162q-41 -100 -41 -219v-512h-74v1018h74v-266q41 124 145 200q109 80 234 80z" />
    <glyph glyph-name="Sacute" unicode="&#x15a;" horiz-adv-x="1218" 
d="M633 1628h-70l215 330h86zM1100 399q2 -119 -65 -215.5t-178 -149t-239 -50.5q-101 0 -193 35t-159 96q-136 124 -164 297l76 20q21 -143 131 -256q54 -56 136 -88.5t178 -32.5q148 0 270 86q60 41 94.5 107.5t34.5 146.5q0 68 -25.5 124t-71 93.5t-100.5 62t-120 36.5
l-213 41q-138 27 -236 104q-113 89 -113 254q0 118 70 209q65 91 174 141q104 49 223 49q99 0 186.5 -33t145.5 -90q118 -112 143 -239l-71 -25q-10 56 -50.5 122.5t-105.5 115.5q-46 35 -112.5 56.5t-139.5 21.5q-97 0 -183.5 -40t-141.5 -114q-58 -76 -58 -170
q0 -232 287 -289l213 -41q102 -19 185.5 -67.5t137.5 -131.5t54 -186z" />
    <glyph glyph-name="sacute" unicode="&#x15b;" horiz-adv-x="946" 
d="M492 1192h-68l215 328h86zM125 760q0 86 53 151t129 95q74 30 158 30q134 0 235 -67q101 -70 125 -195l-69 -20q-21 101 -101 157q-77 54 -192 54q-142 0 -219 -91q-41 -47 -41 -112q0 -77 53 -127q59 -50 133 -64l195 -36q118 -24 186 -101q70 -76 70 -170
q0 -66 -30.5 -122.5t-82.5 -90.5q-103 -67 -235 -67q-155 0 -261 75q-106 74 -133 220l74 18q21 -119 105.5 -181.5t214.5 -62.5q143 0 229 92q43 49 43 117q0 74 -53.5 129t-147.5 74l-192 37q-102 18 -174 90q-72 69 -72 168z" />
    <glyph glyph-name="Scircumflex" unicode="&#x15c;" horiz-adv-x="1218" 
d="M573 1958h84l254 -330h-73l-224 270l-221 -270h-74zM1100 399q2 -119 -65 -215.5t-178 -149t-239 -50.5q-101 0 -193 35t-159 96q-138 125 -162 297l74 20q21 -143 131 -256q54 -56 136 -88.5t178 -32.5q148 0 270 86q60 41 94.5 107.5t34.5 146.5q0 68 -25.5 124
t-71 93.5t-100.5 62t-120 36.5l-213 41q-138 27 -236 104q-113 89 -113 254q0 118 70 209q65 91 174 141q104 49 223 49q99 0 186.5 -33t145.5 -90q118 -112 143 -239l-71 -25q-10 56 -50.5 122.5t-105.5 115.5q-46 35 -112.5 56.5t-139.5 21.5q-97 0 -183.5 -40
t-141.5 -114q-58 -76 -58 -170q0 -232 287 -289l213 -41q102 -19 185.5 -67.5t137.5 -131.5t54 -186z" />
    <glyph glyph-name="scircumflex" unicode="&#x15d;" horiz-adv-x="946" 
d="M428 1520h84l254 -328h-74l-221 270l-223 -270h-74zM125 760q0 86 53 151t129 95q74 30 158 30q134 0 235 -67q101 -70 125 -195l-69 -20q-21 101 -101 157q-77 54 -192 54q-142 0 -219 -91q-41 -47 -41 -112q0 -77 53 -127q59 -50 133 -64l195 -36q118 -24 186 -101
q70 -76 70 -170q0 -66 -30.5 -122.5t-82.5 -90.5q-103 -67 -235 -67q-155 0 -261 75q-106 74 -133 220l74 18q21 -119 105.5 -181.5t214.5 -62.5q143 0 229 92q43 49 43 117q0 74 -53.5 129t-147.5 74l-192 37q-102 18 -174 90q-72 69 -72 168z" />
    <glyph glyph-name="Scedilla" unicode="&#x15e;" horiz-adv-x="1218" 
d="M369 -461q-32 0 -56 8v64q14 -2 47 -2q126 0 192 67t66 195q0 41 -10 113q-202 6 -340 129q-140 125 -164 299l74 20q22 -146 129 -256q55 -57 137.5 -89t178.5 -32q73 0 142.5 21t127.5 61.5t93.5 107.5t35.5 150q0 98 -53 168q-49 65 -117 96q-45 24 -113 46
q-6 1 -17 3t-17 3l-213 41q-138 27 -236 104q-113 89 -113 254q0 118 70 209q65 91 174 141q104 49 223 49q99 0 186.5 -33t145.5 -90q118 -112 143 -239l-71 -25q-10 56 -50.5 122.5t-105.5 115.5q-46 35 -112.5 56.5t-139.5 21.5q-99 0 -185 -39t-140 -113
q-58 -76 -58 -172q0 -114 73.5 -187.5t213.5 -101.5l213 -41q30 -4 84 -22q82 -28 151 -80q85 -63 121 -162q21 -58 21 -121q0 -165 -121 -280q-122 -116 -305 -131q20 -62 20 -121q0 -194 -141 -281q-77 -47 -184 -47z" />
    <glyph glyph-name="scedilla" unicode="&#x15f;" horiz-adv-x="944" 
d="M838 264q0 -85 -45 -145q-43 -60 -117 -96q-70 -31 -150 -37q19 -59 19 -119q0 -195 -142 -281q-77 -47 -182 -47q-30 0 -57 8v64q14 -2 49 -2q126 0 192 67t66 195q0 41 -10 113q-145 8 -241 83.5t-122 211.5l74 18q20 -119 104 -181.5t216 -62.5q141 0 227 92
q43 49 43 117q0 74 -53.5 129t-147.5 74l-192 37q-100 18 -172 90q-72 69 -72 168q0 85 51 151q53 65 129 95q73 30 158 30q134 0 235 -67q105 -72 125 -195l-69 -20q-21 101 -101 157q-77 54 -192 54q-142 0 -219 -91q-41 -50 -41 -112q0 -78 55 -127q56 -49 133 -64
l193 -36q118 -24 186 -101q70 -76 70 -170z" />
    <glyph glyph-name="Scaron" unicode="&#x160;" horiz-adv-x="1218" 
d="M381 1960l221 -270l221 270h74l-252 -328h-84l-254 328h74zM1100 399q2 -119 -65 -215.5t-178 -149t-239 -50.5q-101 0 -193 35t-159 96q-138 125 -162 297l74 20q21 -143 131 -256q54 -56 136 -88.5t178 -32.5q148 0 270 86q60 41 94.5 107.5t34.5 146.5q0 68 -25.5 124
t-71 93.5t-100.5 62t-120 36.5l-213 41q-138 27 -236 104q-113 89 -113 254q0 118 70 209q65 91 174 141q104 49 223 49q99 0 186.5 -33t145.5 -90q118 -112 143 -239l-71 -25q-10 56 -50.5 122.5t-105.5 115.5q-46 35 -112.5 56.5t-139.5 21.5q-97 0 -183.5 -40
t-141.5 -114q-58 -76 -58 -170q0 -232 287 -289l213 -41q102 -19 185.5 -67.5t137.5 -131.5t54 -186z" />
    <glyph glyph-name="scaron" unicode="&#x161;" horiz-adv-x="944" 
d="M125 760q0 85 51 151q53 65 129 95q73 30 158 30q134 0 235 -67q105 -72 125 -195l-69 -20q-21 101 -101 157q-77 54 -192 54q-142 0 -219 -91q-41 -50 -41 -112q0 -78 55 -127q56 -49 133 -64l193 -36q118 -24 186 -101q70 -76 70 -170q0 -66 -30 -122t-81 -91
q-106 -67 -238 -67q-155 0 -258 75q-106 74 -133 220l74 18q20 -119 104 -181.5t216 -62.5q141 0 227 92q43 49 43 117q0 74 -53.5 129t-147.5 74l-192 37q-100 18 -172 90q-72 69 -72 168zM244 1501l221 -270l221 270h74l-252 -327h-84l-254 327h74z" />
    <glyph glyph-name="uni0162" unicode="&#x162;" horiz-adv-x="1167" 
d="M328 -461q-34 0 -58 8v64q14 -2 49 -2q126 0 192.5 67.5t66.5 194.5q0 59 -15 129h-14v1421h-504v72h1075v-72h-493v-1421q24 -62 24 -133q0 -195 -141 -281q-74 -47 -182 -47z" />
    <glyph glyph-name="uni0163" unicode="&#x163;" horiz-adv-x="657" 
d="M311 950v-682q0 -112 39 -157q44 -50 152 -50q22 0 82 11v-72q-39 -8 -88 -8q-42 0 -76 6q22 -56 22 -131q0 -195 -141 -281q-77 -47 -182 -47q-31 0 -58 8v64q14 -2 50 -2q126 0 192 67t66 195q0 73 -19 147q-60 26 -87 84.5t-27 157.5v690h-193v68h193v293h75v-293h273
v-68h-273z" />
    <glyph glyph-name="Tcaron" unicode="&#x164;" horiz-adv-x="1169" 
d="M373 1958l211 -270l213 270h84l-254 -330h-84l-254 330h84zM551 0v1421h-506v72h1079v-72h-493v-1421h-80z" />
    <glyph glyph-name="tcaron" unicode="&#x165;" horiz-adv-x="657" 
d="M580 1174h-54l27 380h92zM311 950v-682q0 -112 39 -157q44 -50 152 -50q22 0 82 11v-72q-39 -8 -88 -8q-142 0 -199 63q-61 64 -61 205v690h-193v68h193v293h75v-293h273v-68h-273z" />
    <glyph glyph-name="Tbar" unicode="&#x166;" horiz-adv-x="1212" 
d="M254 725v74h317v622h-503v72h1075v-72h-494v-622h318v-74h-318v-725h-78v725h-317z" />
    <glyph glyph-name="tbar" unicode="&#x167;" horiz-adv-x="675" 
d="M66 530v68h184v352h-193v68h193v293h74v-293h272v-68h-272v-352h245v-68h-245v-262q0 -110 41 -157q41 -50 149 -50q22 0 82 11v-72q-39 -8 -86 -8q-144 0 -201 63q-59 62 -59 205v270h-184z" />
    <glyph glyph-name="Utilde" unicode="&#x168;" horiz-adv-x="1486" 
d="M993 1812l54 -16q-18 -69 -60 -117q-40 -49 -102 -49q-63 0 -148 64q-74 63 -135 63q-83 0 -121 -115l-55 23q53 160 170 160q71 0 156 -64q79 -63 129 -63q75 0 112 114zM1206 582v911h80v-907q0 -278 -141 -441q-139 -161 -400 -161q-262 0 -403 162.5t-141 435.5v911
h80v-909q0 -260 125 -394q123 -135 342 -135q117 0 205.5 38.5t143.5 109t82 165.5t27 214z" />
    <glyph glyph-name="utilde" unicode="&#x169;" 
d="M848 1376l53 -18q-19 -72 -59 -117q-38 -47 -103 -47q-34 0 -74 18.5t-71 44.5q-82 62 -137 62q-83 0 -121 -115l-55 25q53 157 170 157q77 0 155 -63q79 -63 131 -63q39 0 67.5 32.5t43.5 83.5zM571 -18q-190 0 -297 116q-108 117 -108 305v615h76v-598q0 -172 90 -273
q93 -96 252 -96q148 0 254 109q102 108 102 272v586h74v-1018h-74v225q-41 -113 -141 -176q-101 -67 -228 -67z" />
    <glyph glyph-name="Umacron" unicode="&#x16a;" horiz-adv-x="1486" 
d="M426 1749h635v-70h-635v70zM1286 1493v-907q0 -276 -139 -441q-139 -161 -402 -161q-172 0 -297 75t-186 209t-61 314v911h80v-909q0 -257 125 -394q126 -135 342 -135q118 0 207 38t144 109t82 166t27 214v911h78z" />
    <glyph glyph-name="umacron" unicode="&#x16b;" horiz-adv-x="1198" 
d="M274 1292h635v-69h-635v69zM573 -18q-192 0 -299 116q-108 117 -108 305v615h78v-598q0 -172 90 -273q93 -96 250 -96q147 0 256 109q102 108 102 272v586h74v-1018h-74v225q-41 -113 -141 -176q-101 -67 -228 -67z" />
    <glyph glyph-name="Uring" unicode="&#x16e;" horiz-adv-x="1488" 
d="M612 1647q-57 51 -57 133q0 81 57 135q55 55 136 55q78 0 133 -55q57 -54 57 -135q0 -82 -57 -133q-55 -58 -133 -58q-81 0 -136 58zM748 1907q-54 0 -89.5 -35.5t-35.5 -89.5t35.5 -90.5t89.5 -36.5q51 0 88 37q34 34 34 90q0 54 -34 88q-40 37 -88 37zM1288 1493v-907
q0 -278 -141 -441q-136 -161 -399 -161q-172 0 -298 75.5t-188 210.5q-61 131 -61 312v911h82v-909q0 -257 125 -394q126 -135 342 -135q232 0 345 141t113 386v911h80z" />
    <glyph glyph-name="uring" unicode="&#x16f;" horiz-adv-x="1198" 
d="M457 1208q-58 55 -58 133t58 136q55 55 135 55q77 0 135 -55q55 -55 55 -136t-55 -133q-57 -57 -135 -57q-81 0 -135 57zM592 1468q-54 0 -89.5 -36t-35.5 -91q0 -54 35.5 -89t89.5 -35q52 0 88 36q37 37 37 88q0 54 -37 91q-36 36 -88 36zM573 -18q-192 0 -299 116
q-108 117 -108 305v615h78v-598q0 -172 90 -273q93 -96 250 -96q147 0 256 109q102 108 102 272v586h74v-1018h-74v225q-41 -113 -141 -176q-101 -67 -228 -67z" />
    <glyph glyph-name="Uhungarumlaut" unicode="&#x170;" horiz-adv-x="1488" 
d="M987 1958l-229 -330h-70l213 330h86zM1288 1493v-907q0 -278 -141 -441q-136 -161 -399 -161q-172 0 -298 75.5t-188 210.5q-61 131 -61 312v911h82v-909q0 -257 125 -394q126 -135 342 -135q232 0 345 141t113 386v911h80z" />
    <glyph glyph-name="uhungarumlaut" unicode="&#x171;" 
d="M477 1192h-69l215 328h84zM750 1192h-68l213 328h86zM571 -18q-190 0 -297 116q-108 117 -108 305v615h76v-598q0 -176 90 -273q90 -96 250 -96q148 0 254 109q104 107 104 272v586h74v-1018h-74v225q-44 -113 -141 -176q-101 -67 -228 -67z" />
    <glyph glyph-name="Uogonek" unicode="&#x172;" horiz-adv-x="1486" 
d="M958 -393v-68q-36 -4 -53 -4q-106 0 -176 55q-74 59 -74 160q0 116 148 236q-18 -2 -58 -2q-262 0 -403 162.5t-141 435.5v911h80v-909q0 -260 125 -394q123 -135 342 -135q117 0 205.5 38.5t143.5 109t82 165.5t27 214v911h80v-907q0 -232 -100 -387
q-102 -156 -291 -199q-60 -43 -113 -109q-49 -64 -49 -122t33.5 -98t85.5 -54q53 -13 106 -10z" />
    <glyph glyph-name="uogonek" unicode="&#x173;" 
d="M1077 -393v-68q-36 -4 -53 -4q-106 0 -176 55q-72 57 -72 160q0 129 164 250v225q-44 -113 -141 -176q-101 -67 -228 -67q-190 0 -297 116q-108 117 -108 305v615h76v-598q0 -176 90 -273q90 -96 250 -96q148 0 254 109q104 107 104 272v586h74v-1018q-65 -49 -113 -109
q-49 -64 -49 -122t33.5 -98t85.5 -54q53 -13 106 -10z" />
    <glyph glyph-name="Wcircumflex" unicode="&#x174;" horiz-adv-x="2101" 
d="M1010 1958h84l252 -328h-74l-221 271l-222 -271h-73zM614 0h-88l-465 1493h84l428 -1391l441 1391h73l445 -1391l428 1391h80l-465 -1493h-88l-436 1366z" />
    <glyph glyph-name="wcircumflex" unicode="&#x175;" horiz-adv-x="1636" 
d="M778 1520h84l254 -328h-74l-223 270l-221 -270h-74zM492 0h-76l-361 1018h82l318 -928l327 928h74l326 -928l323 928h76l-360 -1018h-78l-324 915z" />
    <glyph glyph-name="Ycircumflex" unicode="&#x176;" horiz-adv-x="1368" 
d="M645 1958h84l254 -328h-74l-223 271l-221 -271h-74zM59 1493h95l532 -780l528 780h95l-586 -852v-641h-78v641z" />
    <glyph glyph-name="ycircumflex" unicode="&#x177;" horiz-adv-x="1101" 
d="M524 1520h84l254 -328h-74l-221 270l-221 -270h-74zM133 1018l434 -877l416 877h80l-723 -1520h-80l266 561l-477 959h84z" />
    <glyph glyph-name="Ydieresis" unicode="&#x178;" horiz-adv-x="1368" 
d="M473 1735q-35 32 -14.5 82t67.5 47q30 0 52 -22t22 -54q0 -31 -22.5 -53.5t-51.5 -22.5q-30 0 -53 23zM793 1735q-22 22 -22 53.5t22 54.5q22 22 52 22t52 -22q22 -23 22 -54.5t-22 -53.5q-22 -23 -52 -23t-52 23zM59 1493h95l532 -780l528 780h95l-586 -852v-641h-78
v641z" />
    <glyph glyph-name="Zacute" unicode="&#x179;" horiz-adv-x="1171" 
d="M610 1628h-69l215 330h86zM1010 1421h-920v72h1006v-72l-949 -1349h953v-72h-1041v72z" />
    <glyph glyph-name="zacute" unicode="&#x17a;" horiz-adv-x="950" 
d="M483 1192h-69l215 328h86zM90 950v68h780v-68l-706 -882h706v-68h-798v68l708 882h-690z" />
    <glyph glyph-name="Zdotaccent" unicode="&#x17b;" horiz-adv-x="1171" 
d="M526 1737q-22 23 -22 54t22 54q22 22 52.5 22t52.5 -22q22 -23 22 -54t-22 -54q-22 -22 -52.5 -22t-52.5 22zM1010 1421h-920v72h1006v-72l-949 -1349h953v-72h-1041v72z" />
    <glyph glyph-name="zdotaccent" unicode="&#x17c;" horiz-adv-x="948" 
d="M418 1296q-22 23 -22 54.5t22 54.5q22 22 52 22t52 -22q22 -23 22 -54.5t-22 -54.5q-22 -22 -52 -22t-52 22zM90 950v68h778v-68l-706 -882h708v-68h-798v68l706 882h-688z" />
    <glyph glyph-name="Zcaron" unicode="&#x17d;" horiz-adv-x="1169" 
d="M371 1958l223 -270l221 270h74l-254 -330h-84l-254 330h74zM1008 1421h-918v72h1006v-72l-949 -1349h951v-72h-1039v72z" />
    <glyph glyph-name="zcaron" unicode="&#x17e;" horiz-adv-x="948" 
d="M256 1501l221 -270l221 270h74l-254 -327h-84l-252 327h74zM90 950v68h778v-68l-706 -882h708v-68h-798v68l706 882h-688z" />
    <glyph glyph-name="florin" unicode="&#x192;" horiz-adv-x="1116" 
d="M1053 1425h-39q-129 0 -208 -73t-101 -205l-23 -129h279v-68h-293l-123 -635q-31 -153 -125 -241q-93 -90 -248 -90q-27 0 -47 2v69h37q256 -6 311 287l117 608h-232v68h246l27 143q31 155 127 244q95 92 246 92q26 0 49 -2v-70z" />
    <glyph glyph-name="uni01B5" unicode="&#x1b5;" horiz-adv-x="1191" 
d="M98 1493h1006v-72l-438 -622h438v-74h-490l-458 -653h950v-72h-1038v72l458 653h-426v74h478l438 622h-918v72z" />
    <glyph glyph-name="uni01B6" unicode="&#x1b6;" horiz-adv-x="960" 
d="M94 950v68h778v-68l-325 -405h323v-70h-378l-326 -407h708v-68h-798v68l327 407h-307v70h363l323 405h-688z" />
    <glyph glyph-name="uni01CD" unicode="&#x1cd;" horiz-adv-x="1433" 
d="M492 1939l223 -270l221 270h74l-254 -329h-84l-254 329h74zM14 0l660 1493h86l657 -1493h-84l-186 426h-864l-189 -426h-80zM1116 498l-403 909l-400 -909h803z" />
    <glyph glyph-name="uni01CE" unicode="&#x1ce;" horiz-adv-x="1077" 
d="M301 1501l221 -270l223 270h74l-254 -327h-84l-254 327h74zM449 -18q-149 0 -244 77q-99 77 -99 213q0 74 35 132t94 91.5t127 50.5t142 17h332v72q0 155 -81.5 242.5t-230.5 87.5q-195 -3 -274 -129q-41 -57 -55 -134l-72 17q7 69 61 149q29 45 72 82q45 38 115.5 62
t150.5 24q178 0 283 -102q106 -106 106 -293v-287q0 -252 15 -354h-74q-7 29 -10 104q-6 79 -6 121q-59 -118 -162 -178q-106 -65 -225 -65zM838 496h-330q-121 0 -215 -47q-51 -27 -80 -72.5t-29 -102.5q0 -106 76 -161q72 -60 191 -60q158 -3 273 100.5t114 264.5v78z" />
    <glyph glyph-name="uni01CF" unicode="&#x1cf;" horiz-adv-x="522" 
d="M41 1958l221 -270l221 270h74l-254 -330h-84l-254 330h76zM301 1493v-1493h-80v1493h80z" />
    <glyph glyph-name="uni01D0" unicode="&#x1d0;" horiz-adv-x="440" 
d="M-2 1501l221 -270l221 270h74l-252 -327h-84l-254 327h74zM258 0h-76v1018h76v-1018z" />
    <glyph glyph-name="uni01D1" unicode="&#x1d1;" horiz-adv-x="1691" 
d="M625 1958l221 -270l221 270h74l-252 -330h-84l-254 330h74zM846 -16q-210 0 -379 102q-172 104 -262 276q-92 176 -92 383q0 155 53 297q53 135 151 244q96 103 234 162q137 61 297 61q210 0 379 -102q168 -101 260 -277q94 -175 94 -382q0 -208 -94 -383
q-91 -174 -262 -277q-168 -104 -379 -104zM846 1438q-140 0 -264 -56q-126 -57 -207 -147q-86 -95 -134 -221t-48 -262q0 -139 48 -266t134 -224q84 -92 209 -149q122 -58 266 -58q180 0 336 95q147 92 231 249q82 155 82 344q0 138 -47 265t-133 223q-82 91 -209 151
q-124 56 -264 56z" />
    <glyph glyph-name="uni01D2" unicode="&#x1d2;" horiz-adv-x="1249" 
d="M401 1501l222 -270l221 270h74l-252 -327h-84l-254 327h73zM625 -16q-142 -3 -263.5 67t-191.5 191.5t-68 263.5q0 107 40 206.5t110 170.5t168 112t205 41q142 3 263 -67.5t190.5 -192.5t66.5 -264q3 -143 -65 -265.5t-189.5 -194t-265.5 -68.5zM850 903
q-103 62 -227 62q-123 0 -228 -60q-101 -61 -157 -164.5t-56 -228.5q-3 -122 55 -228.5t162 -169.5t226 -61q189 0 317 131q125 131 125 324q0 126 -57 229.5t-160 165.5z" />
    <glyph glyph-name="uni01D3" unicode="&#x1d3;" horiz-adv-x="1486" 
d="M522 1958l221 -270l222 270h73l-252 -330h-84l-253 330h73zM1286 1493v-907q0 -278 -141 -441q-139 -161 -400 -161q-262 0 -403 162.5t-141 435.5v911h80v-909q0 -260 125 -394q123 -135 342 -135q117 0 205.5 38.5t143.5 109t82 165.5t27 214v911h80z" />
    <glyph glyph-name="uni01D4" unicode="&#x1d4;" 
d="M369 1501l221 -270l221 270h74l-252 -327h-84l-254 327h74zM571 -18q-190 0 -297 116q-108 117 -108 305v615h76v-598q0 -176 90 -273q90 -96 250 -96q148 0 254 109q104 107 104 272v586h74v-1018h-74v225q-44 -113 -141 -176q-101 -67 -228 -67z" />
    <glyph glyph-name="uni01D5" unicode="&#x1d5;" horiz-adv-x="1486" 
d="M1286 1493v-907q0 -278 -141 -441q-139 -161 -400 -161q-262 0 -403 162.5t-141 435.5v911h80v-909q0 -260 125 -394q123 -135 342 -135q117 0 205.5 38.5t143.5 109t82 165.5t27 214v911h80zM428 1907h635v-70h-635v70zM532 1585q-21 24 -21.5 54t21.5 54.5t54 22.5
q29 0 50 -23t21 -55q0 -31 -21 -53t-50 -22q-32 0 -54 22zM850 1585q-20 24 -20 54t21.5 54.5t51.5 22.5q31 0 53.5 -23t22.5 -55q0 -31 -22.5 -53t-53.5 -22t-53 22z" />
    <glyph glyph-name="uni01D6" unicode="&#x1d6;" 
d="M571 -18q-190 0 -297 116q-108 117 -108 305v615h76v-598q0 -176 90 -273q90 -96 250 -96q148 0 254 109q104 107 104 272v586h74v-1018h-74v225q-44 -113 -141 -176q-101 -67 -228 -67zM272 1608h635v-72h-635v72zM367 1282q0 34 21 56t52 22t52.5 -22.5t21.5 -55.5
q0 -31 -21.5 -53.5t-52.5 -22.5q-30 0 -51.5 22.5t-21.5 53.5zM668 1282q0 34 20 56t51 22q32 0 53 -22t21 -56q0 -31 -21.5 -53.5t-52.5 -22.5q-29 0 -50 22.5t-21 53.5z" />
    <glyph glyph-name="uni01D7" unicode="&#x1d7;" horiz-adv-x="1486" 
d="M1286 1493v-907q0 -278 -141 -441q-139 -161 -400 -161q-262 0 -403 162.5t-141 435.5v911h80v-909q0 -260 125 -394q123 -135 342 -135q117 0 205.5 38.5t143.5 109t82 165.5t27 214v911h80zM721 1831l201 309h86l-209 -309h-78zM850 1694q-20 -25 -20 -55t21.5 -54
t51.5 -22q31 0 53.5 22t22.5 53q0 32 -22.5 55t-53.5 23t-53 -22zM532 1694q-21 -25 -21.5 -55t21.5 -54t54 -22q29 0 50 22t21 53q0 32 -21 55t-50 23q-32 0 -54 -22z" />
    <glyph glyph-name="uni01D8" unicode="&#x1d8;" 
d="M571 -18q-190 0 -297 116q-108 117 -108 305v615h76v-598q0 -176 90 -273q90 -96 250 -96q148 0 254 109q104 107 104 272v586h74v-1018h-74v225q-44 -113 -141 -176q-101 -67 -228 -67zM367 1282q0 34 21 56t52 22t52.5 -22.5t21.5 -55.5q0 -31 -21.5 -53.5t-52.5 -22.5
q-30 0 -51.5 22.5t-21.5 53.5zM668 1282q0 34 20 56t51 22q32 0 53 -22t21 -56q0 -31 -21.5 -53.5t-52.5 -22.5q-29 0 -50 22.5t-21 53.5zM637 1499h-70l203 309h84z" />
    <glyph glyph-name="uni01D9" unicode="&#x1d9;" horiz-adv-x="1486" 
d="M1286 1493v-907q0 -278 -141 -441q-139 -161 -400 -161q-262 0 -403 162.5t-141 435.5v911h80v-909q0 -260 125 -394q123 -135 342 -135q117 0 205.5 38.5t143.5 109t82 165.5t27 214v911h80zM549 2140l196 -248l197 248h84l-238 -307h-83l-240 307h84zM532 1585
q-21 24 -21.5 54t21.5 54.5t54 22.5q29 0 50 -23t21 -55q0 -31 -21 -53t-50 -22q-32 0 -54 22zM850 1585q-20 24 -20 54t21.5 54.5t51.5 22.5q31 0 53.5 -23t22.5 -55q0 -31 -22.5 -53t-53.5 -22t-53 22z" />
    <glyph glyph-name="uni01DA" unicode="&#x1da;" 
d="M571 -18q-190 0 -297 116q-108 117 -108 305v615h76v-598q0 -176 90 -273q90 -96 250 -96q148 0 254 109q104 107 104 272v586h74v-1018h-74v225q-44 -113 -141 -176q-101 -67 -228 -67zM367 1282q0 34 21 56t52 22t52.5 -22.5t21.5 -55.5q0 -31 -21.5 -53.5t-52.5 -22.5
q-30 0 -51.5 22.5t-21.5 53.5zM668 1282q0 34 20 56t51 22q32 0 53 -22t21 -56q0 -31 -21.5 -53.5t-52.5 -22.5q-29 0 -50 22.5t-21 53.5zM633 1499h-84l-238 309h70l211 -252l207 252h71z" />
    <glyph glyph-name="uni01DB" unicode="&#x1db;" horiz-adv-x="1486" 
d="M1286 1493v-907q0 -278 -141 -441q-139 -161 -400 -161q-262 0 -403 162.5t-141 435.5v911h80v-909q0 -260 125 -394q123 -135 342 -135q117 0 205.5 38.5t143.5 109t82 165.5t27 214v911h80zM715 1831l-209 309h86l201 -309h-78zM532 1585q-21 24 -21.5 54t21.5 54.5
t54 22.5q29 0 50 -23t21 -55q0 -31 -21 -53t-50 -22q-32 0 -54 22zM850 1585q-20 24 -20 54t21.5 54.5t51.5 22.5q31 0 53.5 -23t22.5 -55q0 -31 -22.5 -53t-53.5 -22t-53 22z" />
    <glyph glyph-name="uni01DC" unicode="&#x1dc;" 
d="M571 -18q-190 0 -297 116q-108 117 -108 305v615h76v-598q0 -176 90 -273q90 -96 250 -96q148 0 254 109q104 107 104 272v586h74v-1018h-74v225q-44 -113 -141 -176q-101 -67 -228 -67zM815 1282q0 -31 -21.5 -53.5t-52.5 -22.5t-53 22.5t-22 53.5q0 33 22 55.5t53 22.5
t52.5 -22.5t21.5 -55.5zM514 1282q0 -31 -21.5 -53.5t-52.5 -22.5q-30 0 -50.5 22.5t-20.5 53.5q0 34 20 56t51 22t52.5 -22.5t21.5 -55.5zM328 1808h84l202 -309h-69z" />
    <glyph glyph-name="Gcaron" unicode="&#x1e6;" horiz-adv-x="1632" 
d="M629 1958l221 -270l223 270h74l-254 -330h-84l-254 330h74zM1454 618v7h-690v71h768v-73q0 -132 -49.5 -249t-139.5 -204q-91 -88 -220 -137t-277 -49q-210 0 -381 100q-171 103 -260 274q-92 173 -92 387q0 155 53.5 295.5t150.5 243.5q90 103 234 164q137 61 299 61
q107 0 206 -28t173 -76q74 -45 133 -107q113 -116 141 -251l-73 -25q-11 71 -72 158t-154 153q-68 47 -161 76t-193 29q-144 0 -267.5 -53.5t-209.5 -149.5q-85 -95 -132.5 -220.5t-47.5 -262.5q0 -144 47.5 -272.5t132.5 -221.5q86 -96 209.5 -149.5t267.5 -53.5
q121 0 230.5 40t192.5 111.5t132 178.5t49 233z" />
    <glyph glyph-name="gcaron" unicode="&#x1e7;" horiz-adv-x="1280" 
d="M373 1501l221 -270l223 270h74l-254 -327h-84l-254 327h74zM596 -436q194 0 309 127q119 128 119 348v248q-50 -124 -168 -209q-113 -82 -260 -82q-145 0 -260 74q-113 71 -172.5 188t-59.5 258q0 144 60.5 261.5t173.5 187.5q110 71 258 71q144 0 260 -78
q112 -78 168 -206v266h74v-977q0 -132 -39 -238.5t-109 -173.5q-142 -139 -350 -139q-181 0 -313 100q-134 99 -181 258l70 25q12 -51 44.5 -102.5t82.5 -99t127 -77.5t166 -30zM600 70q123 0 221 61q100 60 152 164q53 97 53 219v6q0 118 -51.5 218t-149.5 163
q-103 62 -225 62q-185 0 -301 -125q-117 -126 -117 -320v-2q0 -193 117 -319q118 -127 301 -127z" />
    <glyph glyph-name="uni01E8" unicode="&#x1e8;" horiz-adv-x="1234" 
d="M453 1939l221 -270l221 270h74l-252 -329h-84l-254 329h74zM221 1493h80v-694h8l770 694h115l-797 -711l842 -782h-117l-813 758h-8v-758h-80v1493z" />
    <glyph glyph-name="uni01E9" unicode="&#x1e9;" horiz-adv-x="966" 
d="M340 557l616 -557h-108l-588 537h-4v-537h-74v1552h74v-977h4l557 443h113zM471 1501l221 -270l221 270h74l-254 -327h-84l-252 327h74z" />
    <glyph glyph-name="uni01F4" unicode="&#x1f4;" horiz-adv-x="1632" 
d="M881 1628h-70l215 330h86zM1532 696v-73q0 -132 -49.5 -249t-139.5 -204q-91 -88 -220 -137t-277 -49q-210 0 -381 100q-171 103 -260 274q-92 173 -92 387q0 155 53.5 295.5t150.5 243.5q90 103 234 164q137 61 299 61q107 0 206 -28t173 -76q74 -45 133 -107
q113 -116 141 -251l-73 -25q-11 71 -72 158t-154 153q-68 47 -161 76t-193 29q-144 0 -267.5 -53.5t-209.5 -149.5q-85 -95 -132.5 -220.5t-47.5 -262.5q0 -144 47.5 -272.5t132.5 -221.5q86 -96 209.5 -149.5t267.5 -53.5q121 0 230.5 40t192.5 111.5t132 178.5t49 233v7
h-690v71h768z" />
    <glyph glyph-name="uni01F5" unicode="&#x1f5;" horiz-adv-x="1280" 
d="M633 1192h-70l215 328h86zM596 -436q196 0 311 127q117 126 117 348v248q-51 -126 -166 -209q-116 -82 -262 -82t-258 74q-114 71 -174 187.5t-60 258.5q0 143 61.5 261t174.5 188q110 71 256 71q143 0 262 -78q114 -82 166 -206v266h76v-977q0 -132 -39 -238.5
t-109 -173.5q-142 -139 -352 -139q-181 0 -313 100q-134 99 -181 258l72 25q12 -51 44 -102.5t82 -99t126.5 -77.5t165.5 -30zM596 70q125 0 223 61q102 63 152 164q53 103 53 219v6q0 117 -52.5 217t-150.5 164q-100 62 -225 62q-186 0 -299 -125q-117 -126 -117 -320v-2
q0 -193 117 -319q115 -127 299 -127z" />
    <glyph glyph-name="Aringacute" unicode="&#x1fa;" horiz-adv-x="1433" 
d="M1014 2068l-201 -292q42 -26 66 -69.5t24 -92.5q0 -60 -33 -106.5t-88 -65.5l635 -1442h-84l-186 426h-864l-189 -426h-80l635 1440q-58 19 -92.5 66t-34.5 108q0 76 56 135q55 55 135 55q19 0 39 -4l176 268h86zM713 1741q-54 0 -88.5 -35.5t-34.5 -91.5
q0 -54 34.5 -90.5t88.5 -36.5t90 39q35 35 35 88t-37 90t-88 37zM713 1407l-400 -909h803z" />
    <glyph glyph-name="aringacute" unicode="&#x1fb;" horiz-adv-x="1077" 
d="M825 1602l-200 -295q42 -25 67 -68t25 -92q0 -73 -62 -129q122 -34 189 -131t67 -246v-287q0 -252 15 -354h-74q-7 29 -10 104q-6 79 -6 121q-59 -118 -162 -178q-106 -65 -225 -65q-149 0 -244 77q-99 77 -99 213q0 74 35 132t94 91.5t127 50.5t142 17h332v72
q0 155 -81.5 242.5t-230.5 87.5q-192 -3 -274 -129q-41 -57 -55 -134l-72 17q7 70 63 155q32 48 86 87t121 59q-59 53 -59 127q0 78 55 133q58 55 135 55q29 0 39 -4l176 271h86zM649 1147q0 51 -37 88t-88 37q-54 0 -88.5 -35.5t-34.5 -89.5t34.5 -90.5t88.5 -36.5
t89.5 36.5t35.5 90.5zM838 496h-330q-121 0 -215 -47q-51 -27 -80 -72.5t-29 -102.5q0 -106 76 -161q72 -60 191 -60q158 -3 273 100.5t114 264.5v78z" />
    <glyph glyph-name="AEacute" unicode="&#x1fc;" horiz-adv-x="1943" 
d="M1147 1628h-68l215 330h86zM893 1493h924v-72h-781v-622h715v-74h-715v-653h789v-72h-869v426h-624l-258 -426h-84zM956 498v923h-24l-557 -923h581z" />
    <glyph glyph-name="aeacute" unicode="&#x1fd;" horiz-adv-x="1820" 
d="M901 1192h-70l216 328h86zM1720 496h-876q2 -119 55.5 -218.5t151.5 -160.5q98 -64 223 -64q138 0 239 78q97 79 134 191l67 -21q-43 -141 -160 -229q-119 -88 -282 -88q-132 0 -242 61.5t-178 169.5q-58 -111 -166 -172q-107 -61 -233 -61h-4q-149 0 -244 77
q-99 77 -99 213q0 74 35 132t94 91.5t127 50.5t142 17h268q9 105 51 187q-26 103 -103 159t-196 56q-192 -3 -274 -129q-41 -57 -55 -134l-72 17q7 69 61 149q29 45 72 82q45 38 115.5 62t150.5 24q121 0 211.5 -54.5t136.5 -154.5q68 96 168 152q105 57 219 57
q121 0 213 -44t145 -119t79 -166t26 -195v-16zM844 563h798q-11 202 -133 316q-96 86 -256 86q-162 0 -280 -121q-120 -117 -129 -281zM815 287q-42 91 -45 209h-262q-121 0 -215 -47q-51 -27 -80 -72.5t-29 -102.5q0 -106 76 -161q72 -60 191 -60q115 0 219 64
q106 65 145 170z" />
    <glyph glyph-name="Oslashacute" unicode="&#x1fe;" horiz-adv-x="1699" 
d="M879 1628h-70l215 330h86zM1587 1518l-209 -234q98 -103 151.5 -242t53.5 -294q0 -157 -55 -297q-52 -136 -150 -242q-95 -105 -233 -164q-137 -61 -297 -61q-276 0 -475 172l-207 -232l-51 47l209 234q-99 105 -154 245t-55 295q0 157 55 297q115 289 385 406
q137 61 295 61q280 0 479 -178l207 234zM195 752q0 -140 47 -266.5t135 -221.5l901 1010q-182 164 -430 164q-140 0 -264 -56q-120 -54 -207 -147q-86 -95 -134 -221t-48 -262zM852 55q182 0 338 95q147 92 231 249q82 155 82 344q0 137 -46 262t-132 220l-901 -1010
q180 -160 428 -160z" />
    <glyph glyph-name="oslashacute" unicode="&#x1ff;" horiz-adv-x="1253" 
d="M664 1192h-70l215 328h86zM1149 1038l-145 -157q143 -152 143 -369q3 -143 -65 -265.5t-189.5 -194t-265.5 -68.5q-193 0 -330 114l-143 -159l-48 43l144 159q-144 147 -144 365q0 107 40 206.5t110 170.5q70 72 167.5 112.5t205.5 40.5q188 0 329 -114l146 159zM625 965
q-122 2 -224.5 -59.5t-159.5 -166t-55 -227.5q0 -182 115 -315l608 667q-122 101 -284 101zM629 53q187 0 315 131q127 133 127 324q0 185 -119 313l-606 -667q119 -101 283 -101z" />
    <glyph glyph-name="Scommaaccent" unicode="&#x218;" horiz-adv-x="1218" 
d="M1100 399q2 -119 -65 -215.5t-178 -149t-239 -50.5q-101 0 -193 35t-159 96q-138 125 -162 297l74 20q21 -143 131 -256q54 -56 136 -88.5t178 -32.5q148 0 270 86q60 41 94.5 107.5t34.5 146.5q0 68 -25.5 124t-71 93.5t-100.5 62t-120 36.5l-213 41q-138 27 -236 104
q-113 89 -113 254q0 118 70 209q65 91 174 141q104 49 223 49q99 0 186.5 -33t145.5 -90q118 -112 143 -239l-71 -25q-10 56 -50.5 122.5t-105.5 115.5q-46 35 -112.5 56.5t-139.5 21.5q-97 0 -183.5 -40t-141.5 -114q-58 -76 -58 -170q0 -232 287 -289l213 -41
q102 -19 185.5 -67.5t137.5 -131.5t54 -186zM522 -508v47q36 18 63.5 51t37.5 64q6 21 10 63q-21 -14 -45 -14q-31 0 -51.5 19.5t-20.5 48.5q0 30 22 50.5t52 20.5q43 0 65.5 -30.5t22.5 -83.5q0 -73 -39 -138q-41 -68 -117 -98z" />
    <glyph glyph-name="scommaaccent" unicode="&#x219;" horiz-adv-x="944" 
d="M125 760q0 85 51 151q53 65 129 95q73 30 158 30q134 0 235 -67q105 -72 125 -195l-69 -20q-21 101 -101 157q-77 54 -192 54q-142 0 -219 -91q-41 -50 -41 -112q0 -78 55 -127q56 -49 133 -64l193 -36q118 -24 186 -101q70 -76 70 -170q0 -66 -30 -122t-81 -91
q-106 -67 -238 -67q-155 0 -258 75q-106 74 -133 220l74 18q20 -119 104 -181.5t216 -62.5q141 0 227 92q43 49 43 117q0 74 -53.5 129t-147.5 74l-192 37q-100 18 -172 90q-72 69 -72 168zM395 -508v47q36 18 63.5 51t37.5 64q8 27 8 63q-21 -14 -43 -14q-31 0 -51.5 19.5
t-20.5 48.5q0 30 21.5 50.5t52.5 20.5q43 0 65.5 -30.5t22.5 -83.5q0 -73 -39 -138q-44 -68 -117 -98z" />
    <glyph glyph-name="uni021A" unicode="&#x21a;" horiz-adv-x="1167" 
d="M45 1421v72h1075v-72h-493v-1421h-78v1421h-504zM506 -508v47q102 50 110 178q-21 -14 -45 -14q-30 0 -50.5 19.5t-20.5 48.5q0 31 21 51t52 20q43 0 67 -31t24 -83q0 -70 -41 -138t-117 -98z" />
    <glyph glyph-name="uni021B" unicode="&#x21b;" horiz-adv-x="657" 
d="M311 950v-682q0 -112 39 -157q44 -50 152 -50q22 0 82 11v-72q-39 -8 -88 -8q-142 0 -199 63q-61 64 -61 205v690h-193v68h193v293h75v-293h273v-68h-273zM311 -508v47q36 18 63.5 51t37.5 64q8 27 8 63q-18 -14 -43 -14q-31 0 -51.5 19.5t-20.5 48.5q0 30 21.5 50.5
t52.5 20.5q43 0 65.5 -30.5t22.5 -83.5q0 -73 -39 -138q-44 -68 -117 -98z" />
    <glyph glyph-name="uni0237" unicode="&#x237;" horiz-adv-x="452" 
d="M197 -242v1260h73v-1254q0 -272 -258 -272q-35 0 -67 4v70q28 -4 61 -4q54 0 93.5 17t59.5 46.5t29 62t9 70.5z" />
    <glyph glyph-name="circumflex" unicode="&#x2c6;" horiz-adv-x="624" 
d="M272 1520h84l252 -328h-73l-222 270l-221 -270h-74z" />
    <glyph glyph-name="gravecomb" unicode="&#x300;" horiz-adv-x="0" 
d="M-150 1520h87l215 -328h-70z" />
    <glyph glyph-name="acutecomb" unicode="&#x301;" horiz-adv-x="0" 
d="M-14 1192h-68l215 328h84z" />
    <glyph glyph-name="tildecomb" unicode="&#x303;" horiz-adv-x="0" 
d="M260 1374l49 -16q-18 -69 -57 -117q-38 -47 -102 -47q-35 0 -76 18.5t-72 44.5q-82 62 -135 62q-85 0 -123 -115l-53 25q53 160 170 160q70 0 155 -64q81 -65 129 -65q72 0 115 114z" />
    <glyph glyph-name="uni0304" unicode="&#x304;" horiz-adv-x="0" 
d="M-317 1292h634v-69h-634v69z" />
    <glyph glyph-name="uni0306" unicode="&#x306;" horiz-adv-x="0" 
d="M229 1497h56q0 -140 -80 -223q-76 -82 -205 -82q-128 0 -207 82q-80 83 -80 223h58q5 -110 64.5 -173.5t164.5 -63.5t164.5 63.5t64.5 173.5z" />
    <glyph glyph-name="uni0307" unicode="&#x307;" horiz-adv-x="0" 
d="M-51 1296q-23 23 -23 54.5t23 54.5q22 22 51 22t51 -22q23 -23 23 -54.5t-23 -54.5q-22 -22 -51 -22t-51 22z" />
    <glyph glyph-name="uni0308" unicode="&#x308;" horiz-adv-x="0" 
d="M-203 1296q-22 23 -22 54.5t22 54.5q22 22 52.5 22t52.5 -22q22 -23 22 -54.5t-22 -54.5q-22 -22 -52.5 -22t-52.5 22zM98 1296q-22 23 -22 54.5t22 54.5q22 22 52.5 22t52.5 -22q22 -23 22 -54.5t-22 -54.5q-22 -22 -52.5 -22t-52.5 22z" />
    <glyph glyph-name="uni030A" unicode="&#x30a;" horiz-adv-x="0" 
d="M-135 1208q-55 52 -55 133t55 136t135 55t135 -55t55 -136t-55 -133q-54 -57 -135 -57t-135 57zM0 1468q-54 0 -88.5 -35.5t-34.5 -91.5q0 -54 34.5 -89t88.5 -35t90 36q35 38 35 88q0 54 -37 91q-36 36 -88 36z" />
    <glyph glyph-name="uni030B" unicode="&#x30b;" horiz-adv-x="0" 
d="M-217 1192h-70l215 328h84zM55 1192h-67l213 328h86z" />
    <glyph glyph-name="uni030C" unicode="&#x30c;" horiz-adv-x="0" 
d="M-221 1501l221 -270l221 270h74l-254 -327h-82l-254 327h74z" />
    <glyph glyph-name="uni0312" unicode="&#x312;" horiz-adv-x="0" 
d="M76 1550v-47q-38 -19 -64.5 -51.5t-36.5 -65.5q-6 -19 -10 -61q18 12 45 12q31 0 51.5 -18.5t20.5 -48.5q0 -29 -22 -49.5t-52 -20.5q-43 0 -66.5 31t-23.5 82q0 68 41 139q41 68 117 98z" />
    <glyph glyph-name="uni0326" unicode="&#x326;" horiz-adv-x="0" 
d="M-76 -508v47q37 18 64 50.5t37 64.5q6 21 10 63q-21 -14 -45 -14q-31 0 -51.5 19.5t-20.5 48.5q0 30 22 50.5t52 20.5q43 0 66.5 -31t23.5 -83q0 -70 -41 -138t-117 -98z" />
    <glyph glyph-name="uni0327" unicode="&#x327;" horiz-adv-x="0" 
d="M-133 -461q-33 0 -57 8v64q14 -2 49 -2q125 0 191.5 67.5t66.5 194.5q0 53 -15 129h64q24 -58 24 -133q0 -195 -141 -281q-74 -47 -182 -47z" />
    <glyph glyph-name="uni0328" unicode="&#x328;" horiz-adv-x="0" 
d="M152 -393v-68q-36 -4 -54 -4q-105 0 -178 55q-72 60 -72 160q0 124 164 250h74q-66 -50 -113 -111q-49 -61 -49 -120q0 -58 33.5 -98t85.5 -54q53 -13 109 -10z" />
    <glyph glyph-name="Theta" unicode="&#x398;" horiz-adv-x="1691" 
d="M846 -16q-210 0 -379 102q-172 104 -262 276q-92 176 -92 383q0 155 53 297q53 135 151 244q96 103 234 162q137 61 297 61q210 0 379 -102q168 -101 260 -277q94 -175 94 -382q0 -208 -94 -383q-91 -174 -262 -277q-168 -104 -379 -104zM846 1438q-140 0 -264 -56
q-126 -57 -207 -147q-86 -95 -134 -221t-48 -262q0 -139 48 -266t134 -224q84 -92 209 -149q122 -58 266 -58q180 0 336 95q147 92 231 249q82 155 82 344q0 138 -47 265t-133 223q-82 91 -209 151q-124 56 -264 56zM358 725h973v74h-973v-74z" />
    <glyph glyph-name="uni03A9" unicode="&#x3a9;" horiz-adv-x="1658" 
d="M1456 799q0 173 -82 319t-227 234q-145 86 -318 86q-126 0 -242.5 -50t-201.5 -137q-86 -86 -134 -203.5t-48 -246.5q0 -235 123 -391q122 -156 350 -199v-211h-547v72h473v82q-234 59 -356 235q-123 178 -123 416q0 147 57 276q55 132 154 226q94 91 227 147
q128 55 273 55q188 0 348 -92q165 -96 258 -256q96 -154 96 -352q0 -160 -55 -294t-162 -228q-112 -96 -262 -133v-82h473v-72h-547v211q226 43 352 199q121 154 121 389z" />
    <glyph glyph-name="theta" unicode="&#x3b8;" horiz-adv-x="1382" 
d="M690 -14q-112 0 -208.5 45t-164.5 123q-61 70 -114 178q-90 193 -90 438q-3 170 50.5 336t153.5 283q68 79 165 124.5t208 45.5q115 0 211.5 -46t163.5 -123t114 -178.5t69 -212.5t22 -225q2 -171 -52 -337t-153 -281q-67 -80 -164.5 -125t-210.5 -45zM190 809h1000
q-3 146 -51.5 288.5t-132.5 241.5q-59 68 -141.5 107t-176.5 39q-142 0 -248 -82t-164 -219q-80 -173 -86 -375zM1190 741h-1000q5 -150 52.5 -292.5t132.5 -243.5q59 -70 141.5 -110t177.5 -40q94 0 176.5 40t141.5 110q58 73 96 157q79 171 82 379z" />
    <glyph glyph-name="pi" unicode="&#x3c0;" horiz-adv-x="1173" 
d="M1094 63v-71h-39q-140 0 -200 63.5t-60 204.5v690h-467v-950h-74v950h-223v68h1063v-68h-226l2 -682q0 -112 39 -157q41 -50 150 -50q2 0 14 1t21 1z" />
    <glyph glyph-name="uni0401" unicode="&#x401;" horiz-adv-x="1245" 
d="M457 1735q-22 22 -22 53.5t22 54.5q22 22 52 22t52 -22q22 -23 22 -54.5t-22 -53.5q-22 -23 -52 -23t-52 23zM776 1735q-22 24 -22.5 53.5t21.5 53.5t52 22q31 0 52.5 -22t21.5 -54q0 -31 -21.5 -53.5t-52.5 -22.5t-51 23zM221 1493h895v-72h-815v-622h752v-74h-752v-653
h825v-72h-905v1493z" />
    <glyph glyph-name="uni0402" unicode="&#x402;" horiz-adv-x="1562" 
d="M1010 -16q-103 0 -209 47l26 65q82 -39 187 -39q195 0 303 133q84 108 84 285q0 180 -107 293t-282 113q-151 0 -269 -47q-114 -48 -235 -154v-680h-78v1421h-387v72h999v-72h-534v-649q119 92 237 136t259 44q212 0 346 -125q131 -131 131 -350q0 -149 -64 -268
q-63 -111 -170 -168q-102 -57 -237 -57z" />
    <glyph glyph-name="uni0403" unicode="&#x403;" horiz-adv-x="1091" 
d="M604 1628h-69l215 330h86zM1036 1421h-737v-1421h-78v1493h815v-72z" />
    <glyph glyph-name="uni0404" unicode="&#x404;" horiz-adv-x="1607" 
d="M1448 502l72 -27q-43 -136 -150 -260q-54 -60 -131 -117q-76 -53 -179.5 -83.5t-217.5 -30.5q-163 0 -295 59q-137 59 -232 162q-96 102 -149 241t-53 293q0 156 53 301q55 141 151 244q94 105 234 164q137 61 295 61q107 0 208 -29.5t177 -78.5q69 -46 131 -115
q108 -119 145 -264l-71 -27q-22 98 -103 203q-56 73 -110 117q-56 48 -162 88q-103 35 -217 35q-178 0 -326 -86q-144 -84 -229 -232q-85 -146 -94 -321h768v-74h-773q3 -181 86 -332q83 -154 234 -246t336 -92q115 0 207 35q99 36 159 82q68 55 115 115q77 96 121 215z" />
    <glyph glyph-name="uni0405" unicode="&#x405;" horiz-adv-x="1218" 
d="M1100 399q2 -119 -65 -215.5t-178 -149t-239 -50.5q-101 0 -193 35t-159 96q-138 125 -162 297l74 20q21 -143 131 -256q54 -56 136 -88.5t178 -32.5q148 0 270 86q60 41 94.5 107.5t34.5 146.5q0 68 -25.5 124t-71 93.5t-100.5 62t-120 36.5l-213 41q-138 27 -236 104
q-113 89 -113 254q0 118 70 209q65 91 174 141q104 49 223 49q99 0 186.5 -33t145.5 -90q118 -112 143 -239l-71 -25q-10 56 -50.5 122.5t-105.5 115.5q-46 35 -112.5 56.5t-139.5 21.5q-97 0 -183.5 -40t-141.5 -114q-58 -76 -58 -170q0 -232 287 -289l213 -41
q102 -19 185.5 -67.5t137.5 -131.5t54 -186z" />
    <glyph glyph-name="uni0406" unicode="&#x406;" horiz-adv-x="522" 
d="M221 0v1493h80v-1493h-80z" />
    <glyph glyph-name="uni0407" unicode="&#x407;" horiz-adv-x="522" 
d="M84 1735q-23 22 -23 53.5t23 54.5q22 22 52 22t52 -22q22 -23 22 -54.5t-22 -53.5q-22 -23 -52 -23t-52 23zM377 1735q-22 24 -22.5 53.5t21.5 53.5t52 22q31 0 52.5 -22t21.5 -54q0 -31 -21.5 -53.5t-52.5 -22.5t-51 23zM221 0v1493h80v-1493h-80z" />
    <glyph glyph-name="uni0408" unicode="&#x408;" horiz-adv-x="1175" 
d="M532 -16q-211 0 -327 122q-117 120 -117 336v156h78v-149q0 -203 110 -299q103 -95 252 -95q166 0 265 111q98 107 98 274v1053h80v-1047q0 -203 -121 -333q-120 -129 -318 -129z" />
    <glyph glyph-name="uni0409" unicode="&#x409;" horiz-adv-x="2310" 
d="M518 1421l-88 -817q-18 -159 -76 -303q-41 -94 -78 -151q-46 -69 -111 -111.5t-134 -42.5h-8v72q60 0 114.5 40.5t91.5 106.5q35 61 64 145q49 141 63 275l90 858h840v-627l418 -2q112 0 207 -25t168.5 -74t115 -129.5t41.5 -184.5q0 -142 -69 -246q-70 -107 -189 -154
q-111 -51 -264 -51h-506v1421h-690zM1286 72h424q85 0 161 20t142 62t105 117.5t39 177.5q0 114 -55.5 188.5t-149.5 112.5q-107 43 -256 43h-410v-721z" />
    <glyph glyph-name="uni040A" unicode="&#x40a;" horiz-adv-x="2371" 
d="M221 1493h80v-662h969v662h80v-662h436q213 0 358 -92q73 -48 113.5 -126.5t40.5 -178.5q0 -108 -40.5 -192.5t-110.5 -136.5t-159 -78.5t-190 -26.5h-528v760h-969v-760h-80v1493zM1350 72h438q227 0 342 110q88 88 88 248q-3 221 -199 291q-108 39 -245 39h-424v-688z
" />
    <glyph glyph-name="uni040B" unicode="&#x40b;" horiz-adv-x="1589" 
d="M1401 0v510q0 158 -98 252q-96 96 -291 96q-151 0 -269 -47q-116 -49 -235 -156v-655h-78v1421h-387v72h999v-72h-534v-671q117 92 236 136t260 44q214 3 345.5 -107.5t131.5 -316.5v-506h-80z" />
    <glyph glyph-name="uni040C" unicode="&#x40c;" horiz-adv-x="1234" 
d="M668 1628h-70l215 330h86zM309 799l770 694h115l-797 -711l842 -782h-117l-813 758h-8v-758h-80v1493h80v-694h8z" />
    <glyph glyph-name="uni040E" unicode="&#x40e;" horiz-adv-x="1306" 
d="M1296 1493l-561 -1145q-76 -157 -184 -256q-117 -108 -293 -108q-62 0 -137 16v72q94 -15 131 -15q156 0 262 101q87 83 150 209l-641 1126h90l589 -1042l508 1042h86zM668 1649q-113 0 -192.5 73.5t-115.5 202.5l60 14q31 -105 94.5 -163t153.5 -58t152.5 58t94.5 163
l62 -14q-36 -130 -115.5 -203t-193.5 -73z" />
    <glyph glyph-name="uni040F" unicode="&#x40f;" horiz-adv-x="1546" 
d="M733 -307v307h-512v1493h78v-1421h946v1421h80v-1493h-512v-307h-80z" />
    <glyph glyph-name="uni0410" unicode="&#x410;" horiz-adv-x="1433" 
d="M14 0l660 1493h86l657 -1493h-84l-186 426h-864l-189 -426h-80zM1116 498l-403 909l-400 -909h803z" />
    <glyph glyph-name="uni0411" unicode="&#x411;" horiz-adv-x="1361" 
d="M301 840h444q226 0 371 -92q73 -48 113.5 -130t40.5 -186q0 -112 -39 -196.5t-109.5 -135t-162 -75.5t-203.5 -25h-535v1493h971v-72h-891v-581zM301 72h451q147 0 247 45q64 28 99 65q90 83 90 250q0 214 -201 295q-106 41 -250 41h-436v-696z" />
    <glyph glyph-name="uni0412" unicode="&#x412;" horiz-adv-x="1380" 
d="M221 1493h488q130 0 227.5 -32t153 -87t82 -119t26.5 -137q0 -96 -59 -194q-66 -109 -221 -156q87 -13 158 -53t112 -94q80 -113 80 -224q0 -173 -138 -286q-138 -111 -401 -111h-508v1493zM301 799h422q196 0 297 88q98 88 98 229q0 139 -104 221q-107 84 -307 84h-406
v-622zM301 72h432q217 0 336 88q119 87 119 237q0 147 -117 238q-119 90 -332 90h-438v-653z" />
    <glyph glyph-name="uni0413" unicode="&#x413;" horiz-adv-x="1091" 
d="M221 1493h815v-72h-737v-1421h-78v1493z" />
    <glyph glyph-name="uni0414" unicode="&#x414;" horiz-adv-x="1550" 
d="M1458 -307h-80v307h-1276v-307h-79v379h2q62 0 118.5 40.5t94.5 106.5q31 51 65 141q49 145 62 277l92 856h839v-1421h162v-379zM526 1421l-86 -817q-24 -230 -114 -387q-57 -97 -131 -145h1024v1349h-693z" />
    <glyph glyph-name="uni0415" unicode="&#x415;" horiz-adv-x="1245" 
d="M1116 1421h-815v-622h752v-74h-752v-653h825v-72h-905v1493h895v-72z" />
    <glyph glyph-name="uni0416" unicode="&#x416;" horiz-adv-x="1837" 
d="M782 782l-749 711h110l727 -696h9v696h79v-696h9l727 696h108l-747 -711l778 -782h-111l-753 760h-11v-760h-79v760h-11l-753 -760h-111z" />
    <glyph glyph-name="uni0417" unicode="&#x417;" horiz-adv-x="1208" 
d="M1104 418q0 -93 -42.5 -176t-113.5 -140q-71 -56 -162 -87t-184 -31h-18q-194 0 -334 116q-143 116 -170 301l74 21q24 -167 145 -268q120 -99 285 -99h20q148 0 283 97q63 44 100 114t37 150q0 148 -117 250q-123 110 -342 110h-80l-32 60l522 585h-862v72h956v-72
l-512 -573q131 0 229 -31q161 -57 244 -170q74 -95 74 -229z" />
    <glyph glyph-name="uni0418" unicode="&#x418;" horiz-adv-x="1585" 
d="M1268 1493h96v-1493h-80v1393l-965 -1393h-98v1493h80v-1391z" />
    <glyph glyph-name="uni0419" unicode="&#x419;" horiz-adv-x="1585" 
d="M1268 1493h96v-1493h-80v1393l-965 -1393h-98v1493h80v-1391zM793 1649q-113 0 -192.5 73.5t-115.5 202.5l60 14q31 -105 94.5 -163t153.5 -58t152.5 58t94.5 163l62 -14q-36 -130 -115.5 -203t-193.5 -73z" />
    <glyph glyph-name="uni041A" unicode="&#x41a;" horiz-adv-x="1234" 
d="M221 1493h80v-694h8l770 694h115l-797 -711l840 -782h-115l-813 758h-8v-758h-80v1493z" />
    <glyph glyph-name="uni041B" unicode="&#x41b;" horiz-adv-x="1507" 
d="M518 1421l-88 -817q-18 -159 -76 -303q-41 -94 -78 -151q-46 -69 -111 -111.5t-134 -42.5h-8v72q60 0 115 41t91 108q35 57 64 143q50 147 63 275l90 858h840v-1493h-78v1421h-690z" />
    <glyph glyph-name="uni041C" unicode="&#x41c;" horiz-adv-x="1964" 
d="M299 0h-78v1493h105l657 -1403l653 1403h105v-1493h-78v1380l-641 -1380h-80l-643 1374v-1374z" />
    <glyph glyph-name="uni041D" unicode="&#x41d;" horiz-adv-x="1570" 
d="M221 0v1493h80v-694h969v694h80v-1493h-80v725h-969v-725h-80z" />
    <glyph glyph-name="uni041E" unicode="&#x41e;" horiz-adv-x="1691" 
d="M846 -16q-210 0 -379 102q-172 104 -262 276q-92 176 -92 383q0 155 53 297q53 135 151 244q96 103 234 162q137 61 297 61q210 0 379 -102q168 -101 260 -277q94 -175 94 -382q0 -208 -94 -383q-91 -174 -262 -277q-168 -104 -379 -104zM846 1438q-140 0 -264 -56
q-126 -57 -207 -147q-86 -95 -134 -221t-48 -262q0 -139 48 -266t134 -224q84 -92 209 -149q122 -58 266 -58q180 0 336 95q147 92 231 249q82 155 82 344q0 138 -47 265t-133 223q-82 91 -209 151q-124 56 -264 56z" />
    <glyph glyph-name="uni041F" unicode="&#x41f;" horiz-adv-x="1546" 
d="M221 0v1493h1104v-1493h-80v1421h-944v-1421h-80z" />
    <glyph glyph-name="uni0420" unicode="&#x420;" horiz-adv-x="1263" 
d="M221 1493h422q338 0 469 -186q76 -105 76 -248q0 -93 -33.5 -172.5t-100 -141.5t-176.5 -97.5t-253 -35.5h-324v-612h-80v1493zM301 686h326q256 0 374 115q109 103 109 254q0 188 -152 291q-115 75 -323 75h-334v-735z" />
    <glyph glyph-name="uni0421" unicode="&#x421;" horiz-adv-x="1601" 
d="M1448 502l72 -27q-43 -136 -150 -260q-54 -60 -131 -117q-76 -53 -179.5 -83.5t-217.5 -30.5q-157 -1 -294 59t-231.5 162.5t-149 242.5t-54.5 297q0 155 53 297q53 135 151 244q96 103 234 162q137 61 295 61q217 0 385 -108q69 -46 131 -115q108 -119 145 -264l-71 -27
q-22 98 -103 203q-56 73 -110 117q-56 48 -162 88q-103 35 -217 35q-188 0 -336 -95q-151 -92 -234 -249q-81 -153 -81 -342q0 -193 81 -346q79 -157 232 -254q147 -97 340 -97q286 0 467 213q62 70 108 164q25 63 27 70z" />
    <glyph glyph-name="uni0422" unicode="&#x422;" horiz-adv-x="1167" 
d="M45 1421v72h1075v-72h-493v-1421h-78v1421h-504z" />
    <glyph glyph-name="uni0423" unicode="&#x423;" horiz-adv-x="1306" 
d="M1296 1493l-561 -1145q-76 -157 -184 -256q-117 -108 -293 -108q-62 0 -137 16v72q94 -15 131 -15q156 0 262 101q87 83 150 209l-641 1126h90l589 -1042l508 1042h86z" />
    <glyph glyph-name="uni0424" unicode="&#x424;" horiz-adv-x="1773" 
d="M848 109h-37q-208 -3 -372.5 75.5t-256.5 226.5t-90 339q0 141 52 260.5t147 203.5q97 84 230.5 130.5t289.5 46.5h37v149h78v-149h37q156 0 289.5 -46.5t228.5 -130.5q96 -84 147 -203t51 -261q0 -191 -90 -340q-92 -148 -254 -224q-160 -77 -372 -77h-37v-156h-78v156z
M848 1319h-37q-287 0 -463 -156q-174 -155 -174 -413q-2 -168 80 -299.5t228 -202.5t329 -68h37v1139zM926 180h37q183 -3 328.5 68t227.5 202.5t80 299.5q0 257 -176 413q-173 156 -460 156h-37v-1139z" />
    <glyph glyph-name="uni0425" unicode="&#x425;" horiz-adv-x="1314" 
d="M610 762l-563 731h92l516 -676l521 676h92l-563 -731l585 -762h-92l-543 707l-540 -707h-92z" />
    <glyph glyph-name="uni0426" unicode="&#x426;" horiz-adv-x="1579" 
d="M1407 0h-1186v1493h78v-1421h946v1421h80v-1421h160v-379h-78v307z" />
    <glyph glyph-name="uni0427" unicode="&#x427;" horiz-adv-x="1398" 
d="M1098 0v709q-96 -57 -242 -105q-140 -49 -258 -49q-237 0 -358 107.5t-121 304.5v526h78v-528q0 -163 103 -251.5t292 -88.5q111 0 248 49q141 46 258 114v705h80v-1493h-80z" />
    <glyph glyph-name="uni0428" unicode="&#x428;" horiz-adv-x="2318" 
d="M2097 0h-1876v1493h78v-1421h821v1421h78v-1421h819v1421h80v-1493z" />
    <glyph glyph-name="uni0429" unicode="&#x429;" horiz-adv-x="2351" 
d="M2179 0h-1958v1493h78v-1421h821v1421h78v-1421h819v1421h80v-1421h162v-379h-80v307z" />
    <glyph glyph-name="uni042A" unicode="&#x42a;" horiz-adv-x="1495" 
d="M471 864h418q232 0 375 -98q157 -109 157 -315q0 -142 -69 -246q-74 -108 -189 -154q-114 -51 -264 -51h-508v1421h-362v72h442v-629zM471 72h424q67 0 129 11.5t120.5 40t101.5 70.5t69 107.5t26 147.5q0 219 -204 301q-107 43 -256 43h-410v-721z" />
    <glyph glyph-name="uni042B" unicode="&#x42b;" horiz-adv-x="1882" 
d="M301 864h418q229 0 375 -98q155 -108 155 -315q0 -146 -69 -246q-70 -108 -187 -154q-114 -51 -264 -51h-508v1493h80v-629zM1581 0v1493h78v-1493h-78zM301 72h424q67 0 129 11.5t120 40t100.5 70.5t68.5 107.5t26 147.5q0 220 -204 301q-107 43 -254 43h-410v-721z" />
    <glyph glyph-name="uni042C" unicode="&#x42c;" horiz-adv-x="1325" 
d="M301 864h418q229 0 375 -98q155 -108 155 -315q0 -146 -69 -246q-70 -108 -187 -154q-114 -51 -264 -51h-508v1493h80v-629zM301 72h424q67 0 129 11.5t120 40t100.5 70.5t68.5 107.5t26 147.5q0 220 -204 301q-107 43 -254 43h-410v-721z" />
    <glyph glyph-name="uni042D" unicode="&#x42d;" horiz-adv-x="1607" 
d="M772 1509q210 0 377 -102t258 -277q90 -178 90 -389q0 -203 -92 -376q-88 -175 -258 -277q-168 -104 -377 -104q-114 0 -217.5 30.5t-179.5 83.5q-67 48 -133 117q-110 127 -152 260l72 27q30 -84 94 -176q33 -53 84 -101q183 -175 434 -170q164 -1 301 74.5t223 204.5
q118 172 121 391h-772v74h770q-9 176 -92 321q-82 143 -227 232q-145 86 -324 86q-162 0 -295 -68q-115 -62 -186 -153q-99 -125 -119 -222l-72 27q24 101 99.5 203.5t185.5 173.5q75 51 177 80.5t210 29.5z" />
    <glyph glyph-name="uni042E" unicode="&#x42e;" horiz-adv-x="2146" 
d="M1329 1509q154 0 287 -59q135 -63 223 -164q92 -104 143.5 -243.5t51.5 -294.5q0 -211 -88 -383q-89 -177 -250 -277q-162 -104 -371 -104q-149 0 -280 56.5t-222 156.5q-91 99 -143.5 230.5t-58.5 281.5h-320v-709h-80v1493h80v-713h320q4 149 57.5 283t146.5 233
q83 93 222 156q136 57 282 57zM1329 55q134 0 253 55t200 150q81 96 126.5 221t45.5 262q0 185 -78 344q-77 159 -221 254q-148 97 -328 97q-182 0 -330 -97q-144 -92 -221 -251q-78 -159 -78 -347q0 -181 80 -344q79 -156 226 -249q145 -95 325 -95z" />
    <glyph glyph-name="uni042F" unicode="&#x42f;" horiz-adv-x="1335" 
d="M1034 612h-368l-4 2l-478 -614h-102l487 621q-215 27 -327 145q-113 116 -113 297q-3 94 41 184t133 152q137 94 365 94h446v-1493h-80v612zM1034 1421h-360q-153 0 -255.5 -45t-150.5 -121q-61 -89 -61 -200q0 -54 15.5 -104.5t52 -99.5t90.5 -85t136.5 -58t184.5 -22
h348v735z" />
    <glyph glyph-name="uni0430" unicode="&#x430;" horiz-adv-x="1077" 
d="M449 -18q-149 0 -244 77q-99 77 -99 213q0 74 35 132t94 91.5t127 50.5t142 17h332v72q0 155 -81.5 242.5t-230.5 87.5q-192 -3 -274 -129q-41 -57 -55 -134l-72 17q7 69 61 149q29 45 72 82q45 38 115.5 62t150.5 24q178 0 283 -102q106 -106 106 -293v-287
q0 -252 15 -354h-74q-7 29 -10 104q-6 79 -6 121q-59 -118 -162 -178q-106 -65 -225 -65zM838 496h-330q-121 0 -215 -47q-51 -27 -80 -72.5t-29 -102.5q0 -106 76 -161q72 -60 191 -60q158 -3 273 100.5t114 264.5v78z" />
    <glyph glyph-name="uni0431" unicode="&#x431;" horiz-adv-x="1271" 
d="M1116 1452l-393 -100q-234 -64 -340 -170q-44 -44 -67.5 -75.5t-41.5 -74.5q-23 -53 -32.5 -82.5t-16.5 -77.5q-2 -17 -5.5 -42.5t-4.5 -34.5q0 -14 -4 -76h2q59 158 180 233q121 80 273 80q99 0 189.5 -37t160.5 -104q71 -69 111 -167t40 -210q0 -237 -145 -385.5
t-367 -148.5q-148 0 -270 75q-123 74 -184 213q-54 119 -54 322q0 125 11 235q8 75 16 107q22 112 66 184q62 110 178.5 186.5t308.5 124.5l369 93zM657 963q-193 0 -313 -129q-121 -127 -121 -322q-2 -94 29.5 -178.5t88 -147t139 -98.5t177.5 -35q194 0 316 131
q121 130 121 326q1 97 -34.5 182.5t-95 145.5t-140 93.5t-167.5 31.5z" />
    <glyph glyph-name="uni0432" unicode="&#x432;" horiz-adv-x="1144" 
d="M182 1018h469q128 0 226 -55q106 -63 106 -197q0 -102 -55 -160q-46 -46 -117 -76q96 -26 164 -90q63 -63 63 -164q0 -120 -96 -198q-101 -78 -268 -78h-492v1018zM256 557h389q150 0 209 72q53 64 53 137q0 85 -66.5 134.5t-187.5 49.5h-397v-393zM256 70h412
q138 0 213 57q82 57 82 160q0 94 -81 148t-241 54h-385v-419z" />
    <glyph glyph-name="uni0433" unicode="&#x433;" horiz-adv-x="866" 
d="M827 1018v-68h-571v-950h-74v1018h645z" />
    <glyph glyph-name="uni0434" unicode="&#x434;" horiz-adv-x="1249" 
d="M1151 -315h-74v315h-946v-315h-76v385h11q49 0 90 39t67 104q43 117 56 225l63 580h690v-950h119v-383zM410 950l-58 -526q-12 -110 -51 -205q-36 -94 -102 -151h757v882h-546z" />
    <glyph glyph-name="uni0435" unicode="&#x435;" horiz-adv-x="1157" 
d="M1059 496h-877q2 -118 56 -218t151 -161q101 -64 223 -64q137 0 238 78q97 75 135 191l70 -21q-47 -143 -164 -229q-119 -88 -283 -88q-142 0 -260 71q-113 68 -180 193q-66 123 -66 262v4q0 99 38 195.5t104 169.5q66 72 158.5 114.5t191.5 42.5q118 0 210.5 -43.5
t147.5 -120.5q107 -149 107 -360q3 -10 0 -16zM182 563h799q-3 58 -17 112.5t-44 108t-73.5 93t-109.5 64t-147 24.5q-105 0 -197 -56q-92 -57 -149 -151q-56 -93 -62 -195z" />
    <glyph glyph-name="uni0436" unicode="&#x436;" horiz-adv-x="1443" 
d="M1290 1018h109l-549 -473l565 -545h-106l-541 524h-8v-524h-74v524h-8l-541 -524h-106l563 545l-547 473h107l524 -457h8v457h74v-457h8z" />
    <glyph glyph-name="uni0437" unicode="&#x437;" horiz-adv-x="978" 
d="M469 600h16q94 0 175 -29t133 -79q86 -86 86 -195q0 -139 -117 -225q-115 -87 -287 -90q-152 0 -262 84q-110 82 -137 221l71 22q24 -124 117 -190q87 -66 211 -66q115 0 215 56q51 28 81 76.5t30 107.5q0 108 -94 174q-95 65 -222 65h-98l-31 52l402 366h-643v68h735
v-70z" />
    <glyph glyph-name="uni0438" unicode="&#x438;" horiz-adv-x="1222" 
d="M256 1018v-907l711 907h75v-1018h-75v909l-711 -909h-74v1018h74z" />
    <glyph glyph-name="uni0439" unicode="&#x439;" horiz-adv-x="1222" 
d="M256 1018v-907l711 907h75v-1018h-75v909l-711 -909h-74v1018h74zM610 1192q-113 0 -193 73.5t-114 202.5l59 13q31 -105 94.5 -163t153.5 -58t153.5 58t94.5 163l62 -13q-38 -130 -117.5 -203t-192.5 -73z" />
    <glyph glyph-name="uni043A" unicode="&#x43a;" horiz-adv-x="968" 
d="M821 1016h111l-584 -471l610 -545h-110l-584 524h-8v-524h-74v1016h74v-455h8z" />
    <glyph glyph-name="uni043B" unicode="&#x43b;" horiz-adv-x="1185" 
d="M383 950l-57 -524q-14 -157 -78 -287q-33 -67 -87 -105t-120 -38h-4v72q43 0 80.5 26.5t62.5 69.5q24 47 37 94q25 83 35 180l63 580h689v-1018h-74v950h-547z" />
    <glyph glyph-name="uni043C" unicode="&#x43c;" horiz-adv-x="1503" 
d="M254 0h-72v1018h90l482 -946l475 946h92v-1018h-74v909l-452 -909h-82l-459 903v-903z" />
    <glyph glyph-name="uni043D" unicode="&#x43d;" horiz-adv-x="1210" 
d="M182 0v1018h74v-455h698v455h74v-1018h-74v496h-698v-496h-74z" />
    <glyph glyph-name="uni043E" unicode="&#x43e;" horiz-adv-x="1249" 
d="M625 -16q-142 -3 -263.5 67t-191.5 191.5t-68 263.5q0 107 40 206.5t110 170.5t168 112t205 41q142 3 263 -67.5t190.5 -192.5t66.5 -264q3 -143 -65 -265.5t-189.5 -194t-265.5 -68.5zM850 903q-103 62 -227 62q-123 0 -228 -60q-101 -61 -157 -164.5t-56 -228.5
q-3 -122 55 -228.5t162 -169.5t226 -61q189 0 317 131q125 131 125 324q0 126 -57 229.5t-160 165.5z" />
    <glyph glyph-name="uni043F" unicode="&#x43f;" horiz-adv-x="1189" 
d="M182 0v1018h826v-1018h-74v950h-678v-950h-74z" />
    <glyph glyph-name="uni0440" unicode="&#x440;" horiz-adv-x="1280" 
d="M256 1018v-277q55 131 168 213t260 82q145 0 258 -73q112 -72 174 -193t62 -260q0 -103 -35 -198.5t-99 -168.5q-64 -74 -158.5 -116.5t-201.5 -42.5q-149 0 -262 82q-115 85 -166 208v-776h-74v1520h74zM680 57q188 0 305 129q115 127 115 322v2q0 192 -117 321
q-117 132 -303 132q-124 0 -225 -64q-102 -70 -150 -168q-53 -103 -53 -219v-4q0 -120 54 -222.5t153 -164.5q98 -64 221 -64z" />
    <glyph glyph-name="uni0441" unicode="&#x441;" horiz-adv-x="1175" 
d="M614 -18q-104 0 -198.5 40.5t-163.5 110.5q-69 72 -109.5 170t-40.5 203q0 146 70 268q69 122 186 191q113 71 258 71q163 0 299 -94q127 -93 168 -229l-69 -25q-10 43 -51.5 101t-104.5 104q-104 72 -244 72q-123 0 -221 -64q-99 -60 -155 -166t-56 -223
q0 -119 55.5 -223t155.5 -168q103 -68 223 -68q143 0 244 76q36 25 76 72q59 72 78 137l71 -25q-49 -135 -157 -225q-125 -106 -314 -106z" />
    <glyph glyph-name="uni0442" unicode="&#x442;" horiz-adv-x="907" 
d="M35 950v68h837v-68h-378v-950h-80v950h-379z" />
    <glyph glyph-name="uni0443" unicode="&#x443;" horiz-adv-x="1101" 
d="M133 1018l434 -877l416 877h80l-723 -1520h-80l266 561l-477 959h84z" />
    <glyph glyph-name="uni0444" unicode="&#x444;" horiz-adv-x="1648" 
d="M786 -465v569q-117 -120 -266 -120q-190 0 -299 145q-110 143 -110 385q-5 229 107 376t302 146q147 0 266 -125v582h74v-582q119 125 266 125q192 0 304 -145q108 -144 108 -381t-111 -381q-109 -145 -301 -145q-152 0 -266 120v-569h-74zM786 178v664
q-121 121 -260 121q-70 0 -127 -26t-95.5 -70.5t-65 -103.5t-38.5 -123.5t-12 -133.5q0 -88 19 -166t57.5 -143.5t105.5 -103.5t156 -38q146 0 260 123zM860 842v-664q114 -123 262 -123q87 0 154 37.5t106 104.5q76 131 76 315q0 85 -19.5 162.5t-58 143.5t-105.5 105.5
t-153 39.5q-138 0 -262 -121z" />
    <glyph glyph-name="uni0445" unicode="&#x445;" horiz-adv-x="1015" 
d="M43 0l420 518l-404 500h93l356 -447l360 447h88l-403 -498l420 -520h-92l-373 467l-377 -467h-88z" />
    <glyph glyph-name="uni0446" unicode="&#x446;" horiz-adv-x="1224" 
d="M934 68v950h74v-950h120v-383h-73v315h-873v1018h74v-950h678z" />
    <glyph glyph-name="uni0447" unicode="&#x447;" horiz-adv-x="1071" 
d="M815 0v432q-73 -39 -170 -70q-98 -34 -205 -34q-160 0 -249 76.5t-89 222.5v391h76v-391q0 -119 74 -173.5t188 -54.5q88 0 197 31q110 36 178 82v506h76v-1018h-76z" />
    <glyph glyph-name="uni0448" unicode="&#x448;" horiz-adv-x="1761" 
d="M182 1018h74v-950h594v950h74v-950h581v950h76v-1018h-1399v1018z" />
    <glyph glyph-name="uni0449" unicode="&#x449;" horiz-adv-x="1798" 
d="M1626 0h-1444v1018h74v-950h594v950h74v-950h581v950h76v-950h119v-383h-74v315z" />
    <glyph glyph-name="uni044A" unicode="&#x44a;" horiz-adv-x="1257" 
d="M412 621h387q177 0 284 -78q103 -80 103 -219q0 -142 -99 -234q-101 -90 -268 -90h-481v950h-301v68h375v-397zM412 68h393q150 0 227 71q76 70 76 183q0 106 -80.5 168.5t-228.5 62.5h-387v-485z" />
    <glyph glyph-name="uni044B" unicode="&#x44b;" horiz-adv-x="1538" 
d="M256 621h387q176 0 283 -78q102 -79 102 -219q0 -144 -98 -232q-100 -92 -268 -92h-480v1018h74v-397zM1358 0h-76v1018h76v-1018zM256 68h393q151 0 228 71q75 72 75 183q0 106 -81.5 168.5t-229.5 62.5h-385v-485z" />
    <glyph glyph-name="uni044C" unicode="&#x44c;" horiz-adv-x="1099" 
d="M256 621h387q176 0 283 -78q102 -79 102 -219q0 -144 -98 -232q-100 -92 -268 -92h-480v1018h74v-397zM256 68h393q151 0 228 71q75 72 75 183q0 106 -81.5 168.5t-229.5 62.5h-385v-485z" />
    <glyph glyph-name="uni044D" unicode="&#x44d;" horiz-adv-x="1175" 
d="M567 1036q102 0 195.5 -39t161.5 -108q68 -70 107.5 -169t39.5 -208q0 -104 -39 -202t-106 -171q-69 -72 -165 -114.5t-198 -42.5q-186 0 -315 104q-117 97 -158 227l70 25q24 -72 80 -137q48 -52 77 -72q104 -76 246 -76q115 0 221 64q102 66 152 164q54 99 57 215h-549
v67h547q-18 168 -137 287q-118 115 -289 115q-102 0 -185 -39t-134 -99q-64 -67 -82 -139l-72 23q48 142 176 231q128 94 299 94z" />
    <glyph glyph-name="uni044E" unicode="&#x44e;" horiz-adv-x="1613" 
d="M1010 1036q141 2 257.5 -69t181 -192.5t62.5 -264.5q3 -219 -144.5 -374.5t-358.5 -151.5q-203 -3 -348.5 139.5t-151.5 353.5h-252v-477h-74v1018h74v-469h252q15 211 158 348q139 139 344 139zM1010 53q117 -2 216 60.5t154.5 168t53.5 228.5q0 192 -123 324
q-122 131 -305 131q-180 0 -300 -133t-120 -322q0 -123 54.5 -227.5t152.5 -165.5q98 -64 217 -64z" />
    <glyph glyph-name="uni044F" unicode="&#x44f;" horiz-adv-x="1116" 
d="M88 0l326 408q-127 21 -211 102q-86 80 -86 205q0 136 100 219q104 84 272 84h445v-1018h-74v401h-364l-316 -401h-92zM860 950h-368q-159 0 -232 -76q-65 -68 -65 -161q0 -90 71 -164q77 -80 232 -80h362v481z" />
    <glyph glyph-name="uni0451" unicode="&#x451;" horiz-adv-x="1157" 
d="M387 1296q-22 23 -22 54.5t22 54.5q22 22 52.5 22t52.5 -22q22 -23 22 -54.5t-22 -54.5q-22 -22 -52.5 -22t-52.5 22zM686 1296q-22 23 -22 54.5t22 54.5q23 22 53.5 22t53.5 -22q22 -23 22 -54.5t-22 -54.5q-23 -22 -53.5 -22t-53.5 22zM1059 496h-877q2 -118 56 -218
t151 -161q101 -64 223 -64q137 0 238 78q97 75 135 191l70 -21q-47 -143 -164 -229q-119 -88 -283 -88q-142 0 -260 71q-113 68 -180 193q-66 123 -66 262v4q0 99 38 195.5t104 169.5q66 72 158.5 114.5t191.5 42.5q118 0 210.5 -43.5t147.5 -120.5q107 -149 107 -360
q3 -10 0 -16zM182 563h799q-3 58 -17 112.5t-44 108t-73.5 93t-109.5 64t-147 24.5q-105 0 -197 -56q-92 -57 -149 -151q-56 -93 -62 -195z" />
    <glyph glyph-name="uni0452" unicode="&#x452;" horiz-adv-x="1148" 
d="M625 1036q190 0 297 -116q106 -118 106 -308v-688q0 -192 -106 -307q-107 -119 -297 -119q-97 0 -185 39l25 66q67 -33 166 -33q153 0 237 100q86 103 86 267v661q0 171 -90 272q-92 95 -250 95q-150 0 -254 -107q-104 -110 -104 -274v-584h-74v1251h-151v70h151v233h74
v-233h389v-70h-389v-458q44 113 143 178q100 65 226 65z" />
    <glyph glyph-name="uni0453" unicode="&#x453;" horiz-adv-x="866" 
d="M461 1192h-70l215 328h86zM827 1018v-68h-571v-950h-74v1018h645z" />
    <glyph glyph-name="uni0454" unicode="&#x454;" horiz-adv-x="1175" 
d="M1016 338l69 -25q-45 -134 -157 -227q-58 -48 -140 -76t-174 -28q-138 0 -258 69q-119 70 -184 191q-70 119 -70 260q0 144 70 272q66 121 186 193q115 69 258 69q164 0 297 -94q130 -93 168 -231l-67 -23q-10 44 -52 102.5t-104 102.5q-104 72 -244 72q-169 0 -290 -115
q-123 -123 -140 -287h547v-67h-551q3 -115 60 -215t157 -164q103 -64 219 -64q71 0 136 21t108 55q31 22 78 72q52 62 78 137z" />
    <glyph glyph-name="uni0455" unicode="&#x455;" horiz-adv-x="944" 
d="M125 760q0 85 51 151q53 65 129 95q73 30 158 30q134 0 235 -67q105 -72 125 -195l-69 -20q-21 101 -101 157q-77 54 -192 54q-142 0 -219 -91q-41 -50 -41 -112q0 -78 55 -127q56 -49 133 -64l193 -36q118 -24 186 -101q70 -76 70 -170q0 -66 -30 -122t-81 -91
q-106 -67 -238 -67q-155 0 -258 75q-106 74 -133 220l74 18q20 -119 104 -181.5t216 -62.5q141 0 227 92q43 49 43 117q0 74 -53.5 129t-147.5 74l-192 37q-100 18 -172 90q-72 69 -72 168z" />
    <glyph glyph-name="uni0456" unicode="&#x456;" horiz-adv-x="438" 
d="M168 1317q-23 22 -23 53t23 53q22 23 52 23t52 -23q22 -22 22 -53t-22 -53q-22 -23 -52 -23t-52 23zM256 0h-74v1018h74v-1018z" />
    <glyph glyph-name="uni0457" unicode="&#x457;" horiz-adv-x="440" 
d="M20 1296q-23 23 -23 54.5t23 54.5q22 22 52.5 22t52.5 -22q22 -23 22 -54.5t-22 -54.5q-22 -22 -52.5 -22t-52.5 22zM319 1296q-22 23 -22 54.5t22 54.5q22 22 53 22t54 -22q22 -23 22 -54.5t-22 -54.5q-23 -22 -54 -22t-53 22zM258 0h-76v1018h76v-1018z" />
    <glyph glyph-name="uni0458" unicode="&#x458;" horiz-adv-x="452" 
d="M182 1317q-22 22 -22 53t22 53q22 23 52 23t53 -23q22 -22 22 -53t-22 -53q-23 -23 -53 -23t-52 23zM197 -242v1260h73v-1254q0 -272 -258 -272q-35 0 -67 4v70q28 -4 61 -4q54 0 93.5 17t59.5 46.5t29 62t9 70.5z" />
    <glyph glyph-name="uni0459" unicode="&#x459;" horiz-adv-x="1849" 
d="M383 950l-57 -524q-14 -157 -78 -287q-33 -67 -87 -105t-120 -38h-4v72q43 0 80.5 26.5t62.5 69.5q24 47 37 94q25 83 35 180l63 580h689v-397h389q175 0 282 -78q103 -80 103 -219q0 -142 -99 -234q-101 -90 -268 -90h-481v950h-547zM1004 68h393q150 0 227 71
q76 70 76 183q0 106 -80.5 168.5t-228.5 62.5h-387v-485z" />
    <glyph glyph-name="uni045A" unicode="&#x45a;" horiz-adv-x="1871" 
d="M182 1018h74v-426h698v426h74v-426h389q183 0 284 -73t101 -210q0 -143 -98 -225q-101 -84 -270 -84h-480v524h-698v-524h-74v1018zM1028 68h393q150 0 226.5 63.5t76.5 175.5q0 106 -79 161.5t-232 55.5h-385v-456z" />
    <glyph glyph-name="uni045B" unicode="&#x45b;" 
d="M954 0v598q0 171 -90 272q-92 95 -250 95q-150 0 -254 -107t-104 -274v-584h-74v1251h-151v70h151v233h74v-233h389v-70h-389v-458q41 112 141 178q103 65 228 65q190 0 297 -116q106 -118 106 -308v-612h-74z" />
    <glyph glyph-name="uni045C" unicode="&#x45c;" horiz-adv-x="968" 
d="M524 1192h-67l215 328h86zM819 1016h113l-584 -471l610 -545h-112l-582 524h-8v-524h-74v1016h74v-455h8z" />
    <glyph glyph-name="uni045E" unicode="&#x45e;" horiz-adv-x="1101" 
d="M750 1268q-82 -76 -195 -76q-114 0 -193 76q-80 74 -114 198l63 17q31 -107 93 -165t151 -58q178 0 244 223l65 -17q-38 -128 -114 -198zM133 1018l434 -877l416 877h80l-723 -1520h-80l266 561l-477 959h84z" />
    <glyph glyph-name="uni045F" unicode="&#x45f;" horiz-adv-x="1189" 
d="M557 -315v315h-375v1018h74v-950h678v950h74v-1018h-375v-315h-76z" />
    <glyph glyph-name="uni0490" unicode="&#x490;" horiz-adv-x="1091" 
d="M958 1493v285h78v-357h-737v-1421h-78v1493h737z" />
    <glyph glyph-name="uni0491" unicode="&#x491;" horiz-adv-x="866" 
d="M754 1018v293h73v-361h-571v-950h-74v1018h572z" />
    <glyph glyph-name="uni0496" unicode="&#x496;" horiz-adv-x="1861" 
d="M1767 -307v307h-45l-753 760h-11v-760h-79v760h-11l-753 -760h-111l778 782l-749 711h110l727 -696h9v696h79v-696h9l727 696h108l-747 -711l706 -710h84v-379h-78z" />
    <glyph glyph-name="uni0497" unicode="&#x497;" horiz-adv-x="1470" 
d="M1352 -315v315h-43l-541 524h-8v-524h-74v524h-8l-541 -524h-106l563 545l-547 473h107l524 -457h8v457h74v-457h8l522 457h109l-549 -473l493 -477h84v-383h-75z" />
    <glyph glyph-name="uni0498" unicode="&#x498;" horiz-adv-x="1208" 
d="M549 -307v293q-183 9 -311 125q-131 110 -158 290l74 21q24 -167 145 -268q120 -99 285 -99h20q148 0 283 97q63 44 100 114t37 150q0 148 -117 250q-123 110 -342 110h-80l-32 60l522 585h-862v72h956v-72l-512 -573q131 0 229 -31q161 -57 244 -170q74 -95 74 -229
q0 -120 -70 -221q-66 -96 -174 -152q-103 -53 -233 -59v-293h-78z" />
    <glyph glyph-name="uni0499" unicode="&#x499;" horiz-adv-x="978" 
d="M469 600h16q94 0 175 -29t133 -79q86 -86 86 -195q0 -133 -107 -217q-107 -87 -260 -96v-299h-74v299q-139 9 -239 92q-98 79 -123 211l71 22q24 -124 117 -190q87 -66 211 -66q115 0 215 56q51 28 81 76.5t30 107.5q0 108 -94 174q-95 65 -222 65h-98l-31 52l402 366
h-643v68h735v-70z" />
    <glyph glyph-name="uni049A" unicode="&#x49a;" horiz-adv-x="1284" 
d="M1204 -307v307h-82l-813 758h-8v-758h-80v1493h80v-694h8l770 694h115l-797 -711l762 -710h123v-379h-78z" />
    <glyph glyph-name="uni049B" unicode="&#x49b;" horiz-adv-x="1019" 
d="M928 -315v315h-80l-584 524h-8v-524h-74v1016h74v-455h8l557 455h111l-584 -471l533 -477h120v-383h-73z" />
    <glyph glyph-name="uni04A2" unicode="&#x4a2;" horiz-adv-x="1603" 
d="M1432 -307v307h-162v725h-969v-725h-80v1493h80v-694h969v694h80v-1421h159v-379h-77z" />
    <glyph glyph-name="uni04A3" unicode="&#x4a3;" horiz-adv-x="1247" 
d="M1075 -315v315h-121v496h-698v-496h-74v1018h74v-455h698v455h74v-950h121v-383h-74z" />
    <glyph glyph-name="uni04AA" unicode="&#x4aa;" horiz-adv-x="1601" 
d="M801 -307v291q-201 9 -357 114q-162 107 -245 275q-86 170 -86 372q0 155 53 297q53 135 151 244q96 103 234 162q137 61 295 61q217 0 385 -108q69 -46 131 -115q108 -119 145 -264l-71 -27q-22 98 -103 203q-56 73 -110 117q-56 48 -162 88q-103 35 -217 35
q-188 0 -336 -95q-151 -92 -234 -249q-81 -153 -81 -342q0 -193 81 -346q79 -157 232 -254q147 -97 340 -97q286 0 467 213q62 70 108 164q25 63 27 70l72 -27q-44 -137 -144 -250q-49 -59 -125 -116q-157 -116 -370 -125v-291h-80z" />
    <glyph glyph-name="uni04AB" unicode="&#x4ab;" horiz-adv-x="1175" 
d="M651 -16v-299h-76v299q-199 15 -335 163q-138 153 -138 359q0 146 70 268q69 122 186 191q113 71 258 71q163 0 299 -94q127 -93 168 -229l-69 -25q-10 43 -51.5 101t-104.5 104q-104 72 -244 72q-123 0 -221 -64q-99 -60 -155 -166t-56 -223q0 -119 55.5 -223
t155.5 -168q103 -68 223 -68q143 0 244 76q36 25 76 72q59 72 78 137l71 -25q-45 -129 -147 -217q-114 -103 -287 -112z" />
    <glyph glyph-name="uni04AC" unicode="&#x4ac;" horiz-adv-x="1167" 
d="M631 -307v307h-82v1421h-504v72h1075v-72h-493v-1349h82v-379h-78z" />
    <glyph glyph-name="uni04AD" unicode="&#x4ad;" horiz-adv-x="911" 
d="M539 -315v315h-125v950h-379v68h837v-68h-378v-882h120v-383h-75z" />
    <glyph glyph-name="uni04B2" unicode="&#x4b2;" horiz-adv-x="1372" 
d="M1280 -307v307h-82l-543 707l-540 -707h-92l587 762l-563 731h92l516 -676l521 676h92l-563 -731l532 -690h123v-379h-80z" />
    <glyph glyph-name="uni04B3" unicode="&#x4b3;" horiz-adv-x="1075" 
d="M963 -315v315h-82l-373 467l-377 -467h-88l420 518l-404 500h93l356 -447l360 447h88l-403 -498l365 -452h120v-383h-75z" />
    <glyph glyph-name="uni04B6" unicode="&#x4b6;" horiz-adv-x="1431" 
d="M1260 0h-162v709q-96 -57 -242 -105q-140 -49 -258 -49q-237 0 -358 107.5t-121 304.5v526h78v-528q0 -163 103 -251.5t292 -88.5q111 0 248 49q141 46 258 114v705h80v-1421h161v-379h-79v307z" />
    <glyph glyph-name="uni04B7" unicode="&#x4b7;" horiz-adv-x="1105" 
d="M936 -315v315h-121v432q-82 -45 -184 -74q-105 -30 -191 -30q-154 0 -245 73q-93 75 -93 226v391h76v-391q0 -114 69 -171t193 -57q90 0 195 31q95 27 180 82v506h76v-950h119v-383h-74z" />
    <glyph glyph-name="uni04C0" unicode="&#x4c0;" horiz-adv-x="522" 
d="M221 0v1493h80v-1493h-80z" />
    <glyph glyph-name="uni04C1" unicode="&#x4c1;" horiz-adv-x="1837" 
d="M782 782l-749 711h110l727 -696h9v696h79v-696h9l727 696h108l-747 -711l778 -782h-111l-753 760h-11v-760h-79v760h-11l-753 -760h-111zM918 1649q-113 0 -193.5 73.5t-114.5 202.5l60 14q31 -105 94.5 -163t153.5 -58t152.5 58t94.5 163l62 -14q-38 -130 -117 -203
t-192 -73z" />
    <glyph glyph-name="uni04C2" unicode="&#x4c2;" horiz-adv-x="1443" 
d="M1290 1018h109l-549 -473l565 -545h-106l-541 524h-8v-524h-74v524h-8l-541 -524h-106l563 545l-547 473h107l524 -457h8v457h74v-457h8zM721 1192q-112 0 -191.5 73.5t-113.5 202.5l57 13q33 -105 96 -163t152 -58q181 0 250 221l59 -13q-36 -130 -115.5 -203
t-193.5 -73z" />
    <glyph glyph-name="uni04CF" unicode="&#x4cf;" horiz-adv-x="440" 
d="M258 0h-76v1018h76v-1018z" />
    <glyph glyph-name="uni04D0" unicode="&#x4d0;" horiz-adv-x="1433" 
d="M14 0l660 1493h86l657 -1493h-84l-186 426h-864l-189 -426h-80zM1116 498l-403 909l-400 -909h803zM715 1649q-113 0 -193 73.5t-114 202.5l59 14q31 -105 94.5 -163t153.5 -58t153.5 58t94.5 163l61 -14q-38 -130 -117 -203t-192 -73z" />
    <glyph glyph-name="uni04D1" unicode="&#x4d1;" horiz-adv-x="1077" 
d="M449 -18q-149 0 -244 77q-99 77 -99 213q0 74 35 132t94 91.5t127 50.5t142 17h332v72q0 155 -81.5 242.5t-230.5 87.5q-192 -3 -274 -129q-41 -57 -55 -134l-72 17q7 69 61 149q29 45 72 82q45 38 115.5 62t150.5 24q178 0 283 -102q106 -106 106 -293v-287
q0 -252 15 -354h-74q-7 29 -10 104q-6 79 -6 121q-59 -118 -162 -178q-106 -65 -225 -65zM838 496h-330q-121 0 -215 -47q-51 -27 -80 -72.5t-29 -102.5q0 -106 76 -161q72 -60 191 -60q158 -3 273 100.5t114 264.5v78zM516 1192q-113 0 -192 73.5t-115 202.5l59 13
q31 -105 94.5 -163t153.5 -58t153.5 58t94.5 163l61 -13q-36 -130 -115.5 -203t-193.5 -73z" />
    <glyph glyph-name="uni04D2" unicode="&#x4d2;" horiz-adv-x="1433" 
d="M506 1735q-22 22 -22 53.5t22 54.5q22 22 52 22t52 -22q22 -23 22 -54.5t-22 -53.5q-22 -23 -52 -23t-52 23zM825 1735q-22 24 -22 53.5t22 53.5t52 22q31 0 52 -22t21 -54q0 -31 -21.5 -53.5t-51.5 -22.5q-29 0 -52 23zM14 0l660 1493h86l657 -1493h-84l-186 426h-864
l-189 -426h-80zM1116 498l-403 909l-400 -909h803z" />
    <glyph glyph-name="uni04D3" unicode="&#x4d3;" horiz-adv-x="1077" 
d="M311 1296q-23 23 -23 54.5t23 54.5q22 22 52.5 22t52.5 -22q22 -23 22 -54.5t-22 -54.5q-22 -22 -52.5 -22t-52.5 22zM610 1296q-22 23 -22 54.5t22 54.5q22 22 53 22t54 -22q22 -23 22 -54.5t-22 -54.5q-23 -22 -54 -22t-53 22zM449 -18q-149 0 -244 77q-99 77 -99 213
q0 74 35 132t94 91.5t127 50.5t142 17h332v72q0 155 -81.5 242.5t-230.5 87.5q-192 -3 -274 -129q-41 -57 -55 -134l-72 17q7 69 61 149q29 45 72 82q45 38 115.5 62t150.5 24q178 0 283 -102q106 -106 106 -293v-287q0 -252 15 -354h-74q-7 29 -10 104q-6 79 -6 121
q-59 -118 -162 -178q-106 -65 -225 -65zM838 496h-330q-121 0 -215 -47q-51 -27 -80 -72.5t-29 -102.5q0 -106 76 -161q72 -60 191 -60q158 -3 273 100.5t114 264.5v78z" />
    <glyph glyph-name="uni04D4" unicode="&#x4d4;" horiz-adv-x="1943" 
d="M893 1493h924v-72h-781v-622h715v-74h-715v-653h789v-72h-869v426h-624l-258 -426h-84zM956 498v923h-24l-557 -923h581z" />
    <glyph glyph-name="uni04D5" unicode="&#x4d5;" horiz-adv-x="1820" 
d="M1720 496h-876q2 -119 55.5 -218.5t151.5 -160.5q98 -64 223 -64q138 0 239 78q97 79 134 191l67 -21q-43 -141 -160 -229q-119 -88 -282 -88q-132 0 -242 61.5t-178 169.5q-58 -111 -166 -172q-107 -61 -233 -61h-4q-149 0 -244 77q-99 77 -99 213q0 74 35 132t94 91.5
t127 50.5t142 17h268q9 105 51 187q-26 103 -103 159t-196 56q-192 -3 -274 -129q-41 -57 -55 -134l-72 17q7 69 61 149q29 45 72 82q45 38 115.5 62t150.5 24q121 0 211.5 -54.5t136.5 -154.5q68 96 168 152q105 57 219 57q121 0 213 -44t145 -119t79 -166t26 -195v-16z
M844 563h798q-11 202 -133 316q-96 86 -256 86q-162 0 -280 -121q-120 -117 -129 -281zM815 287q-42 91 -45 209h-262q-121 0 -215 -47q-51 -27 -80 -72.5t-29 -102.5q0 -106 76 -161q72 -60 191 -60q115 0 219 64q106 65 145 170z" />
    <glyph glyph-name="uni04D6" unicode="&#x4d6;" horiz-adv-x="1245" 
d="M1116 1421h-815v-622h752v-74h-752v-653h825v-72h-905v1493h895v-72zM674 1649q-113 0 -193 73.5t-114 202.5l59 14q31 -105 94.5 -163t153.5 -58t153.5 58t94.5 163l61 -14q-38 -130 -117 -203t-192 -73z" />
    <glyph glyph-name="uni04D7" unicode="&#x4d7;" horiz-adv-x="1157" 
d="M1059 496h-877q2 -118 56 -218t151 -161q101 -64 223 -64q137 0 238 78q97 75 135 191l70 -21q-47 -143 -164 -229q-119 -88 -283 -88q-142 0 -260 71q-113 68 -180 193q-66 123 -66 262v4q0 99 38 195.5t104 169.5q66 72 158.5 114.5t191.5 42.5q118 0 210.5 -43.5
t147.5 -120.5q107 -149 107 -360q3 -10 0 -16zM182 563h799q-3 58 -17 112.5t-44 108t-73.5 93t-109.5 64t-147 24.5q-105 0 -197 -56q-92 -57 -149 -151q-56 -93 -62 -195zM580 1192q-112 0 -192 74t-114 202l58 13q33 -105 96 -163t152 -58q180 0 249 221l60 -13
q-36 -130 -115.5 -203t-193.5 -73z" />
    <glyph glyph-name="uni04DC" unicode="&#x4dc;" horiz-adv-x="1837" 
d="M707 1733q-22 23 -22 54.5t22 53.5q23 23 52.5 23t51.5 -23q22 -22 22 -53.5t-22 -54.5q-22 -22 -51.5 -22t-52.5 22zM1026 1733q-22 23 -22 54.5t22 53.5q22 23 52 23t52 -23q22 -22 22 -53.5t-22 -54.5q-22 -22 -52 -22t-52 22zM782 782l-749 711h110l727 -696h9v696
h79v-696h9l727 696h108l-747 -711l778 -782h-111l-753 760h-11v-760h-79v760h-11l-753 -760h-111z" />
    <glyph glyph-name="uni04DD" unicode="&#x4dd;" horiz-adv-x="1443" 
d="M520 1296q-22 23 -22 54.5t22 54.5q22 22 52.5 22t52.5 -22q22 -23 22 -54.5t-22 -54.5q-22 -22 -52.5 -22t-52.5 22zM819 1296q-22 23 -22 54.5t22 54.5q23 22 53.5 22t53.5 -22q22 -23 22 -54.5t-22 -54.5q-23 -22 -53.5 -22t-53.5 22zM1290 1018h109l-549 -473
l565 -545h-106l-541 524h-8v-524h-74v524h-8l-541 -524h-106l563 545l-547 473h107l524 -457h8v457h74v-457h8z" />
    <glyph glyph-name="uni04DE" unicode="&#x4de;" horiz-adv-x="1208" 
d="M381 1733q-23 23 -23 54.5t23 53.5q22 23 52 23t52 -23q22 -22 22 -53.5t-22 -54.5q-22 -22 -52 -22t-52 22zM698 1733q-22 23 -22 54.5t22 53.5q22 23 53 23t54 -23q22 -22 22 -53.5t-22 -54.5q-23 -22 -54 -22t-53 22zM1104 418q0 -93 -42.5 -176t-113.5 -140
q-71 -56 -162 -87t-184 -31h-18q-194 0 -334 116q-143 116 -170 301l74 21q24 -167 145 -268q120 -99 285 -99h20q148 0 283 97q63 44 100 114t37 150q0 148 -117 250q-123 110 -342 110h-80l-32 60l522 585h-862v72h956v-72l-512 -573q131 0 229 -31q161 -57 244 -170
q74 -95 74 -229z" />
    <glyph glyph-name="uni04DF" unicode="&#x4df;" horiz-adv-x="978" 
d="M274 1296q-22 23 -22 54.5t22 54.5q22 22 52.5 22t52.5 -22q22 -23 22 -54.5t-22 -54.5q-22 -22 -52.5 -22t-52.5 22zM573 1296q-22 23 -22 54.5t22 54.5q23 22 53.5 22t53.5 -22q22 -23 22 -54.5t-22 -54.5q-23 -22 -53.5 -22t-53.5 22zM469 600h16q94 0 175 -29
t133 -79q86 -86 86 -195q0 -139 -117 -225q-115 -87 -287 -90q-152 0 -262 84q-110 82 -137 221l71 22q24 -124 117 -190q87 -66 211 -66q115 0 215 56q51 28 81 76.5t30 107.5q0 108 -94 174q-95 65 -222 65h-98l-31 52l402 366h-643v68h735v-70z" />
    <glyph glyph-name="uni04E2" unicode="&#x4e2;" horiz-adv-x="1585" 
d="M477 1749h635v-70h-635v70zM1268 1493h96v-1493h-80v1393l-965 -1393h-98v1493h80v-1391z" />
    <glyph glyph-name="uni04E3" unicode="&#x4e3;" horiz-adv-x="1222" 
d="M293 1292h637v-69h-637v69zM256 1018v-907l711 907h75v-1018h-75v909l-711 -909h-74v1018h74z" />
    <glyph glyph-name="uni04E4" unicode="&#x4e4;" horiz-adv-x="1585" 
d="M582 1733q-22 23 -22 54.5t22 53.5q22 23 52 23t52 -23q22 -22 22 -53.5t-22 -54.5q-22 -22 -52 -22t-52 22zM901 1733q-23 23 -23 54.5t23 53.5q22 23 52 23t53 -23q22 -22 22 -53.5t-22 -54.5q-23 -22 -53 -22t-52 22zM1268 1493h96v-1493h-80v1393l-965 -1393h-98
v1493h80v-1391z" />
    <glyph glyph-name="uni04E5" unicode="&#x4e5;" horiz-adv-x="1222" 
d="M410 1296q-23 23 -23 54.5t23 54.5q22 22 52 22t52 -22q22 -23 22 -54.5t-22 -54.5q-22 -22 -52 -22t-52 22zM709 1296q-22 23 -22 54.5t22 54.5q22 22 52.5 22t53.5 -22q22 -23 22 -54.5t-22 -54.5q-23 -22 -53.5 -22t-52.5 22zM256 1018v-907l711 907h75v-1018h-75v909
l-711 -909h-74v1018h74z" />
    <glyph glyph-name="uni04E6" unicode="&#x4e6;" horiz-adv-x="1691" 
d="M635 1735q-22 22 -22 53.5t22 54.5q22 22 52 22t52 -22q22 -23 22 -54.5t-22 -53.5q-22 -23 -52 -23t-52 23zM954 1735q-22 24 -22 53.5t22 53.5t52 22q31 0 52 -22t21 -54q0 -31 -21.5 -53.5t-51.5 -22.5q-29 0 -52 23zM846 -16q-210 0 -379 102q-172 104 -262 276
q-92 176 -92 383q0 155 53 297q53 135 151 244q96 103 234 162q137 61 297 61q210 0 379 -102q168 -101 260 -277q94 -175 94 -382q0 -208 -94 -383q-91 -174 -262 -277q-168 -104 -379 -104zM846 1438q-140 0 -264 -56q-126 -57 -207 -147q-86 -95 -134 -221t-48 -262
q0 -139 48 -266t134 -224q84 -92 209 -149q122 -58 266 -58q180 0 336 95q147 92 231 249q82 155 82 344q0 138 -47 265t-133 223q-82 91 -209 151q-124 56 -264 56z" />
    <glyph glyph-name="uni04E7" unicode="&#x4e7;" horiz-adv-x="1249" 
d="M426 1296q-23 23 -23 54.5t23 54.5q22 22 52 22t52 -22q22 -23 22 -54.5t-22 -54.5q-22 -22 -52 -22t-52 22zM725 1296q-22 23 -22 54.5t22 54.5q22 22 52 22t52 -22q23 -23 23 -54.5t-23 -54.5q-22 -22 -52 -22t-52 22zM625 -16q-142 -3 -263.5 67t-191.5 191.5
t-68 263.5q0 107 40 206.5t110 170.5t168 112t205 41q142 3 263 -67.5t190.5 -192.5t66.5 -264q3 -143 -65 -265.5t-189.5 -194t-265.5 -68.5zM850 903q-103 62 -227 62q-123 0 -228 -60q-101 -61 -157 -164.5t-56 -228.5q-3 -122 55 -228.5t162 -169.5t226 -61
q189 0 317 131q125 131 125 324q0 126 -57 229.5t-160 165.5z" />
    <glyph glyph-name="uni04E8" unicode="&#x4e8;" horiz-adv-x="1691" 
d="M846 -16q-210 0 -379 102q-172 104 -262 276q-92 176 -92 383q0 155 53 297q53 135 151 244q96 103 234 162q137 61 297 61q210 0 379 -102q168 -101 260 -277q94 -175 94 -382q0 -208 -94 -383q-91 -174 -262 -277q-168 -104 -379 -104zM195 799h1302q-12 172 -96 319
q-87 147 -232 234q-145 86 -323 86q-133 0 -252 -50t-205 -139q-85 -87 -136 -203.5t-58 -246.5zM1499 725h-1306q3 -181 90 -334q84 -156 233 -244q148 -92 334 -92q134 0 258 56q126 55 205 143q85 90 134 212.5t52 258.5z" />
    <glyph glyph-name="uni04E9" unicode="&#x4e9;" horiz-adv-x="1249" 
d="M625 -16q-142 -3 -263.5 67t-191.5 191.5t-68 263.5q0 107 40 206.5t110 170.5t168 112t205 41q142 3 263 -67.5t190.5 -192.5t66.5 -264q3 -143 -65 -265.5t-189.5 -194t-265.5 -68.5zM182 545h885q-12 177 -139 301q-125 119 -305 119q-184 0 -306 -119
q-123 -123 -135 -301zM1067 477h-885q12 -182 137 -301q123 -123 306 -123q184 0 307 123q126 120 135 301z" />
    <glyph glyph-name="uni04EA" unicode="&#x4ea;" horiz-adv-x="1691" 
d="M635 1735q-22 22 -22 53.5t22 54.5q22 22 52 22t52 -22q22 -23 22 -54.5t-22 -53.5q-22 -23 -52 -23t-52 23zM954 1735q-22 24 -22 53.5t22 53.5t52 22q31 0 52 -22t21 -54q0 -31 -21.5 -53.5t-51.5 -22.5q-29 0 -52 23zM846 -16q-210 0 -379 102q-172 104 -262 276
q-92 176 -92 383q0 155 53 297q53 135 151 244q96 103 234 162q137 61 297 61q210 0 379 -102q168 -101 260 -277q94 -175 94 -382q0 -208 -94 -383q-91 -174 -262 -277q-168 -104 -379 -104zM195 799h1302q-12 172 -96 319q-87 147 -232 234q-145 86 -323 86
q-133 0 -252 -50t-205 -139q-85 -87 -136 -203.5t-58 -246.5zM1499 725h-1306q6 -187 90 -334q84 -156 233 -244q148 -92 334 -92q184 0 332 92q147 89 231 244q83 151 86 334z" />
    <glyph glyph-name="uni04EB" unicode="&#x4eb;" horiz-adv-x="1249" 
d="M426 1296q-23 23 -23 54.5t23 54.5q22 22 52 22t52 -22q22 -23 22 -54.5t-22 -54.5q-22 -22 -52 -22t-52 22zM725 1296q-22 23 -22 54.5t22 54.5q22 22 52 22t52 -22q23 -23 23 -54.5t-23 -54.5q-22 -22 -52 -22t-52 22zM625 -16q-142 -3 -263.5 67t-191.5 191.5
t-68 263.5q0 107 40 206.5t110 170.5t168 112t205 41q142 3 263 -67.5t190.5 -192.5t66.5 -264q3 -143 -65 -265.5t-189.5 -194t-265.5 -68.5zM182 545h885q-12 177 -139 301q-125 119 -305 119q-184 0 -306 -119q-123 -123 -135 -301zM1067 477h-885q12 -182 137 -301
q123 -123 306 -123q184 0 307 123q126 120 135 301z" />
    <glyph glyph-name="uni04EC" unicode="&#x4ec;" horiz-adv-x="1607" 
d="M573 1733q-23 23 -23 54.5t23 53.5q22 23 51.5 23t51.5 -23q23 -22 23 -53.5t-23 -54.5q-22 -22 -51.5 -22t-51.5 22zM891 1733q-22 23 -22 54.5t22 53.5q22 23 52 23t52 -23q22 -22 22 -53.5t-22 -54.5q-22 -22 -52 -22t-52 22zM772 1509q210 0 377 -102t258 -277
q90 -178 90 -389q0 -203 -92 -376q-88 -175 -258 -277q-168 -104 -377 -104q-114 0 -217.5 30.5t-179.5 83.5q-67 48 -133 117q-110 127 -152 260l72 27q30 -84 94 -176q33 -53 84 -101q183 -175 434 -170q164 -1 301 74.5t223 204.5q118 172 121 391h-772v74h770
q-9 176 -92 321q-82 143 -227 232q-145 86 -324 86q-162 0 -295 -68q-115 -62 -186 -153q-99 -125 -119 -222l-72 27q24 101 99.5 203.5t185.5 173.5q75 51 177 80.5t210 29.5z" />
    <glyph glyph-name="uni04ED" unicode="&#x4ed;" horiz-adv-x="1175" 
d="M379 1296q-23 23 -23 54.5t23 54.5q22 22 52 22t52 -22q22 -23 22 -54.5t-22 -54.5q-22 -22 -52 -22t-52 22zM678 1296q-22 23 -22 54.5t22 54.5q22 22 52.5 22t53.5 -22q22 -23 22 -54.5t-22 -54.5q-23 -22 -53.5 -22t-52.5 22zM567 1036q102 0 195.5 -39t161.5 -108
q68 -70 107.5 -169t39.5 -208q0 -104 -39 -202t-106 -171q-69 -72 -165 -114.5t-198 -42.5q-186 0 -315 104q-117 97 -158 227l70 25q24 -72 80 -137q48 -52 77 -72q104 -76 246 -76q115 0 221 64q102 66 152 164q54 99 57 215h-549v67h547q-18 168 -137 287
q-118 115 -289 115q-102 0 -185 -39t-134 -99q-64 -67 -82 -139l-72 23q48 142 176 231q128 94 299 94z" />
    <glyph glyph-name="uni04EE" unicode="&#x4ee;" horiz-adv-x="1306" 
d="M352 1749h637v-70h-637v70zM1296 1493l-561 -1145q-76 -157 -184 -256q-117 -108 -293 -108q-62 0 -137 16v72q94 -15 131 -15q156 0 262 101q87 83 150 209l-641 1126h90l589 -1042l508 1042h86z" />
    <glyph glyph-name="uni04EF" unicode="&#x4ef;" horiz-adv-x="1101" 
d="M238 1292h634v-69h-634v69zM133 1018l434 -877l416 877h80l-723 -1520h-80l266 561l-477 959h84z" />
    <glyph glyph-name="uni04F0" unicode="&#x4f0;" horiz-adv-x="1306" 
d="M455 1735q-22 24 -22.5 53.5t21.5 53.5t52 22q31 0 52.5 -22t21.5 -54q0 -31 -21.5 -53.5t-52.5 -22.5q-28 0 -51 23zM772 1735q-22 22 -22 53.5t22 54.5q22 22 53 22t54 -22q22 -23 22 -54.5t-22 -53.5q-23 -23 -54 -23t-53 23zM1296 1493l-561 -1145
q-76 -157 -184 -256q-117 -108 -293 -108q-62 0 -137 16v72q94 -15 131 -15q156 0 262 101q87 83 150 209l-641 1126h90l589 -1042l508 1042h86z" />
    <glyph glyph-name="uni04F1" unicode="&#x4f1;" horiz-adv-x="1101" 
d="M356 1296q-22 23 -22 54.5t22 54.5q22 22 52.5 22t52.5 -22q22 -23 22 -54.5t-22 -54.5q-22 -22 -52.5 -22t-52.5 22zM655 1296q-22 23 -22 54.5t22 54.5q23 22 53.5 22t53.5 -22q22 -23 22 -54.5t-22 -54.5q-23 -22 -53.5 -22t-53.5 22zM133 1018l434 -877l416 877h80
l-723 -1520h-80l266 561l-477 959h84z" />
    <glyph glyph-name="uni04F2" unicode="&#x4f2;" horiz-adv-x="1306" 
d="M547 1628h-70l215 330h86zM819 1628h-67l213 330h86zM1296 1493l-561 -1145q-76 -157 -184 -256q-117 -108 -293 -108q-62 0 -137 16v72q94 -15 131 -15q156 0 262 101q87 83 150 209l-641 1126h90l589 -1042l508 1042h86z" />
    <glyph glyph-name="uni04F3" unicode="&#x4f3;" horiz-adv-x="1101" 
d="M459 1192h-70l215 328h86zM733 1192h-69l215 328h84zM133 1018l434 -877l416 877h80l-723 -1520h-80l266 561l-477 959h84z" />
    <glyph glyph-name="uni04F4" unicode="&#x4f4;" horiz-adv-x="1398" 
d="M436 1733q-22 23 -22 54.5t22 53.5q22 23 52.5 23t52.5 -23q22 -22 22 -53.5t-22 -54.5q-22 -22 -52.5 -22t-52.5 22zM756 1733q-22 23 -22 54.5t22 53.5q22 23 51.5 23t52.5 -23q22 -22 22 -53.5t-22 -54.5q-23 -22 -52.5 -22t-51.5 22zM1098 0v709q-96 -57 -242 -105
q-140 -49 -258 -49q-237 0 -358 107.5t-121 304.5v526h78v-528q0 -163 103 -251.5t292 -88.5q111 0 248 49q141 46 258 114v705h80v-1493h-80z" />
    <glyph glyph-name="uni04F5" unicode="&#x4f5;" horiz-adv-x="1071" 
d="M295 1296q-22 23 -22 54.5t22 54.5q22 22 52 22t52 -22q22 -23 22 -54.5t-22 -54.5q-22 -22 -52 -22t-52 22zM594 1296q-22 23 -22 54.5t22 54.5q23 22 53 22t53 -22q22 -23 22 -54.5t-22 -54.5q-23 -22 -53 -22t-53 22zM815 0v432q-73 -39 -170 -70q-98 -34 -205 -34
q-160 0 -249 76.5t-89 222.5v391h76v-391q0 -119 74 -173.5t188 -54.5q88 0 197 31q110 36 178 82v506h76v-1018h-76z" />
    <glyph glyph-name="uni04F8" unicode="&#x4f8;" horiz-adv-x="1882" 
d="M729 1733q-22 23 -22 54.5t22 53.5q22 23 52.5 23t52.5 -23q22 -22 22 -53.5t-22 -54.5q-22 -22 -52.5 -22t-52.5 22zM1049 1733q-22 23 -22 54.5t22 53.5q22 23 52 23t52 -23q22 -22 22 -53.5t-22 -54.5q-22 -22 -52 -22t-52 22zM301 864h418q229 0 375 -98
q155 -108 155 -315q0 -146 -69 -246q-70 -108 -187 -154q-114 -51 -264 -51h-508v1493h80v-629zM1581 0v1493h78v-1493h-78zM301 72h424q67 0 129 11.5t120 40t100.5 70.5t68.5 107.5t26 147.5q0 220 -204 301q-107 43 -254 43h-410v-721z" />
    <glyph glyph-name="uni04F9" unicode="&#x4f9;" horiz-adv-x="1589" 
d="M567 1296q-22 23 -22 54.5t22 54.5q22 22 52.5 22t52.5 -22q22 -23 22 -54.5t-22 -54.5q-22 -22 -52.5 -22t-52.5 22zM868 1296q-22 23 -22 54.5t22 54.5q22 22 52 22t53 -22q22 -23 22 -54.5t-22 -54.5q-23 -22 -53 -22t-52 22zM256 621h387q176 0 283 -78
q102 -79 102 -219q0 -144 -98 -232q-100 -92 -268 -92h-480v1018h74v-397zM1358 0h-76v1018h76v-1018zM256 68h393q151 0 228 71q75 72 75 183q0 106 -81.5 168.5t-229.5 62.5h-385v-485z" />
    <glyph glyph-name="uni0E3F" unicode="&#xe3f;" horiz-adv-x="1384" 
d="M918 768q87 -13 158 -53t112 -94q80 -109 80 -224q0 -175 -138 -286q-135 -111 -401 -111h-2v-195h-76v195h-428v1493h428v207h76v-207q254 -6 369 -121q102 -108 102 -254q0 -95 -57 -194q-66 -109 -223 -156zM301 1421v-622h352v622h-352zM1120 1116q0 131 -100 217
q-98 85 -293 88v-622q192 0 293 90q100 86 100 227zM301 725v-653h352v653h-352zM727 72h6q220 0 336 88q119 85 119 237q0 146 -115 238q-119 90 -332 90h-14v-653z" />
    <glyph glyph-name="uni1E20" unicode="&#x1e20;" horiz-adv-x="1632" 
d="M514 1749h635v-70h-635v70zM1532 696v-73q0 -132 -49.5 -249t-139.5 -204q-91 -88 -220 -137t-277 -49q-210 0 -381 100q-171 103 -260 274q-92 173 -92 387q0 155 53.5 295.5t150.5 243.5q90 103 234 164q137 61 299 61q107 0 206 -28t173 -76q74 -45 133 -107
q113 -116 141 -251l-73 -25q-11 71 -72 158t-154 153q-68 47 -161 76t-193 29q-144 0 -267.5 -53.5t-209.5 -149.5q-85 -95 -132.5 -220.5t-47.5 -262.5q0 -144 47.5 -272.5t132.5 -221.5q86 -96 209.5 -149.5t267.5 -53.5q121 0 230.5 40t192.5 111.5t132 178.5t49 233v7
h-690v71h768z" />
    <glyph glyph-name="uni1E21" unicode="&#x1e21;" horiz-adv-x="1284" 
d="M287 1292h635v-69h-635v69zM600 -436q193 0 311 127q117 126 117 348v248q-52 -127 -168 -209q-113 -82 -260 -82q-144 0 -262 74q-112 69 -174 190q-60 114 -60 256q0 144 61.5 261.5t176.5 187.5q110 71 258 71q144 0 260 -78q116 -81 168 -206v266h76v-977
q0 -131 -40 -238t-110 -174q-142 -139 -350 -139q-179 0 -315 100q-135 97 -183 258l70 25q30 -112 131 -203q51 -48 128.5 -77t164.5 -29zM602 70q123 0 221 61q100 60 152 164q53 97 53 219v6q0 118 -51.5 218t-149.5 163q-103 62 -225 62q-186 0 -305 -125t-119 -320v-2
q0 -191 119 -319q121 -127 305 -127z" />
    <glyph glyph-name="uni1E30" unicode="&#x1e30;" horiz-adv-x="1234" 
d="M668 1628h-70l215 330h86zM309 799l770 694h115l-797 -711l842 -782h-117l-813 758h-8v-758h-80v1493h80v-694h8z" />
    <glyph glyph-name="uni1E31" unicode="&#x1e31;" horiz-adv-x="966" 
d="M340 557l616 -557h-108l-588 537h-4v-537h-74v1552h74v-977h4l557 443h113zM786 1520h-86l-215 -328h68z" />
    <glyph glyph-name="uni1E60" unicode="&#x1e60;" horiz-adv-x="1218" 
d="M561 1737q-22 23 -22 54t22 54q22 22 52.5 22t52.5 -22q22 -23 22 -54t-22 -54q-22 -22 -52.5 -22t-52.5 22zM1100 399q2 -119 -65 -215.5t-178 -149t-239 -50.5q-101 0 -193 35t-159 96q-138 125 -162 297l74 20q21 -143 131 -256q54 -56 136 -88.5t178 -32.5
q148 0 270 86q60 41 94.5 107.5t34.5 146.5q0 68 -25.5 124t-71 93.5t-100.5 62t-120 36.5l-213 41q-138 27 -236 104q-113 89 -113 254q0 118 70 209q65 91 174 141q104 49 223 49q99 0 186.5 -33t145.5 -90q118 -112 143 -239l-71 -25q-10 56 -50.5 122.5t-105.5 115.5
q-46 35 -112.5 56.5t-139.5 21.5q-97 0 -183.5 -40t-141.5 -114q-58 -76 -58 -170q0 -232 287 -289l213 -41q102 -19 185.5 -67.5t137.5 -131.5t54 -186z" />
    <glyph glyph-name="uni1E61" unicode="&#x1e61;" horiz-adv-x="944" 
d="M416 1296q-22 23 -22 54.5t22 54.5q22 22 52 22t52 -22q22 -23 22 -54.5t-22 -54.5q-22 -22 -52 -22t-52 22zM125 760q0 85 51 151q53 65 129 95q73 30 158 30q134 0 235 -67q105 -72 125 -195l-69 -20q-21 101 -101 157q-77 54 -192 54q-142 0 -219 -91
q-41 -50 -41 -112q0 -78 55 -127q56 -49 133 -64l193 -36q118 -24 186 -101q70 -76 70 -170q0 -66 -30 -122t-81 -91q-106 -67 -238 -67q-155 0 -258 75q-106 74 -133 220l74 18q20 -119 104 -181.5t216 -62.5q141 0 227 92q43 49 43 117q0 74 -53.5 129t-147.5 74l-192 37
q-100 18 -172 90q-72 69 -72 168z" />
    <glyph glyph-name="Wgrave" unicode="&#x1e80;" horiz-adv-x="2101" 
d="M791 1958h86l215 -330h-68zM614 0h-88l-465 1493h84l428 -1391l441 1391h73l445 -1391l428 1391h80l-465 -1493h-88l-436 1366z" />
    <glyph glyph-name="wgrave" unicode="&#x1e81;" horiz-adv-x="1636" 
d="M555 1520h86l215 -328h-68zM492 0h-76l-361 1018h82l318 -928l327 928h74l326 -928l323 928h76l-360 -1018h-78l-324 915z" />
    <glyph glyph-name="Wacute" unicode="&#x1e82;" horiz-adv-x="2101" 
d="M1085 1628h-69l215 330h86zM614 0h-88l-465 1493h84l428 -1391l441 1391h73l445 -1391l428 1391h80l-465 -1493h-88l-436 1366z" />
    <glyph glyph-name="wacute" unicode="&#x1e83;" horiz-adv-x="1636" 
d="M850 1192h-70l215 328h86zM492 0h-76l-361 1018h82l318 -928l327 928h74l326 -928l323 928h76l-360 -1018h-78l-324 915z" />
    <glyph glyph-name="Wdieresis" unicode="&#x1e84;" horiz-adv-x="2101" 
d="M840 1735q-22 22 -22 53.5t22 54.5q23 22 52.5 22t51.5 -22q22 -23 22 -54.5t-22 -53.5q-22 -23 -51.5 -23t-52.5 23zM1159 1735q-36 32 -15.5 82t66.5 47q31 0 53.5 -22t22.5 -54q0 -31 -22.5 -53.5t-53.5 -22.5q-28 0 -51 23zM614 0h-88l-465 1493h84l428 -1391
l441 1391h73l445 -1391l428 1391h80l-465 -1493h-88l-436 1366z" />
    <glyph glyph-name="wdieresis" unicode="&#x1e85;" horiz-adv-x="1636" 
d="M616 1296q-22 23 -22 54.5t22 54.5q22 22 52.5 22t52.5 -22q22 -23 22 -54.5t-22 -54.5q-22 -22 -52.5 -22t-52.5 22zM918 1296q-22 23 -22 54.5t22 54.5q22 22 52 22t52 -22q22 -23 22 -54.5t-22 -54.5q-22 -22 -52 -22t-52 22zM492 0h-76l-361 1018h82l318 -928
l327 928h74l326 -928l323 928h76l-360 -1018h-78l-324 915z" />
    <glyph glyph-name="uni1E90" unicode="&#x1e90;" horiz-adv-x="1171" 
d="M537 1958h84l253 -330h-73l-221 270l-222 -270h-73zM1010 1421h-920v72h1006v-72l-949 -1349h953v-72h-1041v72z" />
    <glyph glyph-name="uni1E91" unicode="&#x1e91;" horiz-adv-x="950" 
d="M430 1520h84l254 -328h-74l-223 270l-221 -270h-74zM90 950v68h780v-68l-706 -882h706v-68h-798v68l708 882h-690z" />
    <glyph glyph-name="uni1EBC" unicode="&#x1ebc;" horiz-adv-x="1245" 
d="M301 799h752v-74h-752v-653h825v-72h-905v1493h895v-72h-815v-622zM928 1812l49 -18q-19 -71 -57 -115q-43 -49 -103 -49q-64 0 -149 64q-31 26 -69 44.5t-67 18.5q-81 0 -122 -115l-54 23q53 160 170 160q38 0 81.5 -18.5t76.5 -45.5q79 -63 129 -63q72 0 115 114z" />
    <glyph glyph-name="uni1EBD" unicode="&#x1ebd;" horiz-adv-x="1157" 
d="M1059 496h-877q2 -118 56 -218t151 -161q101 -64 223 -64q137 0 238 78q97 75 135 191l70 -21q-47 -143 -164 -229q-119 -88 -283 -88q-142 0 -260 71q-113 68 -180 193q-66 123 -66 262v4q0 99 38 195.5t104 169.5q66 72 158.5 114.5t191.5 42.5q118 0 210.5 -43.5
t147.5 -120.5q107 -149 107 -360q3 -10 0 -16zM182 563h799q-3 58 -17 112.5t-44 108t-73.5 93t-109.5 64t-147 24.5q-105 0 -197 -56q-92 -57 -149 -151q-56 -93 -62 -195zM842 1374l49 -16q-18 -69 -57 -117q-38 -47 -103 -47q-35 0 -75.5 18t-71.5 45q-82 62 -138 62
q-82 0 -120 -115l-56 25q56 160 170 160q73 0 158 -64q77 -65 129 -65q72 0 115 114z" />
    <glyph glyph-name="Ygrave" unicode="&#x1ef2;" horiz-adv-x="1368" 
d="M430 1958h84l215 -330h-67zM59 1493h95l532 -780l528 780h95l-586 -852v-641h-78v641z" />
    <glyph glyph-name="ygrave" unicode="&#x1ef3;" horiz-adv-x="1103" 
d="M307 1520h86l215 -328h-69zM133 1018l434 -877l416 877h80l-721 -1520h-80l264 561l-477 959h84z" />
    <glyph glyph-name="uni2000" unicode="&#x2000;" horiz-adv-x="1071" 
 />
    <glyph glyph-name="uni2001" unicode="&#x2001;" horiz-adv-x="2140" 
 />
    <glyph glyph-name="uni2002" unicode="&#x2002;" horiz-adv-x="1071" 
 />
    <glyph glyph-name="uni2003" unicode="&#x2003;" horiz-adv-x="2140" 
 />
    <glyph glyph-name="uni2004" unicode="&#x2004;" horiz-adv-x="712" 
 />
    <glyph glyph-name="uni2005" unicode="&#x2005;" horiz-adv-x="534" 
 />
    <glyph glyph-name="uni2006" unicode="&#x2006;" horiz-adv-x="356" 
 />
    <glyph glyph-name="uni2007" unicode="&#x2007;" horiz-adv-x="356" 
 />
    <glyph glyph-name="uni2008" unicode="&#x2008;" horiz-adv-x="266" 
 />
    <glyph glyph-name="uni2009" unicode="&#x2009;" horiz-adv-x="428" 
 />
    <glyph glyph-name="uni200A" unicode="&#x200a;" horiz-adv-x="118" 
 />
    <glyph glyph-name="uni2010" unicode="&#x2010;" horiz-adv-x="862" 
d="M152 567v74h559v-74h-559z" />
    <glyph glyph-name="uni2011" unicode="&#x2011;" horiz-adv-x="862" 
d="M152 567v74h559v-74h-559z" />
    <glyph glyph-name="figuredash" unicode="&#x2012;" horiz-adv-x="862" 
d="M152 567v74h559v-74h-559z" />
    <glyph glyph-name="endash" unicode="&#x2013;" horiz-adv-x="1179" 
d="M152 569v70h876v-70h-876z" />
    <glyph glyph-name="emdash" unicode="&#x2014;" horiz-adv-x="1966" 
d="M152 569v70h1663v-70h-1663z" />
    <glyph glyph-name="quoteleft" unicode="&#x2018;" horiz-adv-x="460" 
d="M315 1507v-53q-120 -60 -131 -209q18 15 54 15q35 0 58 -21t23 -55q0 -33 -25 -57.5t-58 -24.5q-51 0 -78 35.5t-27 93.5q0 82 47 162q50 80 137 114z" />
    <glyph glyph-name="quoteright" unicode="&#x2019;" horiz-adv-x="460" 
d="M158 1098v53q63 32 94.5 87.5t34.5 121.5q-24 -17 -51 -17q-34 0 -58 22.5t-24 57.5t24.5 58.5t59.5 23.5q51 0 77.5 -36.5t26.5 -96.5q0 -80 -47 -160q-50 -77 -137 -114z" />
    <glyph glyph-name="quotesinglbase" unicode="&#x201a;" horiz-adv-x="509" 
d="M164 -260v55q120 59 129 207q-21 -12 -53 -12q-35 0 -58.5 21t-23.5 55q0 35 25 58t61 23q50 0 77 -36.5t27 -96.5q2 -78 -47.5 -157t-136.5 -117z" />
    <glyph glyph-name="quotedblleft" unicode="&#x201c;" horiz-adv-x="755" 
d="M315 1507v-53q-120 -60 -131 -209q18 15 54 15q35 0 58 -21t23 -55q0 -33 -25 -57.5t-58 -24.5q-51 0 -78 35.5t-27 93.5q0 82 47 162q50 80 137 114zM610 1507v-53q-43 -22 -74 -60.5t-42 -76.5q-13 -37 -13 -72q18 15 51 15q36 0 60 -21.5t24 -54.5q0 -34 -25.5 -58
t-60.5 -24q-50 0 -76 35.5t-26 93.5q0 87 47 162q47 79 135 114z" />
    <glyph glyph-name="quotedblright" unicode="&#x201d;" horiz-adv-x="757" 
d="M158 1098v53q63 32 94.5 87.5t34.5 121.5q-24 -17 -51 -17q-34 0 -58 22.5t-24 57.5t24.5 58.5t59.5 23.5q51 0 77.5 -36.5t26.5 -96.5q0 -80 -47 -160q-50 -77 -137 -114zM453 1098v53q64 32 95.5 88t33.5 121q-24 -17 -52 -17q-34 0 -57.5 22.5t-23.5 57.5t24 58.5
t59 23.5q51 0 78 -37t27 -96q0 -80 -47 -160q-46 -75 -137 -114z" />
    <glyph glyph-name="quotedblbase" unicode="&#x201e;" horiz-adv-x="804" 
d="M164 -260v55q120 59 129 207q-21 -12 -53 -12q-35 0 -58.5 21t-23.5 55q0 35 25 58t61 23q50 0 77 -36.5t27 -96.5q2 -78 -47.5 -157t-136.5 -117zM461 -260v55q118 58 129 207q-21 -12 -55 -12q-35 0 -58 20q-24 18 -24 56q0 33 26 57t62 24q50 0 76 -36.5t26 -96.5
q0 -108 -80 -200q-49 -52 -102 -74z" />
    <glyph glyph-name="dagger" unicode="&#x2020;" horiz-adv-x="1173" 
d="M164 889v69h385v455h74v-455h385v-69h-385v-889h-74v889h-385z" />
    <glyph glyph-name="daggerdbl" unicode="&#x2021;" horiz-adv-x="1173" 
d="M127 0v72h422v880h-422v70h422v391h74v-391h421v-70h-421v-880h421v-72h-421v-393h-74v393h-422z" />
    <glyph glyph-name="bullet" unicode="&#x2022;" horiz-adv-x="980" 
d="M492 362q-142 0 -236 99q-96 96 -96 235q0 135 96 236q97 100 236 100q136 0 233 -100q96 -101 96 -236q0 -139 -96 -235q-99 -99 -233 -99z" />
    <glyph glyph-name="ellipsis" unicode="&#x2026;" horiz-adv-x="1351" 
d="M293 10q-25 -25 -58.5 -25t-58.5 25q-25 23 -25 57.5t25 59.5t58.5 25t58.5 -25t25 -59.5t-25 -57.5zM735 10q-25 -25 -59.5 -25t-59.5 25q-25 23 -25 57.5t25 59.5t59.5 25t59.5 -25t25 -59.5t-25 -57.5zM1178 10q-25 -25 -59.5 -25t-59.5 25q-25 23 -25 57.5t25 59.5
t59.5 25t59.5 -25q23 -25 23 -59.5t-23 -57.5z" />
    <glyph glyph-name="uni202F" unicode="&#x202f;" horiz-adv-x="428" 
 />
    <glyph glyph-name="perthousand" unicode="&#x2030;" horiz-adv-x="2420" 
d="M412 838q-140 0 -238 98t-98 238q0 136 98 237q101 96 238 96q136 0 237 -96q99 -102 99 -237q0 -139 -99 -238q-98 -98 -237 -98zM1348 1493l-969 -1493h-84l971 1493h82zM412 1444q-111 0 -191 -80t-80 -190q0 -113 80 -193t191 -80q112 0 192 80q78 81 78 193
q0 109 -78 190q-80 80 -192 80zM1237 -10q-140 0 -238 98q-98 95 -98 238q0 142 98 237q99 99 238 99q136 0 238 -99q96 -101 96 -237q0 -137 -96 -238q-101 -98 -238 -98zM1237 596q-113 0 -193 -80q-79 -79 -79 -190q0 -114 79 -193q81 -78 193 -78q109 0 190 78
q78 78 78 193q0 112 -78 190q-80 80 -190 80zM2011 -10q-139 0 -237 98q-99 99 -99 238q0 138 99 237t237 99q136 0 238 -99q96 -96 96 -237q0 -142 -96 -238q-101 -98 -238 -98zM2011 596q-112 0 -192 -80q-78 -78 -78 -190q0 -115 78 -193q81 -78 192 -78q110 0 191 78
q79 79 79 193q0 111 -79 190q-80 80 -191 80z" />
    <glyph glyph-name="guilsinglleft" unicode="&#x2039;" horiz-adv-x="645" 
d="M197 573l299 -286l-50 -45l-346 331l346 340l50 -47z" />
    <glyph glyph-name="guilsinglright" unicode="&#x203a;" horiz-adv-x="645" 
d="M545 573l-346 -331l-47 45l299 286l-299 293l47 47z" />
    <glyph glyph-name="uni203D" unicode="&#x203d;" horiz-adv-x="1019" 
d="M516 586h2q26 54 74 114q38 48 90 107q17 18 48 54.5t36 41.5q88 113 88 221q0 135 -100 224q-101 88 -244 88q-153 0 -254 -101q-100 -103 -100 -254l-80 4v9q0 178 127 299q125 116 307 116q173 3 299 -108.5t123 -274.5q0 -74 -29 -131q-5 -9 -31 -55q-9 -18 -41 -59
q-36 -45 -43 -52q-24 -30 -47 -55q-15 -15 -29.5 -30.5t-15.5 -16.5q-89 -100 -132 -176t-46 -154h-78v750h76v-561zM426 6q-22 24 -22.5 53.5t21.5 53.5t52 22q31 0 52.5 -22t21.5 -54q0 -31 -21.5 -53t-52.5 -22q-32 0 -51 22z" />
    <glyph glyph-name="uni2042" unicode="&#x2042;" horiz-adv-x="1746" 
d="M528 1257l324 -116l-10 352h63l-10 -352l324 116l20 -57l-336 -104l215 -267l-51 -36l-195 272l-194 -272l-49 36l213 267l-334 104zM90 446l324 -118l-11 354h66l-12 -354l323 118l21 -57l-334 -104l213 -267l-49 -38l-195 274l-194 -274l-49 38l213 267l-334 104z
M965 446l325 -118l-10 354h63l-12 -354l326 118l18 -57l-334 -104l215 -267l-51 -38l-194 274l-195 -274l-49 38l213 267l-334 104z" />
    <glyph glyph-name="fraction" unicode="&#x2044;" horiz-adv-x="1107" 
d="M1081 1493l-968 -1493h-84l970 1493h82z" />
    <glyph glyph-name="uni2051" unicode="&#x2051;" horiz-adv-x="976" 
d="M143 1257l324 -116l-10 352h65l-12 -352l324 116l20 -57l-334 -104l213 -267l-49 -36l-195 272l-194 -272l-51 36l215 267l-336 104zM143 446l324 -118l-10 354h65l-12 -354l324 118l20 -57l-334 -104l213 -267l-49 -38l-195 274l-194 -274l-51 38l215 267l-336 104z" />
    <glyph glyph-name="uni205F" unicode="&#x205f;" horiz-adv-x="534" 
 />
    <glyph glyph-name="lira" unicode="&#x20a4;" horiz-adv-x="1214" 
d="M1044 313l78 -10q0 -101 -78 -194q-41 -49 -111 -79t-155 -30h-655v72q114 96 186 207q77 115 80 231h-258v70h256q-7 45 -16 77q0 1 -23 76q-1 2 -12 35q-2 3 -4 8.5t-6 14.5t-7 16q-2 8 -5.5 17t-5 13.5t-1.5 6.5h-176v69h150q-37 110 -37 197q0 173 118 285
q116 110 291 110q176 0 285 -92q105 -91 117 -233l-78 -13q-6 115 -90 193q-85 76 -236 76q-140 0 -233 -93q-94 -94 -94 -235q0 -88 36 -195h480v-69h-455q1 -3 12 -31q2 -7 5.5 -15t5.5 -12.5t2 -7.5q2 -3 7 -16t10.5 -28.5t6.5 -18.5q2 -6 9.5 -32t9.5 -36q2 -7 12 -67
h375v-70h-371q-9 -223 -250 -438h553q92 0 152.5 34.5t89.5 88.5q30 54 30 118z" />
    <glyph glyph-name="uni20A9" unicode="&#x20a9;" horiz-adv-x="2162" 
d="M1823 700l-217 -700h-86l-226 700h-426l-225 -700h-84l-219 700h-227v66h206l-227 727h82l225 -727h416l229 727h74l234 -727h415l224 727h80l-228 -727h207v-66h-227zM1274 766l-193 602l-192 -602h385zM795 700h-375l184 -602zM1749 700h-377l191 -602z" />
    <glyph glyph-name="dong" unicode="&#x20ab;" horiz-adv-x="1314" 
d="M1198 1251h-113v-1251h-73v279q-55 -131 -168 -211q-116 -84 -260 -84q-108 0 -203 43t-158 116q-63 72 -98 167.5t-35 199.5q0 105 35.5 201.5t99.5 169.5q66 72 160 113.5t199 41.5q149 0 262 -82q109 -76 166 -209v506h-398v70h398v231h73v-231h113v-70zM588 57
q123 0 221 64q102 61 154 166q53 103 53 221v4q0 179 -115 313q-56 64 -138.5 101t-174.5 37q-188 0 -303 -127q-119 -128 -119 -322v-2q0 -193 119 -324q116 -131 303 -131zM135 -328v68h950v-68h-950z" />
    <glyph glyph-name="Euro" unicode="&#x20ac;" horiz-adv-x="1759" 
d="M1585 502l72 -27q-43 -136 -150 -260q-66 -69 -133 -117q-74 -52 -177.5 -83t-217.5 -31q-263 0 -455 155q-190 155 -252 404h-178v71h164q-10 75 -10 131q0 59 10 134h-164v71h180q61 249 254 404t455 155q217 0 385 -108q74 -52 131 -115q109 -121 146 -264l-72 -27
q-28 105 -103 203q-56 73 -110 117q-56 48 -162 88q-103 35 -217 35q-227 0 -397 -138q-169 -135 -228 -350h777l-25 -71h-768q-12 -61 -12 -127q0 -64 12 -138h688l-22 -71h-650q62 -216 230 -350q166 -138 397 -138q282 0 467 213q68 80 109 164q13 32 26 70z" />
    <glyph glyph-name="uni20AE" unicode="&#x20ae;" horiz-adv-x="1232" 
d="M1036 969l-370 -168v-238l370 166v-74l-370 -166v-489h-80v455l-371 -168v73l371 168v238l-371 -168v76l371 166v581h-502v72h1075v-72h-493v-547l370 166v-71z" />
    <glyph glyph-name="uni20B1" unicode="&#x20b1;" horiz-adv-x="1441" 
d="M1370 1018h-151q-15 -170 -150 -287q-141 -119 -414 -119h-305v-612h-80v1018h-168v72h168v403h404q136 0 242 -32.5t169 -90.5q125 -119 134 -280h151v-72zM350 1090h789q-14 173 -164 264q-118 67 -309 67h-316v-331zM350 686h307q239 0 359 102q111 91 123 230h-789
v-332z" />
    <glyph glyph-name="uni20B4" unicode="&#x20b4;" horiz-adv-x="1304" 
d="M137 948h832q61 67 61 185q0 99 -51 167q-55 74 -129 103q-73 33 -174 33q-144 0 -260 -84q-112 -84 -140 -228l-71 23q30 158 167.5 260.5t303.5 99.5q173 0 299 -94q62 -45 97.5 -117t35.5 -159q0 -119 -53 -189h106v-69h-1024v69zM1161 563h-835q-68 -86 -68 -188
q0 -80 31 -142.5t84.5 -100t121 -56.5t144.5 -19q169 0 289 105q123 105 147 268l72 -18q-24 -187 -172 -308q-145 -118 -336 -118q-183 0 -317 92q-66 45 -104 120.5t-38 168.5q0 95 64 196h-107v72h1024v-72z" />
    <glyph glyph-name="uni20B8" unicode="&#x20b8;" horiz-adv-x="1290" 
d="M109 1493h1075v-72h-1075v72zM109 1085v72h1075v-72h-494v-1085h-80v1085h-501z" />
    <glyph glyph-name="uni20B9" unicode="&#x20b9;" horiz-adv-x="1204" 
d="M649 1427v-2q124 -38 191 -129q65 -92 71 -196h203v-70h-203q-12 -160 -125.5 -261t-314.5 -126l412 -643h-95l-403 633h-248v74h219q280 0 398 141q71 76 80 182h-697v70h697q-5 76 -44.5 142.5t-115.5 111.5q-111 67 -305 67h-232v72h977v-68z" />
    <glyph glyph-name="uni20BA" unicode="&#x20ba;" 
d="M1051 635l73 -10q-42 -247 -237 -430q-92 -89 -225 -142t-277 -53h-55v578l-2 -5l-213 -92v72l215 96v240l-2 -4l-213 -94v73l215 97v532h80v-498l454 205v-74l-454 -204v-236l454 205v-74l-454 -205v-540q122 0 243 51q115 50 195 133q80 80 133 179t70 200z" />
    <glyph glyph-name="uni20BD" unicode="&#x20bd;" horiz-adv-x="1259" 
d="M760 276h-383v-276h-80v276h-184v72h184v266h-184v70h184v809h340q340 0 471 -186q76 -105 76 -248q0 -93 -33.5 -172t-100 -141t-176.5 -97t-253 -35h-244v-266h383v-72zM377 686h246q253 0 374 115q109 103 109 254q0 57 -14.5 108t-50 99t-88.5 82.5t-135.5 55.5
t-186.5 21h-254v-735z" />
    <glyph glyph-name="uni2113" unicode="&#x2113;" horiz-adv-x="862" 
d="M334 526v-219q0 -131 69 -192.5t207 -61.5q72 0 133 15v-68q-71 -18 -143 -18q-165 0 -253.5 79t-88.5 236v192q-77 -37 -176 -69v72q110 39 176 73v561q0 128 72 215q75 84 196 84q128 0 197.5 -75t69.5 -207q0 -209 -138 -369q-125 -145 -321 -248zM334 1126v-522
q385 213 385 541q0 100 -47.5 156.5t-141.5 56.5q-96 0 -147 -66q-49 -64 -49 -166z" />
    <glyph glyph-name="uni2116" unicode="&#x2116;" horiz-adv-x="2463" 
d="M223 1493h94l1006 -1380v1380h80v-1493h-90l-1012 1386v-1386h-78v1493zM1991 551q-154 0 -258 104q-105 108 -105 260q0 157 103 263q106 106 260 106t258 -104q104 -107 104 -260q0 -155 -102 -263q-103 -106 -260 -106zM1989 1219q-124 0 -207 -86q-82 -85 -82 -213
q0 -127 82 -215q83 -89 209 -89t209 86q84 87 84 213q0 128 -84 215q-86 89 -211 89zM2318 219h-680v68h680v-68z" />
    <glyph glyph-name="trademark" unicode="&#x2122;" horiz-adv-x="1931" 
d="M340 1425h-264v68h602v-68h-262v-792h-76v792zM1264 633l-346 790h-5v-790h-71v860h114l342 -774l330 774h123v-860h-74v799h-6l-342 -799h-65z" />
    <glyph glyph-name="estimated" unicode="&#x212e;" horiz-adv-x="1669" 
d="M403 770v-543q83 -83 205 -129q116 -45 244 -45q197 0 344 82.5t229 235.5l62 -33q-77 -161 -248 -258q-161 -96 -387 -96q-167 0 -307 59.5t-234 165.5q-94 104 -144 246t-50 303q0 208 92 381q86 166 260 270q166 100 383 100q158 0 294.5 -55.5t233.5 -155.5
q95 -100 149.5 -237t55.5 -291h-1182zM1303 838v426q-83 86 -207 133q-130 45 -246 45q-261 0 -447 -174v-430h900z" />
    <glyph glyph-name="uni2153" unicode="&#x2153;" horiz-adv-x="1636" 
d="M72 1346l245 147h64v-868h-70v790l-209 -121zM1239 1493l-969 -1493h-84l971 1493h82zM1530 254q0 -115 -84 -193q-85 -79 -215 -79q-116 0 -199 71q-84 75 -96 176l70 13q12 -89 77 -142q63 -51 148 -51q90 0 162 57q65 59 65 150q0 52 -28 95.5t-76 68.5
q-50 24 -115 24h-53l-35 64l276 299h-469v65h558v-67l-271 -293h4q71 0 129 -27q69 -33 110.5 -95t41.5 -136z" />
    <glyph glyph-name="uni2154" unicode="&#x2154;" horiz-adv-x="1894" 
d="M104 625v12q0 172 218 307l137 86q82 50 123 102.5t41 118.5q0 81 -60 138q-58 55 -151 55q-112 0 -172 -66q-51 -57 -54 -137l-69 10q7 100 73 172q35 40 93.5 64t126.5 24q125 0 206 -75q78 -78 78 -183q0 -157 -174 -264l-141 -88q-73 -44 -117 -84q-57 -54 -69 -127
h507v-65h-596zM1495 1493l-967 -1493h-86l971 1493h82zM1786 254q0 -115 -84 -193q-85 -79 -215 -79q-116 0 -199 71q-84 75 -96 176l70 13q12 -89 77 -142q63 -51 148 -51q90 0 162 57q65 59 65 150q0 52 -28 95.5t-76 68.5q-50 24 -115 24h-53l-35 64l276 299h-469v65h558
v-67l-271 -293h4q71 0 129 -27q69 -33 110.5 -95t41.5 -136z" />
    <glyph glyph-name="oneeighth" unicode="&#x215b;" horiz-adv-x="1656" 
d="M72 1346l245 147h64v-868h-70v790l-209 -121zM1239 1493l-969 -1493h-84l971 1493h82zM1231 -18q-194 0 -285 110q-49 58 -49 133q0 89 68 148q71 56 159 71q-88 24 -141 80q-55 55 -55 123q0 79 45 133q46 58 114 82q70 25 142 25q167 0 258 -107q47 -59 47 -133
q0 -147 -197 -203q128 -24 191 -108q35 -50 35 -111q0 -73 -46.5 -130.5t-123.5 -84.5q-76 -28 -162 -28zM1401 772q-67 49 -172 49q-104 0 -168 -49q-66 -51 -66 -125q0 -73 68 -123q64 -49 166 -49q103 0 170 49t67 123q0 72 -65 125zM1229 412q-113 0 -187 -54
q-75 -57 -75 -133q0 -78 75 -129q76 -49 187 -49q118 0 188 47q74 50 74 131q0 78 -76 133q-74 54 -186 54z" />
    <glyph glyph-name="threeeighths" unicode="&#x215c;" horiz-adv-x="1839" 
d="M684 874q0 -109 -84 -190q-86 -80 -215 -80q-115 0 -199 72q-83 71 -98 176l70 10q12 -87 78 -141q63 -51 149 -51q92 0 160 59q67 58 67 148q0 53 -28 95.5t-76 67.5q-50 27 -115 27h-55l-33 61l277 299h-469v66h557v-68l-271 -290h2q65 0 131 -29q68 -32 110 -94
t42 -138zM1430 1493l-969 -1493h-84l971 1493h82zM1423 -18q-195 0 -286 110q-50 59 -50 133q0 90 70 148q68 56 158 71q-89 25 -141 80q-56 56 -56 123q0 77 47 133q46 58 113 82q70 25 143 25q165 0 256 -107q47 -56 47 -133q0 -148 -196 -203q127 -23 190 -108
q35 -50 35 -111q0 -73 -46.5 -130.5t-121.5 -84.5q-76 -28 -162 -28zM1591 772q-67 49 -172 49q-104 0 -168 -49q-65 -53 -65 -125q0 -74 67 -123q64 -49 168 -49q101 0 168 49q68 50 68 123q0 71 -66 125zM1419 412q-112 0 -186 -54q-76 -57 -76 -133q0 -78 76 -129
q76 -49 188 -49q117 0 187 47q73 49 73 131q0 79 -75 133q-74 54 -187 54z" />
    <glyph glyph-name="fiveeighths" unicode="&#x215d;" horiz-adv-x="1828" 
d="M369 604q-113 0 -195 70q-86 68 -92 178l70 10q6 -86 69 -137q61 -55 150 -55q99 0 164 65q65 62 65 160q0 102 -57 161.5t-158 59.5q-49 0 -103.5 -20.5t-97.5 -61.5l-65 23l86 436h434v-66h-383l-61 -321v-2q92 80 200 80q127 0 203 -82q74 -80 74 -205
q0 -128 -86 -211q-88 -82 -217 -82zM1417 1493l-966 -1493h-86l970 1493h82zM1411 -18q-196 0 -287 110q-49 58 -49 133q0 90 70 148q68 56 158 71q-86 24 -142 80q-55 55 -55 123q0 77 47 133q46 58 113 82q70 25 143 25q165 0 256 -107q47 -56 47 -133q0 -148 -196 -203
q127 -23 190 -108q35 -46 35 -111q0 -73 -46.5 -130.5t-121.5 -84.5q-76 -28 -162 -28zM1579 772q-67 49 -172 49q-104 0 -168 -49q-65 -53 -65 -125q0 -74 67 -123q64 -49 168 -49q101 0 168 49q68 50 68 123q0 71 -66 125zM1407 412q-112 0 -186 -54q-74 -56 -74 -133
q0 -79 74 -129q76 -49 188 -49q116 0 186 47q74 50 74 131q0 78 -76 133q-74 54 -186 54z" />
    <glyph glyph-name="seveneighths" unicode="&#x215e;" horiz-adv-x="1593" 
d="M82 1493h584v-74l-381 -794h-78l387 802h-512v66zM1182 1493l-967 -1493h-86l971 1493h82zM1176 -18q-197 0 -285 110q-49 58 -49 133q0 90 67 148q68 56 160 71q-86 23 -143 80q-56 59 -56 123q0 76 48 133q46 58 114 82q67 25 142 25q167 0 258 -107q47 -59 47 -133
q0 -148 -199 -203q127 -23 193 -108q34 -49 34 -111q0 -73 -47 -130.5t-123 -84.5q-76 -28 -161 -28zM1343 772q-64 49 -169 49q-106 0 -170 -49q-64 -52 -64 -125q0 -72 66 -123q67 -49 168 -49q102 0 169 49q68 50 68 123q0 72 -68 125zM1174 412q-115 0 -187 -54
q-76 -55 -76 -133q0 -80 76 -129q73 -49 187 -49q115 0 188 47q74 50 74 131q0 78 -76 133q-74 54 -186 54z" />
    <glyph glyph-name="arrowleft" unicode="&#x2190;" horiz-adv-x="1265" 
d="M1198 727v-70h-1044l434 -448l-49 -49l-504 520v27l504 520l49 -49l-434 -451h1044z" />
    <glyph glyph-name="arrowup" unicode="&#x2191;" horiz-adv-x="1265" 
d="M668 113h-70v1044l-451 -434l-49 49l523 504h24l522 -504l-51 -49l-448 434v-1044z" />
    <glyph glyph-name="arrowright" unicode="&#x2192;" horiz-adv-x="1265" 
d="M68 657v70h1044l-436 451l51 49l504 -520v-27l-504 -520l-51 49l434 448h-1042z" />
    <glyph glyph-name="arrowdown" unicode="&#x2193;" horiz-adv-x="1265" 
d="M598 1278h70v-1045l450 435l49 -52l-522 -503h-24l-523 503l49 52l451 -435v1045z" />
    <glyph glyph-name="uni2196" unicode="&#x2196;" horiz-adv-x="1265" 
d="M1112 307l-49 -49l-737 737l-11 -624h-71l12 725l18 18l725 12v-71l-624 -11z" />
    <glyph glyph-name="uni2197" unicode="&#x2197;" horiz-adv-x="1265" 
d="M203 258l-49 49l737 737l-625 11v71l725 -12l19 -18l12 -725h-70l-12 624z" />
    <glyph glyph-name="uni2198" unicode="&#x2198;" horiz-adv-x="1265" 
d="M147 1075l50 51l737 -737l12 625h70l-12 -727l-19 -17l-725 -12v70l625 10z" />
    <glyph glyph-name="uni2199" unicode="&#x2199;" horiz-adv-x="1265" 
d="M1069 1126l49 -51l-737 -737l625 -10l-2 -70l-723 12l-19 17l-12 727h69l13 -625z" />
    <glyph glyph-name="uni21A9" unicode="&#x21a9;" horiz-adv-x="2021" 
d="M1925 899q0 -248 -162 -397q-162 -150 -428 -150h-1151l434 -448l-49 -49l-503 520v24l503 523l49 -50l-434 -450h1147q228 -3 372.5 125.5t143.5 351.5q0 232 -139 350q-141 123 -381 123h-371v70h375q277 0 434 -148q160 -148 160 -395z" />
    </font>
</defs>
</svg>
