<?xml version="1.0" standalone="no"?>
<!DOCTYPE svg PUBLIC "-//W3C//DTD SVG 1.1//EN" "http://www.w3.org/Graphics/SVG/1.1/DTD/svg11.dtd" >
<svg xmlns="http://www.w3.org/2000/svg" xmlns:xlink="http://www.w3.org/1999/xlink" version="1.1">
<metadata>
Created by FontForge 20201107 at Mon Dec  1 13:43:46 2025
 By 
Copyright (c) 2016 by THOMAS GILLETT. All rights reserved.
</metadata>
<defs>
<font id="Gordita-Italic" horiz-adv-x="0" >
  <font-face 
    font-family="Gordita"
    font-weight="400"
    font-style="italic"
    font-stretch="normal"
    units-per-em="2048"
    panose-1="0 0 0 0 0 0 0 0 0 0"
    ascent="1638"
    descent="-410"
    x-height="1018"
    cap-height="1493"
    bbox="-406 -614 2626 2109"
    underline-thickness="94"
    underline-position="-190"
    unicode-range="U+000D-FB04"
  />
<missing-glyph horiz-adv-x="1523" 
d="M1430 1493v-1493h-1258v1493h1258zM246 1409l1100 -1333v1333h-1100z" />
    <glyph glyph-name="ff" unicode="ff" horiz-adv-x="1273" 
d="M1399 1556q97 0 135 -28l-33 -125q-52 22 -108 22q-86 0 -133 -47q-54 -51 -80 -159l-54 -201h260l-32 -129h-260l-234 -889h-147l233 889h-454l-234 -889h-147l233 889h-197l33 129h199l61 231q40 160 129 233.5t228 73.5q97 0 135 -28l-33 -125q-52 22 -108 22
q-87 0 -134 -47q-52 -49 -79 -159l-54 -201h457l61 231q40 160 129 233.5t228 73.5z" />
    <glyph glyph-name="fi" unicode="fi" horiz-adv-x="1161" 
d="M1130 1018l-268 -1018h-147l233 889h-456l-234 -889h-147l233 889h-197l33 129h199l61 231q40 160 129 233.5t228 73.5q97 0 135 -28l-33 -125q-52 22 -108 22q-87 0 -134 -47q-52 -49 -79 -159l-54 -201h606zM1163 1495q43 0 72 -28t29 -72q0 -50 -35 -88
q-37 -37 -88 -37q-44 0 -72.5 28t-28.5 72q0 50 35 88q37 37 88 37z" />
    <glyph glyph-name="fl" unicode="fl" horiz-adv-x="1161" 
d="M1122 1554h148l-408 -1554h-149l233 889h-454l-234 -889h-147l233 889h-197l33 129h199l61 231q40 160 129 233.5t228 73.5q97 0 135 -28l-33 -125q-52 22 -108 22q-87 0 -134 -47q-52 -49 -79 -159l-54 -201h457z" />
    <glyph glyph-name="ffi" unicode="ffi" horiz-adv-x="1742" 
d="M1180 1219l-52 -201h603l-267 -1018h-149l233 889h-454l-234 -889h-147l233 889h-454l-234 -889h-147l233 889h-197l33 129h199l61 231q40 160 129 233.5t228 73.5q97 0 135 -28l-33 -125q-52 22 -108 22q-87 0 -134 -47q-52 -49 -79 -159l-54 -201h457l61 231
q40 160 129 233.5t228 73.5q94 0 137 -28l-35 -125q-49 22 -108 22q-86 0 -133 -47q-51 -51 -80 -159zM1763 1495q44 0 72.5 -28t28.5 -72q0 -53 -35 -88q-37 -37 -88 -37q-43 0 -72 28t-29 72q0 51 37 88q34 37 86 37z" />
    <glyph glyph-name="ffl" unicode="ffl" horiz-adv-x="1765" 
d="M1724 1554h150l-410 -1554h-149l233 889h-454l-234 -889h-147l233 889h-454l-234 -889h-147l233 889h-197l33 129h199l61 231q40 160 129 233.5t228 73.5q97 0 135 -28l-33 -125q-52 22 -108 22q-87 0 -134 -47q-52 -49 -79 -159l-54 -201h457l61 231q40 159 129.5 233
t227.5 74q96 0 137 -28l-35 -125q-49 22 -108 22q-86 0 -133 -47q-50 -50 -80 -159l-52 -201h455z" />
    <glyph glyph-name=".notdef" horiz-adv-x="1523" 
d="M1430 1493v-1493h-1258v1493h1258zM246 1409l1100 -1333v1333h-1100z" />
    <glyph glyph-name=".null" 
 />
    <glyph glyph-name="nonmarkingreturn" horiz-adv-x="634" 
 />
    <glyph glyph-name="NULL" 
 />
    <glyph glyph-name="NULL" 
 />
    <glyph glyph-name="CR" unicode="&#xd;" horiz-adv-x="532" 
 />
    <glyph glyph-name="space" unicode=" " horiz-adv-x="532" 
 />
    <glyph glyph-name="exclam" unicode="!" horiz-adv-x="550" 
d="M618 1493l-292 -1061h-133l268 1061h157zM158 -16q52 0 88 36q35 35 35 86q0 44 -29 72.5t-72 28.5q-51 0 -88 -37q-35 -38 -35 -88q0 -44 28 -71t73 -27z" />
    <glyph glyph-name="quotedbl" unicode="&#x22;" horiz-adv-x="780" 
d="M334 885h-64l68 422q6 57 29 108q27 68 82 68q39 0 59 -24.5t20 -65.5q0 -53 -53 -174zM686 885h-63l67 422q5 48 29 108q27 68 82 68q39 0 59.5 -24.5t20.5 -65.5q0 -54 -54 -174z" />
    <glyph glyph-name="numbersign" unicode="#" horiz-adv-x="1505" 
d="M1571 1112l-33 -125h-268l-156 -448h277l-35 -125h-287l-145 -414h-140l146 414h-453l-145 -414h-142l146 414h-256l33 125h268l158 448h-277l33 125h289l133 381h139l-133 -381h453l135 381h139l-135 -381h256zM975 539l158 448h-457l-156 -448h455z" />
    <glyph glyph-name="dollar" unicode="$" horiz-adv-x="1222" 
d="M553 -10l-47 -185h-131l55 209q-151 50 -242 172q-92 124 -92 285q0 19 2 23l150 26q-2 -8 -2 -28q0 -121 59 -210.5t164 -127.5l141 542l-47 21q-118 52 -196 145q-76 91 -76 211q0 97 40.5 181t110.5 139q146 112 349 112h30l51 195h132l-56 -215q76 -23 138.5 -69
t97.5 -101q65 -107 65 -205l-145 -29q0 60 -37 133q-21 43 -62.5 78.5t-95.5 53.5l-143 -545l43 -19q142 -62 217.5 -156t75.5 -214q0 -172 -129 -295q-63 -60 -160.5 -93.5t-216.5 -33.5h-43zM942 406q0 148 -184 227l-31 12l-137 -514h16q138 0 238 74q98 73 98 201z
M449 1085q0 -70 41.5 -127t119.5 -90l41 -18l135 514h-6q-188 0 -282 -125q-49 -64 -49 -154z" />
    <glyph glyph-name="percent" unicode="%" horiz-adv-x="1759" 
d="M924 1208q0 -155 -105 -266q-108 -108 -262 -108q-129 0 -213 84q-84 81 -84 217q0 153 105 264q105 108 260 108q128 0 215 -84q84 -81 84 -215zM219 0l1294 1493h166l-1296 -1493h-164zM1638 360q0 -153 -106 -262q-105 -108 -260 -108q-133 0 -215 82q-84 87 -84 217
q0 154 104 264q106 109 260 109q131 0 215 -84q86 -83 86 -218zM799 1208q0 76 -51 127q-49 49 -130 49q-104 0 -167 -75q-66 -75 -66 -174q0 -79 51 -127q50 -50 129 -50q101 0 168 76q66 75 66 174zM1511 362q0 78 -49 127q-53 50 -131 50q-102 0 -166 -76
q-65 -71 -65 -174q0 -78 49 -127t129 -49q104 0 168 73q65 77 65 176z" />
    <glyph glyph-name="ampersand" unicode="&#x26;" horiz-adv-x="1355" 
d="M1180 659l114 -55q-103 -190 -252 -342l166 -262h-159l-109 172q-109 -87 -230 -135.5t-237 -48.5q-174 0 -287 98q-112 103 -112 260q0 162 125 281q108 100 268 164l61 22l-41 68q-79 122 -79 260q-2 101 53.5 187t148 134t195.5 45q153 0 260 -94q104 -98 104 -248
q0 -232 -311 -352l-137 -53l250 -393q122 131 209 292zM227 367q0 -115 72 -181q74 -65 193 -65q185 0 378 155l-276 435l-19 -9q-348 -133 -348 -335zM631 909l28 -47l170 66q82 31 138 90q57 60 57 135q0 99 -63 162q-62 65 -160 65q-101 0 -176 -69q-72 -72 -72 -172
q0 -111 78 -230z" />
    <glyph glyph-name="quotesingle" unicode="'" horiz-adv-x="425" 
d="M334 885h-64l68 422q6 57 29 108q27 68 82 68q39 0 59 -24.5t20 -65.5q0 -53 -53 -174z" />
    <glyph glyph-name="parenleft" unicode="(" horiz-adv-x="839" 
d="M1030 1667l51 -106q-401 -178 -596 -449q-186 -266 -186 -559q0 -187 66 -344q20 -57 73 -137q47 -72 86 -119q58 -66 103 -111l-86 -90q-175 148 -287 354q-107 198 -107 443q0 341 218 635q108 147 277.5 270.5t387.5 212.5z" />
    <glyph glyph-name="parenright" unicode=")" horiz-adv-x="839" 
d="M-72 -244l-51 105q317 137 510 346q95 103 154 209q118 212 118 452q0 194 -63 344q-25 63 -74 140q-37 53 -88 116q-35 42 -102 113l88 90q175 -153 285 -356q106 -196 106 -443q0 -341 -217 -634q-108 -146 -278 -270t-388 -212z" />
    <glyph glyph-name="asterisk" unicode="*" horiz-adv-x="993" 
d="M1044 1178l9 -111l-310 -18l109 -291l-104 -41l-115 295l-244 -197l-70 86l242 197l-260 172l61 92l263 -170l82 307l110 -29l-84 -307z" />
    <glyph glyph-name="plus" unicode="+" horiz-adv-x="1114" 
d="M1104 788l-35 -139h-397l-105 -395h-141l104 395h-397l37 139h395l103 392h141l-100 -392h395z" />
    <glyph glyph-name="comma" unicode="," horiz-adv-x="550" 
d="M-12 -279l22 76q85 15 144 74q59 62 65 129q-22 -14 -59 -14q-50 0 -80.5 30.5t-30.5 79.5q0 58 43 101q47 41 103 41q64 0 98.5 -42t34.5 -110q0 -145 -99 -250q-97 -106 -241 -115z" />
    <glyph glyph-name="hyphen" unicode="-" horiz-adv-x="839" 
d="M739 676l-41 -158h-544l41 158h544z" />
    <glyph glyph-name="period" unicode="." horiz-adv-x="532" 
d="M174 -16q-54 0 -88.5 33t-34.5 87q0 63 43 109q43 43 107 43q53 0 88 -34.5t35 -88.5q0 -63 -43 -106t-107 -43z" />
    <glyph glyph-name="slash" unicode="/" horiz-adv-x="1019" 
d="M1036 1552h174l-1075 -1562h-174z" />
    <glyph glyph-name="zero" unicode="0" horiz-adv-x="1464" 
d="M676 -16q-239 0 -375 157q-135 156 -135 412q-1 207 80 411.5t219 342.5q92 95 212 147.5t249 52.5q240 0 374 -155q136 -157 136 -410q1 -209 -80 -413.5t-219 -342.5q-92 -95 -212 -148.5t-249 -53.5zM913 1364q-140 1 -266.5 -98t-206.5 -258q-112 -213 -112 -455
q-3 -188 93 -307t265 -119q141 0 268.5 99.5t208.5 258.5q113 212 113 457q0 186 -94 305q-99 117 -269 117z" />
    <glyph glyph-name="one" unicode="1" horiz-adv-x="833" 
d="M745 1493h144l-397 -1493h-156l348 1303l-422 -213l-49 131z" />
    <glyph glyph-name="two" unicode="2" horiz-adv-x="1212" 
d="M1247 1110q0 -308 -405 -504l-283 -137q-127 -63 -217 -145q-96 -90 -125 -181h807l-39 -143h-989q40 210 162 350q118 139 323 242l293 143q132 62 219 146q92 95 92 221q0 124 -77.5 193t-219.5 69q-82 0 -151 -31.5t-115 -85.5q-90 -111 -90 -243v-13l-153 19v8
q0 133 67 246q65 110 189 180q121 65 268 65q211 0 327.5 -112.5t116.5 -286.5z" />
    <glyph glyph-name="three" unicode="3" horiz-adv-x="1232" 
d="M537 -14q-103 0 -188 29.5t-136 80.5q-45 40 -84 109q-60 109 -53 225l151 29q-3 -46 5 -90t30.5 -88.5t58 -77.5t93.5 -53.5t131 -20.5q166 0 282 98q117 102 117 265q0 115 -88 182q-85 67 -209 67q-66 0 -131 -22l-53 131l616 502h-749l39 141h960l-41 -150l-573 -469
q87 -3 157 -30q111 -47 172 -137q64 -94 64 -209q0 -159 -80 -277q-78 -118 -207 -178q-126 -57 -284 -57z" />
    <glyph glyph-name="four" unicode="4" horiz-adv-x="1304" 
d="M215 487h623l217 830zM1239 487l-37 -133h-250l-94 -354h-151l94 354h-776l43 172l981 967h208l-270 -1006h252z" />
    <glyph glyph-name="five" unicode="5" horiz-adv-x="1216" 
d="M606 1348l-207 -480h2q131 88 306 88q113 3 210 -55t150.5 -153.5t50.5 -202.5q0 -122 -46 -229t-126 -179q-78 -72 -181.5 -111.5t-217.5 -39.5q-130 -3 -240.5 53.5t-173 157.5t-57.5 221l151 33q-3 -144 90 -234q92 -92 234 -92q178 0 293 121q114 117 114 291
q0 112 -81 196q-83 86 -218 86q-88 0 -174.5 -38t-158.5 -105l-136 65l326 752h782l-38 -145h-654z" />
    <glyph glyph-name="six" unicode="6" horiz-adv-x="1325" 
d="M1376 1417l-78 -137q-115 80 -280 80q-250 0 -445 -189q-86 -83 -147 -188q-64 -110 -82 -209h4q72 92 191 152q117 57 231 57q126 2 232.5 -52.5t169.5 -156.5t61 -229q0 -115 -45 -221t-123 -181q-79 -73 -186 -115t-222 -42q-128 0 -231 51t-166 145q-52 77 -72 156
q-22 83 -22 215q0 201 72 389q75 193 202 322q245 245 588 245q221 0 348 -92zM1077 524q0 144 -100 234q-102 88 -244 88q-105 2 -199.5 -48.5t-152 -140t-55.5 -194.5q0 -145 96 -238q94 -94 240 -94q108 -3 204.5 49t154.5 144.5t56 199.5z" />
    <glyph glyph-name="seven" unicode="7" horiz-adv-x="1116" 
d="M1280 1348l-999 -1348h-183l1008 1350h-840l39 143h1016z" />
    <glyph glyph-name="eight" unicode="8" horiz-adv-x="1298" 
d="M1288 1126q0 -151 -108.5 -250t-268.5 -133q109 -43 174 -122q72 -84 72 -207q4 -118 -69 -218t-201 -157t-279 -55q-133 -2 -249.5 51.5t-185.5 146.5t-67 199q0 85 34 156.5t93.5 122t136 84t165.5 49.5q-102 42 -162 116q-64 79 -64 193q-3 108 65 202.5t186.5 150.5
t256.5 54q201 0 336 -108t135 -275zM1137 1108q0 111 -93 186q-95 76 -231 76q-142 0 -250 -82q-102 -82 -102 -201q0 -109 94 -182q91 -76 223 -76q157 0 258 84q101 85 101 195zM989 422q0 112 -96 196q-94 82 -244 82q-164 0 -268 -88q-105 -88 -105 -215q0 -122 99 -196
q101 -78 246 -78q156 0 262 86q106 81 106 213z" />
    <glyph glyph-name="nine" unicode="9" horiz-adv-x="1329" 
d="M88 92l76 135q131 -92 293 -92q248 0 444 187q82 79 143 186q61 113 78 209h-4q-74 -95 -192 -154q-120 -57 -236 -57q-196 0 -328 123q-133 124 -133 317q0 157 78 289q80 130 211 203q133 71 291 71q125 0 228.5 -50.5t166.5 -143.5q46 -66 72 -158q22 -93 22 -225
q0 -201 -69 -385q-66 -184 -197 -318q-243 -243 -577 -243q-229 0 -367 106zM387 969q0 -147 102 -236q104 -90 246 -90q104 -3 198.5 49t151.5 144t54 198q0 145 -95 240q-97 94 -237 94q-166 3 -295 -117t-125 -282z" />
    <glyph glyph-name="colon" unicode=":" horiz-adv-x="567" 
d="M170 -16q-54 0 -88.5 33t-34.5 87q0 64 45 109q43 43 105 43q54 0 89.5 -34.5t35.5 -88.5q0 -63 -46 -106q-43 -43 -106 -43zM379 760q-54 0 -88.5 34t-34.5 87q0 65 43 108q45 45 107 45q53 0 87.5 -34.5t34.5 -88.5q0 -63 -43 -106q-45 -45 -106 -45z" />
    <glyph glyph-name="semicolon" unicode=";" horiz-adv-x="604" 
d="M389 760q-54 0 -88.5 33.5t-34.5 87.5q0 65 43 108q45 45 107 45q53 0 88 -34.5t35 -88.5q0 -63 -43 -106q-45 -45 -107 -45zM-2 -279l20 76q87 15 146 74q57 63 63 129q-22 -14 -59 -14q-48 0 -78.5 30.5t-30.5 79.5q0 58 43 101q44 41 103 41q64 0 98.5 -42t34.5 -110
q0 -147 -100 -250q-97 -106 -240 -115z" />
    <glyph glyph-name="less" unicode="&#x3c;" horiz-adv-x="1224" 
d="M123 653l35 138l1112 469l-43 -164l-926 -389l723 -388l-37 -135z" />
    <glyph glyph-name="equal" unicode="=" horiz-adv-x="1191" 
d="M1059 575l-39 -145h-883l39 145h883zM1174 1008l-39 -148h-885l39 148h885z" />
    <glyph glyph-name="greater" unicode="&#x3e;" horiz-adv-x="1224" 
d="M1227 788l-37 -137l-1110 -467l43 162l926 389l-721 387l34 138z" />
    <glyph glyph-name="question" unicode="?" horiz-adv-x="1077" 
d="M590 432h-139q32 189 174 320q45 43 163 127q48 33 78 57t61 58.5t45.5 74.5t14.5 88q0 62 -38 110.5t-97 73.5q-56 21 -117 21q-73 0 -132.5 -21t-98 -55t-65 -79t-37.5 -90t-11 -91l-151 21q1 129 70.5 236.5t186 167.5t251.5 58q163 3 283.5 -98t117.5 -244
q0 -162 -94 -256q-64 -68 -205 -163q-136 -91 -199 -183q-42 -57 -61 -133zM416 -16q-43 0 -71 27t-28 71q0 53 35 88q34 37 86 37q44 0 72.5 -28.5t28.5 -72.5q0 -51 -35 -86q-36 -36 -88 -36z" />
    <glyph glyph-name="at" unicode="@" horiz-adv-x="1667" 
d="M1640 788q0 -144 -53 -264q-59 -133 -153 -209q-101 -82 -222 -82q-159 0 -180 138q-126 -135 -278 -135q-117 0 -191 86q-76 85 -76 200t62 221q60 108 160 168q107 66 215 66q75 0 132.5 -37t80.5 -102l41 133h139l-143 -477q-11 -37 -11 -58q0 -78 76 -78
q69 0 128.5 43.5t96.5 114.5q70 137 70 272q0 99 -44.5 190.5t-119.5 154.5q-76 62 -177 97.5t-208 35.5q-144 0 -280 -62q-134 -61 -234 -164q-98 -98 -158 -239q-59 -132 -59 -287q0 -251 160 -405q166 -158 413 -158q110 0 220 37q111 38 204 98l43 -88
q-90 -67 -225 -111q-134 -41 -250 -41q-190 0 -346 84q-155 86 -240 236q-88 149 -88 340q0 172 68 332q69 162 180 276t271 186q155 70 325 70q125 0 243 -42t210 -116q91 -75 145 -184q53 -112 53 -240zM1090 680q0 79 -50 129q-49 49 -122 49q-114 0 -203 -100
q-90 -104 -90 -221q0 -81 45 -129q48 -54 123 -54q75 -2 145.5 47t112 125.5t39.5 153.5z" />
    <glyph glyph-name="A" unicode="A" horiz-adv-x="1490" 
d="M422 524h694l-121 809zM1120 1493l232 -1493h-158l-57 383h-813l-271 -383h-174l1061 1493h180z" />
    <glyph glyph-name="B" unicode="B" horiz-adv-x="1404" 
d="M1391 1145q0 -151 -105 -256q-105 -102 -270 -137q114 -34 190 -113q74 -77 74 -197q0 -194 -168 -319q-170 -123 -459 -123h-571l399 1493h447q220 0 342 -94q121 -95 121 -254zM1231 1130q0 106 -80.5 164t-228.5 58h-324l-139 -523h329q203 0 322 82q121 83 121 219z
M1120 453q0 114 -96 176q-98 61 -260 61h-342l-146 -547h390q209 0 331 82q123 83 123 228z" />
    <glyph glyph-name="C" unicode="C" horiz-adv-x="1607" 
d="M1649 1026l-154 -45q-7 67 -52.5 146t-123.5 141q-56 43 -137.5 68.5t-173.5 25.5q-137 0 -267 -59q-129 -63 -215 -162q-93 -111 -139 -234q-53 -133 -53 -270q0 -223 137 -363q135 -141 358 -141q94 0 183 26.5t151 69.5q56 39 111 97q74 81 125 188l145 -57
q-52 -133 -172 -250q-64 -63 -143 -113q-81 -49 -191.5 -78.5t-228.5 -29.5q-134 0 -252.5 48.5t-204.5 135.5t-134 209t-48 258q-1 199 92.5 384.5t251.5 309.5q105 84 238.5 130t273.5 46q113 0 212 -29t167 -81q68 -48 121 -113q93 -114 123 -258z" />
    <glyph glyph-name="D" unicode="D" horiz-adv-x="1564" 
d="M782 1348h-182l-321 -1203h276q166 0 315 51t263 144q107 86 174 225q65 136 65 293q0 124 -44.5 219t-124.5 153.5t-186 88t-235 29.5zM532 0h-450l399 1493h307q461 0 650 -283q96 -143 96 -344q0 -230 -108.5 -415.5t-297.5 -296.5q-256 -154 -596 -154z" />
    <glyph glyph-name="E" unicode="E" horiz-adv-x="1261" 
d="M1055 143l-37 -143h-936l399 1493h928l-39 -143h-770l-139 -519h704l-39 -145h-704l-146 -543h779z" />
    <glyph glyph-name="F" unicode="F" horiz-adv-x="1222" 
d="M1405 1493l-37 -145h-770l-143 -539h702l-39 -143h-700l-178 -666h-158l399 1493h924z" />
    <glyph glyph-name="G" unicode="G" horiz-adv-x="1660" 
d="M1645 1055l-154 -47q-21 89 -76 170q-37 52 -86 92q-54 42 -135.5 69t-175.5 27q-147 0 -279 -66q-133 -66 -217 -170q-90 -107 -139 -237q-51 -128 -51 -264q0 -209 125 -350q132 -148 364 -148q225 0 393 121q170 123 228 328h-633l33 143h796q-19 -164 -90.5 -304
t-183.5 -235q-110 -95 -253 -146.5t-300 -51.5q-145 0 -267.5 50t-205.5 140q-81 89 -125.5 205.5t-44.5 245.5q0 163 63.5 321.5t178.5 282.5q113 128 273 202.5t343 75.5q215 0 373 -106q62 -43 123 -107q101 -118 123 -241z" />
    <glyph glyph-name="H" unicode="H" horiz-adv-x="1583" 
d="M1638 1493l-399 -1493h-156l183 684h-844l-182 -684h-158l399 1493h156l-176 -662h844l176 662h157z" />
    <glyph glyph-name="I" unicode="I" horiz-adv-x="583" 
d="M637 1493l-397 -1493h-158l399 1493h156z" />
    <glyph glyph-name="J" unicode="J" horiz-adv-x="1165" 
d="M1079 1493h158l-291 -1083q-114 -424 -491 -424q-180 0 -289 100q-111 99 -111 274q0 76 31 203l12 53l154 5l-29 -123q-18 -70 -18 -117q0 -115 76 -182q74 -68 180 -68q255 0 334 295z" />
    <glyph glyph-name="K" unicode="K" horiz-adv-x="1290" 
d="M444 723h-12l-192 -723h-158l399 1493h156l-174 -655h10l830 655h233l-930 -735l565 -758h-194z" />
    <glyph glyph-name="L" unicode="L" horiz-adv-x="1101" 
d="M987 145l-39 -145h-866l399 1493h156l-358 -1348h708z" />
    <glyph glyph-name="M" unicode="M" horiz-adv-x="1984" 
d="M696 1493l213 -1280l897 1280h234l-400 -1493h-155l338 1268l-891 -1268h-133l-219 1282h-2l-342 -1282h-154l399 1493h215z" />
    <glyph glyph-name="N" unicode="N" horiz-adv-x="1636" 
d="M666 1493l532 -1270l338 1270h156l-400 -1493h-170l-540 1286l-344 -1286h-156l399 1493h185z" />
    <glyph glyph-name="O" unicode="O" horiz-adv-x="1697" 
d="M811 -14q-190 0 -334 84q-151 88 -229 229q-82 152 -82 326q0 169 67 327q61 154 179 285q114 120 274 197q158 73 338 73q136 0 257.5 -48t207.5 -134q85 -88 132.5 -206t47.5 -249q0 -169 -67 -327q-68 -165 -179 -285q-117 -127 -274 -197q-156 -75 -338 -75zM821 131
q145 0 273 64q130 62 217 165q88 98 143 236q51 131 51 272q3 137 -57 250.5t-174 179.5t-258 64q-168 1 -316 -86t-241 -229q-129 -189 -129 -420q-5 -212 134 -355.5t357 -140.5z" />
    <glyph glyph-name="P" unicode="P" horiz-adv-x="1320" 
d="M1397 1102q0 -243 -189 -379q-189 -137 -503 -137h-310l-155 -586h-158l399 1493h414q266 0 399 -127q103 -100 103 -264zM1235 1094q0 129 -94 190q-94 64 -250 64h-293l-164 -621h283q243 0 383 96q135 95 135 271z" />
    <glyph glyph-name="Q" unicode="Q" horiz-adv-x="1701" 
d="M1669 870q0 -182 -78 -358q-80 -174 -217 -299l148 -168l-121 -90l-139 172q-212 -141 -451 -141q-190 0 -334 84q-151 88 -229 229q-82 152 -82 326q0 169 67 327q61 154 179 285q114 120 274 197q158 73 338 73q136 0 257.5 -48t207.5 -134q85 -88 132.5 -206
t47.5 -249zM1505 868q3 137 -57 250.5t-174 179.5t-258 64q-168 1 -316 -86t-241 -229q-129 -189 -129 -420q-5 -212 134 -355.5t357 -140.5q189 0 350 109l-235 280l121 92l225 -280q104 104 164 248q59 135 59 288z" />
    <glyph glyph-name="R" unicode="R" horiz-adv-x="1382" 
d="M856 618l305 -618h-180l-295 604h-287l-159 -604h-158l399 1493h439q246 0 372 -100q131 -104 131 -285q0 -215 -170 -350q-142 -116 -397 -140zM1260 1096q0 123 -91.5 187.5t-257.5 64.5h-313l-160 -603h314q286 0 422 136q86 89 86 215z" />
    <glyph glyph-name="S" unicode="S" horiz-adv-x="1220" 
d="M942 403q0 147 -186 230l-195 84q-118 52 -196 145t-78 213q0 129 71 232q65 94 185 151q111 51 245 51q95 0 178 -27.5t136 -72.5q52 -43 86 -98q63 -97 63 -199l-145 -29q0 34 -14.5 81.5t-47.5 88.5q-38 50 -104.5 82.5t-159.5 32.5q-98 0 -182 -40.5t-125 -117.5
q-29 -60 -29 -125q0 -66 43 -124q38 -55 121 -91l201 -88q142 -62 217.5 -156.5t75.5 -215.5q0 -172 -129 -295q-62 -61 -160.5 -95t-218.5 -34q-102 -2 -195.5 35.5t-161.5 102t-107.5 155.5t-37.5 190v23l152 26v-26q0 -163 100 -263q99 -102 260 -102q136 0 238 76
q100 72 100 200z" />
    <glyph glyph-name="T" unicode="T" horiz-adv-x="1230" 
d="M1460 1495l-41 -147h-497l-361 -1348h-158l361 1348h-500l41 145z" />
    <glyph glyph-name="U" unicode="U" horiz-adv-x="1501" 
d="M1419 1493h158l-252 -940q-70 -259 -213 -399q-165 -168 -420 -168q-236 0 -364 116q-127 121 -127 314q0 96 28 211l230 866h157l-241 -905q-19 -81 -19 -152q0 -143 90 -224t261 -81q177 0 299 119q111 111 170 328q90 345 243 915z" />
    <glyph glyph-name="V" unicode="V" horiz-adv-x="1468" 
d="M637 178l864 1315h178l-993 -1493h-176l-201 1493h164z" />
    <glyph glyph-name="W" unicode="W" horiz-adv-x="2185" 
d="M1354 0l-54 1282l-735 -1282h-166l-90 1493h160l66 -1276h4l718 1276h177l53 -1278h4l735 1278h166l-868 -1493h-170z" />
    <glyph glyph-name="X" unicode="X" horiz-adv-x="1357" 
d="M1370 1493h207l-733 -739l381 -754h-174l-320 649l-620 -649h-211l759 778l-364 715h172l307 -612z" />
    <glyph glyph-name="Y" unicode="Y" horiz-adv-x="1406" 
d="M309 1493h174l275 -721l663 721h199l-821 -883l-162 -610h-158l170 637z" />
    <glyph glyph-name="Z" unicode="Z" horiz-adv-x="1218" 
d="M1362 1350l-1192 -1207h883l-39 -143h-1075l36 143l1188 1209h-835l39 141h1036z" />
    <glyph glyph-name="bracketleft" unicode="[" horiz-adv-x="790" 
d="M569 -102l-34 -129h-523l494 1873h522l-35 -126h-377l-426 -1618h379z" />
    <glyph glyph-name="backslash" unicode="\" horiz-adv-x="964" 
d="M768 -10h-145l-279 1562h148z" />
    <glyph glyph-name="bracketright" unicode="]" horiz-adv-x="790" 
d="M895 1642l-494 -1873h-522l33 129h379l426 1618h-379l35 126h522z" />
    <glyph glyph-name="asciicircum" unicode="^" horiz-adv-x="1116" 
d="M897 1493l227 -633h-161l-158 483l-412 -483h-184l559 633h129z" />
    <glyph glyph-name="underscore" unicode="_" horiz-adv-x="1017" 
d="M-176 -166h1018l-33 -125h-1018z" />
    <glyph glyph-name="grave" unicode="`" horiz-adv-x="315" 
d="M518 1192h-129l-162 328h172z" />
    <glyph glyph-name="a" unicode="a" horiz-adv-x="1284" 
d="M1044 788l58 230h147l-217 -832q-20 -68 -26 -151v-35h-152v23q0 42 29 155q-176 -194 -385 -194q-177 0 -289 118q-113 116 -113 310q0 129 47 250q50 118 127 198q79 82 182.5 129t211.5 47q272 0 380 -248zM993 592q0 131 -88 225q-88 88 -227 88q-116 3 -216 -64.5
t-156.5 -179.5t-53.5 -237q0 -139 80 -225q81 -84 209 -84q110 0 217 67q99 61 170 178q65 112 65 232z" />
    <glyph glyph-name="b" unicode="b" horiz-adv-x="1282" 
d="M1196 608q0 -131 -49 -250q-46 -116 -125 -198q-79 -83 -182 -129.5t-211 -46.5q-146 0 -240 67q-93 71 -141 180l-62 -231h-145l410 1552h147l-186 -710q89 97 180.5 145.5t202.5 48.5q174 0 286 -118q115 -118 115 -310zM1038 596q0 142 -77 225q-81 84 -209 84
q-109 0 -215 -65q-106 -68 -170 -178q-68 -115 -68 -232q0 -132 90 -225q84 -90 225 -90q117 0 217 65q100 68 152 178q55 107 55 238z" />
    <glyph glyph-name="c" unicode="c" horiz-adv-x="1179" 
d="M246 438q0 -146 90 -233q87 -90 239 -90q66 0 130.5 23t109.5 61q89 74 125 151l129 -57q-60 -121 -186 -209q-138 -100 -318 -100q-205 0 -336 125q-133 124 -133 327q0 156 82 293q82 142 217 223q141 84 295 84q99 0 182.5 -31t135.5 -83q100 -100 122 -217l-137 -48
q-16 97 -84 168q-80 80 -227 80q-114 0 -217 -65q-103 -71 -160 -176q-59 -109 -59 -226z" />
    <glyph glyph-name="d" unicode="d" horiz-adv-x="1284" 
d="M1042 793l201 761h150l-363 -1368q-21 -79 -24 -151v-35h-152v23q0 48 31 157q-90 -98 -182 -147t-205 -49q-177 0 -289 118q-113 116 -113 310q0 129 47 250q50 118 127 198q79 82 182.5 129t211.5 47q267 0 378 -243zM993 592q0 131 -88 225q-88 88 -227 88
q-117 0 -217 -65q-100 -68 -154 -176q-53 -112 -53 -240q0 -141 78 -225q81 -84 209 -84q110 0 217 67q99 61 170 178q65 112 65 232z" />
    <glyph glyph-name="e" unicode="e" horiz-adv-x="1165" 
d="M1065 463h-819v-27q0 -149 86 -235q88 -88 225 -88t234 73q78 57 122 136l121 -68q-61 -117 -190 -193q-128 -79 -291 -79q-198 0 -328 127q-127 130 -127 331q0 117 45 222q50 116 121 190q75 85 178 133q102 51 220 51q200 0 311 -114q110 -116 110 -318
q0 -80 -18 -141zM264 590h672v31q0 131 -74 208q-73 76 -207 76q-129 0 -245 -94q-119 -93 -146 -221z" />
    <glyph glyph-name="f" unicode="f" horiz-adv-x="671" 
d="M932 1528l-33 -125q-52 22 -108 22q-87 0 -134 -47q-52 -49 -79 -159l-54 -201h260l-32 -129h-260l-234 -889h-147l233 889h-197l33 129h199l61 231q40 160 129 233.5t228 73.5q97 0 135 -28z" />
    <glyph glyph-name="g" unicode="g" horiz-adv-x="1286" 
d="M399 -510q-183 0 -303 94q-57 47 -88 97q-69 104 -69 217l141 30q-2 -52 22 -115.5t74 -113.5q35 -35 95.5 -56.5t131.5 -21.5q181 0 291 107q102 102 142 256l55 211q-167 -179 -383 -179q-110 0 -202.5 52.5t-147.5 148.5q-58 94 -58 215q0 129 52 242q51 117 129 192
q81 79 182.5 124.5t202.5 45.5q281 0 383 -243l59 225h147l-274 -1041q-62 -235 -209 -361t-373 -126zM680 907q-112 0 -209 -63q-95 -59 -156 -168q-59 -109 -59 -230q0 -131 86 -217q87 -84 209 -84q78 0 157 36.5t142 99.5q63 62 101 147t38 174q0 138 -84 219
q-83 86 -225 86z" />
    <glyph glyph-name="h" unicode="h" horiz-adv-x="1204" 
d="M1067 565l-149 -565h-148l152 575q16 62 16 115q-1 100 -63 156.5t-168 56.5q-120 0 -224 -94q-104 -91 -143 -236l-150 -573h-149l410 1552h149l-184 -700q81 94 164 139t188 45q146 0 236 -84q88 -88 88 -229q0 -63 -25 -158z" />
    <glyph glyph-name="i" unicode="i" horiz-adv-x="491" 
d="M469 1270q-44 0 -72 28t-28 72q0 51 37 88q34 37 86 37q44 0 72 -28t28 -72q0 -50 -35 -88q-37 -37 -88 -37zM459 1018l-266 -1018h-150l266 1018h150z" />
    <glyph glyph-name="j" unicode="j" horiz-adv-x="503" 
d="M606 1395q0 -50 -35 -88q-37 -37 -88 -37q-43 0 -71.5 28t-28.5 72q0 51 37 88q34 37 86 37q43 0 71.5 -28t28.5 -72zM0 -221l326 1239h147l-336 -1278q-67 -248 -327 -248q-78 0 -117 23l33 120q37 -12 79 -12q72 0 122.5 40.5t72.5 115.5z" />
    <glyph glyph-name="k" unicode="k" horiz-adv-x="1034" 
d="M911 0h-184l-397 510h-6l-134 -510h-149l410 1554h149l-252 -950h4l572 414h229l-674 -475z" />
    <glyph glyph-name="l" unicode="l" horiz-adv-x="491" 
d="M600 1554l-410 -1554h-149l410 1554h149z" />
    <glyph glyph-name="m" unicode="m" horiz-adv-x="1855" 
d="M1030 571l-149 -571h-148l150 575q16 62 16 115q0 96 -57 154.5t-154 58.5q-104 0 -209 -94q-96 -89 -139 -238l-150 -571h-149l268 1018h146l-43 -168q82 95 155 139q74 47 181 47q121 0 194 -70t90 -167q71 113 175 175t235 62q134 0 219 -88q88 -85 88 -225
q0 -36 -29 -158l-149 -565h-148l152 573q14 57 14 117q0 101 -57 158q-58 55 -152 55q-106 0 -211 -94q-100 -93 -139 -238z" />
    <glyph glyph-name="n" unicode="n" horiz-adv-x="1204" 
d="M1067 565l-149 -565h-148l152 575q16 62 16 115q0 99 -62.5 156t-168.5 57q-120 0 -224 -94q-100 -87 -143 -236l-150 -573h-149l268 1018h146l-43 -168q86 95 168.5 140.5t187.5 45.5q146 0 236 -84q88 -88 88 -229q0 -63 -25 -158z" />
    <glyph glyph-name="o" unicode="o" horiz-adv-x="1236" 
d="M555 -16q-205 0 -332 127t-127 325q0 156 82 293q79 138 217 223q141 84 295 84q206 0 334 -125q127 -130 127 -325q0 -160 -82 -297q-81 -139 -219 -223q-137 -82 -295 -82zM565 115q107 0 213 65q104 71 160 174q61 107 61 226q0 154 -88 239q-89 86 -231 86
q-112 0 -215 -65q-103 -71 -160 -176q-59 -109 -59 -224q0 -155 88 -237q85 -88 231 -88z" />
    <glyph glyph-name="p" unicode="p" horiz-adv-x="1282" 
d="M629 -16q-147 0 -238 67q-92 66 -141 176l-193 -729h-147l399 1520h146l-47 -178q95 100 185.5 148t201.5 48q176 0 288 -118q113 -119 113 -310q0 -129 -47 -250q-49 -116 -125 -198q-80 -83 -183.5 -129.5t-211.5 -46.5zM614 115q115 -2 214.5 65t156.5 179t55 237
q0 140 -79 225q-81 84 -209 84q-109 0 -215 -65q-106 -68 -170 -178q-68 -115 -68 -232q0 -132 90 -225q84 -90 225 -90z" />
    <glyph glyph-name="q" unicode="q" horiz-adv-x="1282" 
d="M666 1036q269 0 378 -248l62 230h143l-399 -1520h-148l179 678q-88 -96 -179.5 -144t-203.5 -48q-175 0 -287 118q-115 118 -115 310q0 129 47 250q50 118 127 198q79 83 183 129.5t213 46.5zM678 905q-115 3 -214.5 -64.5t-156 -180t-53.5 -236.5q0 -141 78 -225
q81 -84 209 -84q113 0 217 67q104 64 170 178q65 107 65 232q0 131 -88 225q-88 88 -227 88z" />
    <glyph glyph-name="r" unicode="r" horiz-adv-x="727" 
d="M410 842q80 105 172 147q85 39 192 39q39 0 55 -8l-41 -156q-30 6 -67 6q-79 0 -148 -33t-118 -88t-83 -118.5t-53 -132.5l-129 -498h-149l268 1018h146z" />
    <glyph glyph-name="s" unicode="s" horiz-adv-x="925" 
d="M887 750l-137 -35q-12 90 -76 147q-55 45 -152 45q-82 0 -137 -43q-57 -45 -57 -123q0 -82 100 -125l135 -59q84 -34 154 -111q61 -73 61 -163q0 -128 -98 -213q-98 -88 -262 -88q-94 0 -170.5 32t-120.5 86q-86 103 -86 222l137 32q0 -98 66 -170q62 -71 180 -71
q92 0 149 45q56 44 56 118q0 99 -127 154l-125 55q-199 87 -199 244q0 127 101 217t253 90q206 -3 297 -139q48 -69 58 -147z" />
    <glyph glyph-name="t" unicode="t" horiz-adv-x="714" 
d="M594 1311l-78 -293h254l-35 -131h-254l-159 -608q-7 -31 -7 -52q0 -60 36.5 -82t101.5 -22q26 0 88 10l-35 -127q-38 -14 -96 -14q-111 0 -177.5 56t-66.5 155q0 43 12 92l156 592h-187l35 131h187l77 293h148z" />
    <glyph glyph-name="u" unicode="u" horiz-adv-x="1206" 
d="M803 168q-82 -94 -167.5 -140t-189.5 -46q-143 0 -233 84t-90 229q0 61 24 156l150 567h147l-153 -576q-15 -66 -15 -114q0 -101 62.5 -157t167.5 -56q128 0 231 100q101 101 135 231l152 572h147l-219 -832q-20 -75 -26 -151v-35h-148q0 2 -1 11.5t-1 11.5q0 34 27 145z
" />
    <glyph glyph-name="v" unicode="v" horiz-adv-x="1101" 
d="M1024 1018h172l-694 -1018h-158l-164 1018h156l123 -854z" />
    <glyph glyph-name="w" unicode="w" horiz-adv-x="1648" 
d="M1032 1018l58 -838l497 838h154l-613 -1018h-165l-56 823l-487 -823h-162l-74 1018h152l51 -838l492 838h153z" />
    <glyph glyph-name="x" unicode="x" horiz-adv-x="1048" 
d="M616 512l271 -512h-164l-209 412l-416 -412h-192l545 526l-261 492h166l201 -391l385 391h195z" />
    <glyph glyph-name="y" unicode="y" horiz-adv-x="1138" 
d="M1071 1018h170l-1065 -1520h-166l361 510l-193 1010h154l153 -854z" />
    <glyph glyph-name="z" unicode="z" horiz-adv-x="972" 
d="M1024 1018l-35 -127l-823 -764h631l-33 -127h-815l33 127l817 764h-602l34 127h793z" />
    <glyph glyph-name="braceleft" unicode="{" horiz-adv-x="798" 
d="M80 641l33 131q114 3 200 55q48 28 79 82t38 125l27 215q27 236 153 318q64 42 145 60t201 18h78l-33 -129h-63q-126 -3 -192 -28t-101 -85q-22 -39 -32.5 -83t-18.5 -120l-21 -180q-6 -65 -43 -137q-19 -37 -53 -76q-32 -36 -84 -63t-114 -37v-2q70 -14 109.5 -53
t46 -91t-2 -102.5t-29.5 -100.5l-61 -145q-40 -93 -53 -156q-13 -61 14 -102q37 -57 209 -57h63l-34 -129h-72q-110 0 -183.5 24.5t-112.5 77t-35 139t52 205.5l72 172q99 248 -182 254z" />
    <glyph glyph-name="bar" unicode="|" horiz-adv-x="546" 
d="M666 1700l-506 -1921h-146l506 1921h146z" />
    <glyph glyph-name="braceright" unicode="}" horiz-adv-x="798" 
d="M836 772l-35 -131q-56 -1 -105 -14t-95 -41t-77 -81t-41 -126l-24 -215q-27 -234 -154 -318q-63 -42 -144.5 -59.5t-201.5 -17.5h-78l33 129h63q126 3 192 28t101 84q38 72 52 203l20 180q7 68 43 137q16 34 53 76q73 80 197 101l2 2q-57 11 -93.5 39.5t-51 64t-15 79.5
t8.5 84t26 79l61 145q42 97 54 156q13 59 -13 102q-40 58 -213 58h-61l35 129h71q110 0 183.5 -25t112.5 -77.5t35 -139t-52 -205.5l-72 -172q-102 -248 183 -254z" />
    <glyph glyph-name="asciitilde" unicode="~" horiz-adv-x="1228" 
d="M846 440q-56 0 -117 27q-64 24 -106 57q-68 44 -101 60q-55 24 -98 24q-42 0 -76.5 -20t-75.5 -64l-90 88q48 68 115.5 107t140.5 39q49 0 104 -19.5t88 -39t81 -52.5q91 -59 149 -59q43 0 78 21t76 67l88 -88q-43 -69 -110.5 -108.5t-145.5 -39.5z" />
    <glyph glyph-name="uni00A0" unicode="&#xa0;" horiz-adv-x="532" 
 />
    <glyph glyph-name="exclamdown" unicode="&#xa1;" horiz-adv-x="507" 
d="M379 1036q46 0 74 -28t28 -72q0 -52 -37 -86q-34 -37 -86 -37q-44 0 -73 27.5t-29 70.5q0 51 37 88t86 37zM-82 -473l295 1059h133l-268 -1059h-160z" />
    <glyph glyph-name="cent" unicode="&#xa2;" horiz-adv-x="1208" 
d="M578 119h8q66 0 128.5 23t108.5 61q86 71 123 147l129 -55q-61 -118 -184 -207q-63 -45 -146.5 -71.5t-169.5 -26.5h-28l-31 -121h-125l39 139q-144 40 -231 156q-86 112 -86 272q0 152 80 291q80 138 215 221q134 82 290 82l29 117h125l-33 -129q133 -30 215 -121
q84 -96 101 -195l-138 -47q-12 82 -65 150q-54 67 -150 88zM260 440q0 -115 54 -194.5t153 -110.5l201 766q-110 -6 -205 -74q-99 -74 -148 -172q-55 -104 -55 -215z" />
    <glyph glyph-name="sterling" unicode="&#xa3;" horiz-adv-x="1241" 
d="M1227 1137l-150 -25v21q0 101 -69 167q-70 64 -174 64q-80 0 -141 -29.5t-98.5 -81t-56 -117.5t-18.5 -143q0 -47 21 -176h411l-39 -143h-358q0 -166 -82 -303q-84 -140 -227 -228h440q115 0 195 68q75 63 96 174l147 -27q-14 -101 -76.5 -184.5t-152 -129.5t-182.5 -44
h-715l41 156q154 73 258 213q95 139 98 305h-219l39 143h166q-21 135 -21 184q0 222 132 363q128 143 348 143q167 0 280 -96q109 -100 109 -233q0 -27 -2 -41z" />
    <glyph glyph-name="currency" unicode="&#xa4;" horiz-adv-x="1409" 
d="M1167 514q0 -155 -98 -270l160 -162l-92 -92l-164 166q-118 -78 -264 -78q-145 0 -260 78l-166 -166l-93 92l162 164q-96 113 -96 268q0 153 94 272l-160 160l93 94l166 -166q113 82 260 82q145 0 264 -79l164 163l92 -94l-160 -160q98 -115 98 -272zM395 514
q0 -133 90 -217q86 -86 224 -86q137 0 229 86q90 84 90 217q0 134 -92 223q-88 88 -227 88t-224 -88q-90 -90 -90 -223z" />
    <glyph glyph-name="yen" unicode="&#xa5;" horiz-adv-x="1425" 
d="M1614 1493l-719 -793h403l-34 -125h-461l-47 -176h463l-35 -127h-461l-74 -272h-157l73 272h-463l35 127h461l47 176h-461l33 125h422l-297 793h170l260 -721l645 721h197z" />
    <glyph glyph-name="brokenbar" unicode="&#xa6;" horiz-adv-x="540" 
d="M518 1700h146l-197 -746h-145zM352 522l-194 -743h-148l197 743h145z" />
    <glyph glyph-name="section" unicode="&#xa7;" horiz-adv-x="1269" 
d="M1262 1184l-136 -35q-16 85 -90 151q-37 36 -98.5 57t-132.5 21q-96 0 -166 -45q-66 -43 -66 -108q0 -54 53 -96t173 -85l133 -45q164 -60 233 -118q70 -64 70 -160q0 -115 -105 -189q-103 -72 -276 -81q141 -73 141 -197t-114 -201q-119 -78 -287 -78q-102 0 -191.5 34
t-146.5 91q-114 108 -133 236l135 35q19 -101 100 -176q41 -41 106.5 -65t141.5 -24q100 0 164 46q68 44 68 106q0 55 -54 97t-180 87l-123 43q-160 53 -235 119q-70 64 -70 158q0 116 105 190q101 73 274 82q-139 75 -139 195q0 128 114 203q115 77 287 77
q117 0 210.5 -43.5t152.5 -111.5q72 -84 82 -170zM1081 709q0 53 -46.5 93t-149.5 75l-86 28q-95 35 -207 35q-113 0 -186 -49q-78 -47 -78 -117q0 -53 49.5 -92.5t163.5 -77.5l71 -26q100 -35 207 -35q111 0 187 49q75 49 75 117z" />
    <glyph glyph-name="dieresis" unicode="&#xa8;" horiz-adv-x="643" 
d="M317 1188q-44 0 -73 29t-29 73q0 56 37 90q37 37 88 37q44 0 73 -29t29 -73q0 -54 -34 -88q-39 -39 -91 -39zM684 1188q-44 0 -73 29t-29 73q0 53 34 90q37 37 91 37q44 0 73 -29t29 -73q0 -56 -37 -88q-36 -39 -88 -39z" />
    <glyph glyph-name="copyright" unicode="&#xa9;" horiz-adv-x="1769" 
d="M1247 45q-139 -60 -294 -60t-294 60q-139 62 -239 162q-104 104 -162 244q-59 135 -59 294q0 162 59 297q60 145 162 244q105 105 239 162q140 61 293 61q155 0 295 -61q135 -57 240 -162q99 -99 162 -244q59 -142 59 -297q0 -152 -59 -294q-61 -140 -162 -244
q-99 -99 -240 -162zM1286 1327q-150 90 -334 90q-181 0 -329 -90q-153 -89 -240 -244q-86 -157 -86 -338q0 -141 51 -260q53 -127 139 -213q88 -92 209 -143q121 -53 256 -53q134 0 258 53q123 54 209 143q88 88 140 213q51 119 51 260q0 181 -86 338q-91 157 -238 244z
M1253 616l133 -45q-33 -116 -149 -206q-118 -89 -281 -89q-200 0 -331 134q-133 130 -133 333q-2 100 35.5 190t102 153t152 99t181.5 34q154 0 270 -82q119 -85 149 -209l-133 -43q-17 62 -86 131q-35 35 -89 55.5t-116 20.5q-140 0 -229 -99q-92 -103 -92 -241
q0 -145 88 -246q87 -100 233 -100q136 0 209 79q58 60 86 131z" />
    <glyph glyph-name="ordfeminine" unicode="&#xaa;" horiz-adv-x="1130" 
d="M1022 735h-135v121h-6q-31 -59 -97 -95t-147 -36q-153 0 -248 109q-98 107 -98 258q0 140 96 251q45 53 110.5 84t139.5 31q80 0 144 -36.5t100 -98.5h6v123h135v-711zM887 1094q0 93 -66 168q-65 71 -162 71q-103 0 -163 -69q-66 -69 -66 -174q0 -99 68 -170
q64 -70 161 -70q98 0 164 72q64 70 64 172zM995 399h-723v125h723v-125z" />
    <glyph glyph-name="guillemotleft" unicode="&#xab;" horiz-adv-x="1093" 
d="M117 573l434 347l76 -103l-326 -258l178 -237l-108 -86zM539 573l434 347l78 -103l-328 -258l178 -237l-108 -86z" />
    <glyph glyph-name="logicalnot" unicode="&#xac;" horiz-adv-x="1243" 
d="M942 502l92 356h-835l37 137h978l-129 -493h-143z" />
    <glyph glyph-name="uni00AD" unicode="&#xad;" horiz-adv-x="839" 
d="M739 676l-41 -158h-544l41 158h544z" />
    <glyph glyph-name="registered" unicode="&#xae;" horiz-adv-x="1196" 
d="M731 522q-130 0 -242 68q-108 61 -176 178q-65 110 -65 248q0 98 37.5 189.5t103.5 158.5q65 67 155 105t187 38q128 3 242 -64.5t181 -182t65 -244.5q2 -130 -65 -245.5t-180.5 -183t-242.5 -65.5zM731 1434q-167 0 -287 -123q-118 -124 -118 -295q-2 -111 53 -209.5
t150 -156t202 -54.5q107 -3 203 54.5t152 156t53 209.5q0 173 -119 295q-120 123 -289 123zM977 719h-115l-153 225h-76v-225h-94v592h198q102 0 158.5 -50.5t56.5 -130.5q0 -65 -38.5 -109t-100.5 -60zM827 1065q27 27 29 64t-30 65t-91 25h-102v-185h100q66 3 94 31z" />
    <glyph glyph-name="degree" unicode="&#xb0;" horiz-adv-x="874" 
d="M571 840q-131 0 -213 82q-79 79 -79 204q0 149 112 267q112 112 266 112q130 0 213 -80q82 -82 82 -204q0 -153 -114 -267t-267 -114zM645 1380q-101 0 -168 -73q-69 -75 -69 -172q0 -80 46.5 -125t129.5 -45q96 0 168 75q71 74 71 170q0 80 -47.5 125t-130.5 45z" />
    <glyph glyph-name="plusminus" unicode="&#xb1;" horiz-adv-x="1241" 
d="M733 639l-90 -350h-147l92 350h-414l37 139h414l92 344h143l-90 -344h414l-37 -139h-414zM979 18l37 138h-965l-37 -138h965z" />
    <glyph glyph-name="uni00B2" unicode="&#xb2;" horiz-adv-x="886" 
d="M848 811h-625q41 231 295 354l189 90q68 37 102 68q45 48 45 121q0 59 -40 95t-112 36q-88 0 -137 -55q-49 -52 -49 -134l-129 13q0 101 78 194q38 47 103 76t141 29q142 0 215 -86q63 -81 63 -164q0 -99 -55.5 -169t-173.5 -128l-176 -86q-140 -70 -162 -133h459z" />
    <glyph glyph-name="uni00B3" unicode="&#xb3;" horiz-adv-x="860" 
d="M995 1538l-299 -211q65 -12 119 -53q82 -65 82 -176q0 -91 -49 -164q-52 -74 -125 -107q-73 -36 -168 -36q-132 0 -217 79q-83 83 -80 211l129 17q-1 -33 7 -63.5t26.5 -59.5t54 -46.5t84.5 -17.5q82 0 143 52q58 49 58 131q0 57 -43 94q-41 35 -103 35q-48 0 -92 -21
l-49 107l356 252h-438l33 118h610z" />
    <glyph glyph-name="acute" unicode="&#xb4;" horiz-adv-x="514" 
d="M387 1192h-156l277 328h192z" />
    <glyph glyph-name="uni00B5" unicode="&#xb5;" horiz-adv-x="1263" 
d="M332 1018h147l-153 -582q-15 -56 -15 -114q0 -94 61 -150.5t171 -56.5q126 0 229 100q104 104 137 231l150 572h147l-219 -832q-24 -95 -24 -151v-35h-150v23q0 51 27 145q-85 -95 -169 -140.5t-186 -45.5q-166 0 -243 139l-115 -434h-145z" />
    <glyph glyph-name="paragraph" unicode="&#xb6;" horiz-adv-x="968" 
d="M461 0l188 709q-89 3 -162 23.5t-129.5 59t-88 102t-31.5 146.5q0 208 151 332q151 121 430 121h191l-398 -1493h-151z" />
    <glyph glyph-name="middot" unicode="&#xb7;" horiz-adv-x="563" 
d="M211 506q-39 39 -39 98q0 57 39 96t96 39q60 0 99 -39q38 -38 38 -96q0 -60 -38 -98q-39 -39 -99 -39q-57 0 -96 39z" />
    <glyph glyph-name="uni00B9" unicode="&#xb9;" horiz-adv-x="645" 
d="M788 1679l-206 -868h-136l172 717l-270 -125l-41 106l361 170h120z" />
    <glyph glyph-name="ordmasculine" unicode="&#xba;" horiz-adv-x="1155" 
d="M659 725q-154 0 -260 106q-108 105 -108 259q0 159 106 262q106 106 267 106q155 0 262 -104q106 -106 106 -258q0 -162 -106 -265q-106 -106 -267 -106zM659 1333q-99 0 -163 -67q-66 -72 -66 -170q0 -103 68 -174q66 -72 166 -72q99 0 163 70q66 72 66 170
q0 100 -66 172q-65 71 -168 71zM1024 399h-725v125h725v-125z" />
    <glyph glyph-name="guillemotright" unicode="&#xbb;" horiz-adv-x="1091" 
d="M600 582l-434 -346l-76 102l328 258l-180 238l108 86zM1024 582l-436 -346l-76 102l328 258l-178 238l106 86z" />
    <glyph glyph-name="onequarter" unicode="&#xbc;" horiz-adv-x="1781" 
d="M1683 1493l-1294 -1493h-166l1295 1493h165zM768 1493l-209 -868h-135l172 716l-268 -124l-41 106l358 170h123zM1618 190h-158l-45 -190h-131l45 190h-475l35 146l571 534h164l-135 -561h158zM1358 309l98 410l-436 -410h338z" />
    <glyph glyph-name="onehalf" unicode="&#xbd;" horiz-adv-x="1861" 
d="M1686 1493l-1297 -1493h-164l1293 1493h168zM768 1493l-209 -868h-133l172 716l-270 -124l-41 106l358 170h123zM1010 0h624l33 121h-461q28 67 162 131l176 86q118 58 174 128.5t56 168.5q0 88 -64 164q-32 40 -88.5 64t-126.5 24q-63 0 -117 -19.5t-91 -51.5t-63 -71.5
t-38 -79.5t-12 -77l129 -15q0 81 49 136t137 55q73 0 113 -36.5t40 -94.5q0 -74 -47 -121q-34 -31 -102 -68l-186 -90q-257 -127 -297 -354z" />
    <glyph glyph-name="threequarters" unicode="&#xbe;" horiz-adv-x="1894" 
d="M936 1352l-301 -213q69 -12 119 -54q37 -28 59.5 -74.5t22.5 -99.5q0 -138 -101 -223q-103 -84 -239 -84q-137 0 -220 80q-82 82 -79 209l129 18q-1 -33 7 -64t26.5 -59.5t54 -45.5t84.5 -17q88 0 143 49q57 48 57 133q0 55 -43 92q-38 35 -102 35q-45 0 -92 -18l-49 104
l356 252h-438l32 123h613zM1810 1493l-1296 -1493h-166l1294 1493h168zM1741 190h-158l-45 -190h-131l45 190h-475l37 146l571 534h164l-135 -561h155zM1481 309l98 410l-434 -410h336z" />
    <glyph glyph-name="questiondown" unicode="&#xbf;" horiz-adv-x="1050" 
d="M655 1036q43 0 71 -28t28 -72q0 -51 -35 -86q-34 -37 -86 -37q-44 0 -72.5 27.5t-28.5 70.5q0 55 35 90q38 35 88 35zM481 586h140q-32 -187 -172 -320q-52 -49 -166 -125q-49 -34 -78.5 -58.5t-60.5 -59t-45.5 -74t-14.5 -86.5q0 -63 38 -112.5t97 -72.5q58 -22 117 -22
q72 0 131.5 21t98 55t65 79t38 90.5t11.5 90.5l149 -19q0 -129 -69.5 -236.5t-186 -167.5t-251.5 -58q-162 -3 -282.5 98t-119.5 244q0 160 96 256q59 61 205 163q136 91 199 183q42 56 61 131z" />
    <glyph glyph-name="Agrave" unicode="&#xc0;" horiz-adv-x="1490" 
d="M821 1958h172l119 -328h-129zM1194 0l-57 383h-813l-271 -383h-174l1061 1493h180l232 -1493h-158zM995 1333l-573 -809h694z" />
    <glyph glyph-name="Aacute" unicode="&#xc1;" horiz-adv-x="1490" 
d="M1124 1630h-155l276 328h193zM1120 1493l232 -1493h-158l-57 383h-813l-271 -383h-174l1061 1493h180zM422 524h694l-121 809z" />
    <glyph glyph-name="Acircumflex" unicode="&#xc2;" horiz-adv-x="1490" 
d="M1386 1628h-147l-115 225h-4l-229 -225h-168l340 328h147zM1194 0l-57 383h-813l-271 -383h-174l1061 1493h180l232 -1493h-158zM995 1333l-573 -809h694z" />
    <glyph glyph-name="Atilde" unicode="&#xc3;" horiz-adv-x="1490" 
d="M1188 1669q-70 0 -113 47q-45 45 -110 45q-67 0 -105 -92h-108q26 96 88 158q58 61 151 61q62 0 115 -45q57 -45 113 -45q64 0 110 86h94q-63 -215 -235 -215zM1120 1493l232 -1493h-158l-57 383h-813l-271 -383h-174l1061 1493h180zM422 524h694l-121 809z" />
    <glyph glyph-name="Adieresis" unicode="&#xc4;" horiz-adv-x="1490" 
d="M883 1636q-44 0 -73.5 28.5t-29.5 72.5q0 53 37 90q34 37 88 37q45 0 75 -29t30 -74q0 -51 -37 -88q-40 -37 -90 -37zM1262 1636q-44 0 -73.5 28.5t-29.5 72.5q0 53 37 90q34 37 88 37q45 0 75 -29t30 -74q0 -51 -37 -88t-90 -37zM1194 0l-57 383h-813l-271 -383h-174
l1061 1493h180l232 -1493h-158zM995 1333l-573 -809h694z" />
    <glyph glyph-name="Aring" unicode="&#xc5;" horiz-adv-x="1492" 
d="M1137 1393l215 -1393h-158l-57 383h-813l-271 -383h-174l1000 1409q-82 61 -82 174q0 117 86 203q85 88 202 88q99 0 164 -62q62 -62 62 -155q0 -88 -49 -158q-51 -73 -125 -106zM1075 1772q-61 0 -117 -56q-51 -54 -51 -125q0 -57 33.5 -90t89.5 -33q64 0 117 56
q51 51 51 123q0 58 -33.5 91.5t-89.5 33.5zM1116 524l-121 809l-573 -809h694z" />
    <glyph glyph-name="AE" unicode="&#xc6;" horiz-adv-x="2019" 
d="M944 383h-573l-320 -383h-186l1253 1493h1047l-39 -143h-766l-139 -519h704l-37 -145h-706l-146 -543h776l-34 -143h-936zM981 524l221 832h-24l-691 -832h494z" />
    <glyph glyph-name="Ccedilla" unicode="&#xc7;" horiz-adv-x="1607" 
d="M829 133q94 0 183 26.5t151 69.5q56 39 111 97q74 81 125 188l145 -57q-60 -151 -209 -285q-78 -72 -191 -120.5t-241 -61.5q31 -51 31 -113q0 -88 -45.5 -164t-122.5 -123q-94 -55 -213 -55q-87 0 -154 23l31 114q55 -14 127 -14q103 0 172 63q70 64 70 166q0 52 -29 99
q-169 9 -307 96q-138 82 -215 231q-78 147 -78 324q-1 199 92.5 384.5t251.5 309.5q105 84 238.5 130t273.5 46q113 0 212 -29t167 -81q68 -48 121 -113q93 -114 123 -258l-154 -45q-7 67 -52.5 146t-123.5 141q-56 43 -137.5 68.5t-173.5 25.5q-137 0 -267 -59
q-129 -63 -215 -162q-93 -111 -139 -234q-53 -133 -53 -270q0 -223 137 -363q135 -141 358 -141z" />
    <glyph glyph-name="Egrave" unicode="&#xc8;" horiz-adv-x="1261" 
d="M750 1958h172l118 -328h-129zM82 0l399 1493h928l-39 -143h-770l-139 -519h704l-39 -145h-704l-146 -543h779l-37 -143h-936z" />
    <glyph glyph-name="Eacute" unicode="&#xc9;" horiz-adv-x="1261" 
d="M1042 1630h-157l276 328h193zM1055 143l-37 -143h-936l399 1493h928l-39 -143h-770l-139 -519h704l-39 -145h-704l-146 -543h779z" />
    <glyph glyph-name="Ecircumflex" unicode="&#xca;" horiz-adv-x="1261" 
d="M1298 1628h-149l-115 225h-4l-229 -225h-168l340 328h149zM82 0l399 1493h928l-39 -143h-770l-139 -519h704l-39 -145h-704l-146 -543h779l-37 -143h-936z" />
    <glyph glyph-name="Edieresis" unicode="&#xcb;" horiz-adv-x="1261" 
d="M795 1636q-44 0 -73.5 28.5t-29.5 72.5q0 52 35 90q34 37 90 37q45 0 75 -29t30 -74q0 -52 -39 -88q-37 -37 -88 -37zM1174 1636q-44 0 -73.5 28.5t-29.5 72.5q0 53 37 90q34 37 88 37q45 0 74.5 -29t29.5 -74q0 -52 -36 -88q-37 -37 -90 -37zM82 0l399 1493h928
l-39 -143h-770l-139 -519h704l-39 -145h-704l-146 -543h779l-37 -143h-936z" />
    <glyph glyph-name="Igrave" unicode="&#xcc;" horiz-adv-x="583" 
d="M352 1958h172l119 -328h-129zM82 0l399 1493h156l-397 -1493h-158z" />
    <glyph glyph-name="Iacute" unicode="&#xcd;" horiz-adv-x="583" 
d="M668 1630h-156l276 328h193zM637 1493l-397 -1493h-158l399 1493h156z" />
    <glyph glyph-name="Icircumflex" unicode="&#xce;" horiz-adv-x="583" 
d="M911 1628h-149l-115 225h-2l-231 -225h-168l340 328h149zM82 0l399 1493h156l-397 -1493h-158z" />
    <glyph glyph-name="Idieresis" unicode="&#xcf;" horiz-adv-x="583" 
d="M424 1636q-44 0 -73 28.5t-29 72.5q0 54 36 90q34 37 88 37q45 0 75 -29t30 -74q0 -51 -37 -88t-90 -37zM780 1636q-44 0 -73 28.5t-29 72.5q0 53 37 90q34 37 88 37q45 0 74.5 -29t29.5 -74q0 -51 -37 -88t-90 -37zM82 0l399 1493h156l-397 -1493h-158z" />
    <glyph glyph-name="Eth" unicode="&#xd0;" horiz-adv-x="1617" 
d="M135 0l182 686h-206l39 145h206l176 662h308q462 0 651 -283q94 -140 94 -344q1 -230 -107.5 -415.5t-297.5 -296.5q-253 -154 -596 -154h-449zM836 1348h-185l-137 -517h358l-38 -145h-359l-145 -541h276q166 0 316.5 51t261.5 144q111 88 176 225q63 132 63 293
q0 124 -44 219t-123.5 153.5t-185 88t-234.5 29.5z" />
    <glyph glyph-name="Ntilde" unicode="&#xd1;" horiz-adv-x="1636" 
d="M1260 1669q-35 0 -66 13.5t-47 33.5q-49 45 -111 45q-65 0 -106 -92h-107q22 91 86 158q61 61 152 61q60 0 117 -45t112 -45q33 0 61.5 24t47.5 62h94q-63 -215 -233 -215zM1536 1493h156l-400 -1493h-170l-540 1286l-344 -1286h-156l399 1493h185l532 -1270z" />
    <glyph glyph-name="Ograve" unicode="&#xd2;" horiz-adv-x="1697" 
d="M817 1958h172l119 -328h-129zM811 -14q-190 0 -334 84q-151 88 -229 229q-82 152 -82 326q0 169 67 327q61 154 179 285q114 120 274 197q158 73 338 73q136 0 257.5 -48t207.5 -134q85 -88 132.5 -206t47.5 -249q0 -169 -67 -327q-68 -165 -179 -285
q-117 -127 -274 -197q-156 -75 -338 -75zM821 131q145 0 273 64q130 62 217 165q88 98 143 236q51 131 51 272q3 137 -57 250.5t-174 179.5t-258 64q-168 1 -316 -86t-241 -229q-129 -189 -129 -420q-5 -212 134 -355.5t357 -140.5z" />
    <glyph glyph-name="Oacute" unicode="&#xd3;" horiz-adv-x="1697" 
d="M1118 1630h-155l276 328h193zM811 -14q-190 0 -334 84q-151 88 -229 229q-82 152 -82 326q0 169 67 327q61 154 179 285q114 120 274 197q158 73 338 73q136 0 257.5 -48t207.5 -134q85 -88 132.5 -206t47.5 -249q0 -169 -67 -327q-68 -165 -179 -285
q-117 -127 -274 -197q-156 -75 -338 -75zM821 131q145 0 273 64q130 62 217 165q88 98 143 236q51 131 51 272q3 137 -57 250.5t-174 179.5t-258 64q-168 1 -316 -86t-241 -229q-129 -189 -129 -420q-5 -212 134 -355.5t357 -140.5z" />
    <glyph glyph-name="Ocircumflex" unicode="&#xd4;" horiz-adv-x="1697" 
d="M1403 1628h-148l-114 225h-4l-230 -225h-168l340 328h150zM811 -14q-190 0 -334 84q-151 88 -229 229q-82 152 -82 326q0 169 67 327q61 154 179 285q114 120 274 197q158 73 338 73q136 0 257.5 -48t207.5 -134q85 -88 132.5 -206t47.5 -249q0 -169 -67 -327
q-68 -165 -179 -285q-117 -127 -274 -197q-156 -75 -338 -75zM821 131q145 0 273 64q130 62 217 165q88 98 143 236q51 131 51 272q3 137 -57 250.5t-174 179.5t-258 64q-168 1 -316 -86t-241 -229q-129 -189 -129 -420q-5 -212 134 -355.5t357 -140.5z" />
    <glyph glyph-name="Otilde" unicode="&#xd5;" horiz-adv-x="1697" 
d="M1212 1669q-71 0 -114 47q-45 45 -109 45q-65 0 -106 -92h-107q23 95 86 158q58 61 152 61q59 0 116 -45q53 -45 113 -45q33 0 61.5 24t47.5 62h94q-29 -100 -88 -157.5t-146 -57.5zM811 -14q-190 0 -334 84q-151 88 -229 229q-82 152 -82 326q0 169 67 327
q61 154 179 285q114 120 274 197q158 73 338 73q136 0 257.5 -48t207.5 -134q85 -88 132.5 -206t47.5 -249q0 -169 -67 -327q-68 -165 -179 -285q-117 -127 -274 -197q-156 -75 -338 -75zM821 131q145 0 273 64q130 62 217 165q88 98 143 236q51 131 51 272q3 137 -57 250.5
t-174 179.5t-258 64q-168 1 -316 -86t-241 -229q-129 -189 -129 -420q-5 -212 134 -355.5t357 -140.5z" />
    <glyph glyph-name="Odieresis" unicode="&#xd6;" horiz-adv-x="1697" 
d="M895 1636q-44 0 -73 28.5t-29 72.5q0 54 36 90q32 37 89 37q45 0 74.5 -29t29.5 -74q0 -52 -39 -88q-37 -37 -88 -37zM1274 1636q-44 0 -73.5 28.5t-29.5 72.5q0 53 37 90q34 37 88 37q45 0 75 -29t30 -74q0 -51 -37 -88t-90 -37zM811 -14q-190 0 -334 84
q-151 88 -229 229q-82 152 -82 326q0 169 67 327q61 154 179 285q114 120 274 197q158 73 338 73q136 0 257.5 -48t207.5 -134q85 -88 132.5 -206t47.5 -249q0 -169 -67 -327q-68 -165 -179 -285q-117 -127 -274 -197q-156 -75 -338 -75zM821 131q145 0 273 64
q130 62 217 165q88 98 143 236q51 131 51 272q3 137 -57 250.5t-174 179.5t-258 64q-168 1 -316 -86t-241 -229q-129 -189 -129 -420q-5 -212 134 -355.5t357 -140.5z" />
    <glyph glyph-name="multiply" unicode="&#xd7;" horiz-adv-x="1110" 
d="M1137 1032l-447 -366l260 -351l-102 -77l-256 346l-424 -348l-82 102l428 350l-272 367l104 78l268 -363l441 363z" />
    <glyph glyph-name="Oslash" unicode="&#xd8;" horiz-adv-x="1697" 
d="M1716 1436l-174 -174q127 -168 127 -392q0 -169 -67 -327q-68 -165 -179 -285q-117 -127 -274 -197q-156 -75 -338 -75q-249 0 -428 153l-170 -166l-94 97l172 168q-125 165 -125 387q0 169 67 327q61 154 179 285q114 120 274 197q158 73 338 73q248 0 424 -147l176 172
zM1016 1366q-171 0 -318.5 -87.5t-240.5 -231.5q-129 -189 -129 -420q0 -157 63 -260l12 -21l936 911q-130 109 -323 109zM821 127q140 0 275 66q129 61 219 165q87 100 141 236q53 136 53 272q0 166 -79 291l-938 -913q132 -117 329 -117z" />
    <glyph glyph-name="Ugrave" unicode="&#xd9;" horiz-adv-x="1501" 
d="M831 1958h173l118 -328h-129zM1577 1493l-252 -940q-67 -256 -213 -399q-165 -168 -420 -168q-236 0 -364 116q-127 121 -127 314q0 96 28 211l230 866h157l-241 -905q-19 -81 -19 -152q0 -143 90 -224t261 -81q177 0 299 119q111 111 170 328l243 915h158z" />
    <glyph glyph-name="Uacute" unicode="&#xda;" horiz-adv-x="1501" 
d="M1104 1630h-156l277 328h192zM1419 1493h158l-252 -940q-67 -256 -213 -399q-165 -168 -420 -168q-236 0 -364 116q-127 121 -127 314q0 96 28 211l230 866h157l-241 -905q-19 -81 -19 -152q0 -143 90 -224t261 -81q177 0 299 119q111 111 170 328z" />
    <glyph glyph-name="Ucircumflex" unicode="&#xdb;" horiz-adv-x="1501" 
d="M1370 1628h-149l-115 225h-2l-232 -225h-165l337 328h150zM1577 1493l-252 -940q-67 -256 -213 -399q-165 -168 -420 -168q-236 0 -364 116q-127 121 -127 314q0 96 28 211l230 866h157l-241 -905q-19 -81 -19 -152q0 -143 90 -224t261 -81q177 0 299 119
q111 111 170 328l243 915h158z" />
    <glyph glyph-name="Udieresis" unicode="&#xdc;" horiz-adv-x="1501" 
d="M879 1636q-44 0 -73.5 28.5t-29.5 72.5q0 53 37 90q34 37 88 37q45 0 74 -29t29 -74q0 -53 -35 -88q-40 -37 -90 -37zM1257 1636q-44 0 -73 28.5t-29 72.5q0 53 37 90q34 37 88 37q46 0 75 -28.5t29 -74.5q0 -52 -36 -88q-40 -37 -91 -37zM1577 1493l-252 -940
q-67 -256 -213 -399q-165 -168 -420 -168q-236 0 -364 116q-127 121 -127 314q0 96 28 211l230 866h157l-241 -905q-19 -81 -19 -152q0 -143 90 -224t261 -81q177 0 299 119q111 111 170 328l243 915h158z" />
    <glyph glyph-name="Yacute" unicode="&#xdd;" horiz-adv-x="1406" 
d="M1051 1630h-156l276 328h193zM309 1493h174l275 -721l663 721h199l-821 -883l-162 -610h-158l170 637z" />
    <glyph glyph-name="Thorn" unicode="&#xde;" horiz-adv-x="1314" 
d="M240 0h-158l399 1493h156l-74 -285h256q265 0 400 -129q102 -99 102 -264q1 -242 -190 -381.5t-502 -136.5h-307zM1161 805q-1 125 -97 192t-249 64h-291l-166 -619h283q244 0 383 95q137 94 137 268z" />
    <glyph glyph-name="germandbls" unicode="&#xdf;" horiz-adv-x="1243" 
d="M1251 1208q0 -231 -256 -344l-86 -39q-32 -13 -65 -39q-35 -28 -35 -84q0 -62 80 -118l61 -43q170 -120 170 -254q0 -39 -10.5 -79t-37 -81t-65 -72t-100 -51t-137.5 -20q-111 0 -185 44.5t-106 112.5q-44 78 -37 148l142 8q-6 -50 32 -113q21 -33 64 -53t100 -20
q48 0 86.5 17t60 42.5t33 52t11.5 49.5q0 68 -49 117q-3 2 -26 19.5t-40 29.5l-76 54q-127 92 -127 208q0 84 44.5 138.5t131.5 93.5l103 47q168 76 168 225q0 106 -72 166q-69 57 -180 57q-150 0 -238.5 -81.5t-132.5 -249.5l-289 -1096h-147l297 1122q57 218 182.5 326
t337.5 108q181 0 287 -100t106 -248z" />
    <glyph glyph-name="agrave" unicode="&#xe0;" horiz-adv-x="1284" 
d="M1249 1018l-217 -832q-20 -68 -26 -151v-35h-152v23q0 42 29 155q-176 -194 -385 -194q-177 0 -289 118q-113 116 -113 310q0 129 47 250q50 118 127 198q79 82 182.5 129t211.5 47q272 0 380 -248l58 230h147zM993 592q0 131 -88 225q-88 88 -227 88q-116 3 -216 -64.5
t-156.5 -179.5t-53.5 -237q0 -139 80 -225q81 -84 209 -84q110 0 217 67q99 61 170 178q65 112 65 232zM821 1192h-129l-162 328h172z" />
    <glyph glyph-name="aacute" unicode="&#xe1;" horiz-adv-x="1284" 
d="M1249 1018l-217 -832q-20 -68 -26 -151v-35h-152v23q0 42 29 155q-176 -194 -385 -194q-177 0 -289 118q-113 116 -113 310q0 129 47 250q50 118 127 198q79 82 182.5 129t211.5 47q272 0 380 -248l58 230h147zM993 592q0 131 -88 225q-88 88 -227 88q-116 3 -216 -64.5
t-156.5 -179.5t-53.5 -237q0 -139 80 -225q81 -84 209 -84q110 0 217 67q99 61 170 178q65 112 65 232zM1141 1520l-314 -328h-155l276 328h193z" />
    <glyph glyph-name="acircumflex" unicode="&#xe2;" horiz-adv-x="1286" 
d="M1251 1018l-219 -832q-21 -79 -24 -151q-3 -9 0 -35h-152v23q0 53 29 155q-179 -194 -387 -194q-175 0 -287 118q-115 118 -115 310q0 129 47 250q50 118 127 198q79 83 183 129.5t213 46.5q270 0 378 -248l60 230h147zM993 592q0 134 -88 225q-85 88 -227 88
q-115 3 -214.5 -64.5t-156 -180t-53.5 -236.5q0 -141 78 -225q81 -84 209 -84q113 0 217 67q104 64 170 178q65 107 65 232zM834 1417l-230 -225h-168l340 328h148l176 -328h-148l-114 225h-4z" />
    <glyph glyph-name="atilde" unicode="&#xe3;" horiz-adv-x="1284" 
d="M676 1286q-66 0 -107 -92h-106q28 97 86 158q61 61 151 61q60 0 117 -45q55 -47 113 -47q34 0 62 24.5t46 63.5h95q-62 -217 -234 -217q-66 0 -113 47q-51 47 -110 47zM1249 1018l-217 -832q-19 -73 -26 -151v-35h-150q-2 4 -2 23q0 43 31 155q-182 -194 -387 -194
q-175 0 -287 118q-115 118 -115 310q0 129 47 250q50 118 127 198q79 83 183 129.5t213 46.5q270 0 378 -248l60 230h145zM993 592q0 131 -88 225q-88 88 -227 88q-117 0 -217 -65q-100 -68 -154 -176q-53 -112 -53 -240q0 -141 78 -225q81 -84 209 -84q110 0 217 67
q104 64 170 178q65 107 65 232z" />
    <glyph glyph-name="adieresis" unicode="&#xe4;" horiz-adv-x="1284" 
d="M612 1188q-44 0 -73 29t-29 73q0 53 37 90t88 37q46 0 75 -29t29 -73q0 -54 -37 -88q-39 -39 -90 -39zM979 1188q-44 0 -73 29t-29 73q0 54 36 90q37 37 88 37q45 0 75 -29t30 -73q0 -54 -37 -88q-36 -39 -90 -39zM1249 1018l-217 -832q-19 -73 -26 -151v-35h-150
q-2 4 -2 23q0 43 31 155q-182 -194 -387 -194q-175 0 -287 118q-115 118 -115 310q0 129 47 250q50 118 127 198q79 83 183 129.5t213 46.5q270 0 378 -248l60 230h145zM993 592q0 131 -88 225q-88 88 -227 88q-117 0 -217 -65q-100 -68 -154 -176q-53 -112 -53 -240
q0 -141 78 -225q81 -84 209 -84q110 0 217 67q104 64 170 178q65 107 65 232z" />
    <glyph glyph-name="aring" unicode="&#xe5;" horiz-adv-x="1284" 
d="M776 1151q-101 0 -162 61q-63 60 -63 158q0 114 86 203q86 86 203 86q101 0 164 -60q61 -61 61 -157q0 -117 -86 -203q-88 -88 -203 -88zM829 1556q-64 0 -116 -55q-49 -55 -49 -123q0 -58 32 -90.5t88 -32.5q64 0 117 56q51 51 51 123q0 57 -33.5 89.5t-89.5 32.5z
M1249 1018l-217 -832q-19 -73 -26 -151v-35h-150q-2 4 -2 23q0 43 31 155q-182 -194 -387 -194q-175 0 -287 118q-115 118 -115 310q0 129 47 250q50 118 127 198q79 83 183 129.5t213 46.5q270 0 378 -248l60 230h145zM993 592q0 131 -88 225q-88 88 -227 88
q-117 0 -217 -65q-100 -68 -154 -176q-53 -112 -53 -240q0 -141 78 -225q81 -84 209 -84q110 0 217 67q104 64 170 178q65 107 65 232z" />
    <glyph glyph-name="ae" unicode="&#xe6;" horiz-adv-x="1845" 
d="M831 276q-83 -145 -209 -218.5t-278 -73.5h-10q-126 0 -209 71q-84 72 -84 189q0 300 453 327l323 19q27 106 27 139q0 86 -56 130t-149 44q-61 0 -114 -15.5t-87.5 -39.5t-61.5 -55t-41 -58t-22 -53l-139 45q25 78 92 152q40 43 92 77q121 80 293 80q116 0 193 -53
q81 -53 110 -131q174 184 394 184q199 0 307 -114q108 -117 108 -318q0 -74 -18 -139h-819v-29q0 -150 88 -235q94 -88 229 -88t232 73q75 62 118 136l121 -68q-61 -116 -188 -193q-122 -79 -287 -79q-155 0 -262 79q-105 74 -146 215zM784 467l-284 -16q-66 -2 -140 -17
q-36 -6 -65 -22q-105 -52 -105 -154q0 -67 54 -106q51 -39 121 -39q154 0 278 106q120 105 141 248zM944 590h674v31q0 131 -74 208q-76 76 -207 76t-247 -94q-116 -93 -146 -221z" />
    <glyph glyph-name="ccedilla" unicode="&#xe7;" horiz-adv-x="1179" 
d="M575 115q66 0 130.5 23t111.5 61q83 69 125 151l129 -57q-59 -112 -174 -199q-116 -88 -264 -106q29 -53 29 -111q0 -88 -46 -164t-124 -123q-91 -55 -211 -55q-87 0 -154 23l31 114q55 -14 127 -14q103 0 172 63t69 166q0 58 -30 101q-177 21 -287 143
q-111 120 -111 305q0 154 80 293q81 140 219 223q141 84 295 84q98 0 181 -31t135 -83q100 -100 122 -217l-137 -48q-16 97 -84 168q-80 80 -227 80q-112 0 -215 -65q-107 -74 -162 -176q-59 -109 -59 -226q0 -146 90 -233q90 -90 239 -90z" />
    <glyph glyph-name="egrave" unicode="&#xe8;" horiz-adv-x="1165" 
d="M451 1520h172l118 -328h-129zM246 463v-27q0 -149 86 -235q88 -88 225 -88t234 73q78 57 122 136l121 -68q-61 -117 -190 -193q-128 -79 -291 -79q-198 0 -328 127q-127 130 -127 331q0 117 45 222q50 116 121 190q75 85 178 133q102 51 220 51q200 0 311 -114
q110 -116 110 -318q0 -80 -18 -141h-819zM264 590h672v31q0 131 -74 208q-73 76 -207 76q-129 0 -245 -94q-119 -93 -146 -221z" />
    <glyph glyph-name="eacute" unicode="&#xe9;" horiz-adv-x="1165" 
d="M766 1192h-156l277 328h192zM246 463v-27q0 -149 86 -235q88 -88 225 -88t234 73q78 57 122 136l121 -68q-61 -117 -190 -193q-128 -79 -291 -79q-198 0 -328 127q-127 130 -127 331q0 117 45 222q50 116 121 190q75 85 178 133q102 51 220 51q200 0 311 -114
q110 -116 110 -318q0 -80 -18 -141h-819zM264 590h672v31q0 131 -74 208q-73 76 -207 76q-129 0 -245 -94q-119 -93 -146 -221z" />
    <glyph glyph-name="ecircumflex" unicode="&#xea;" horiz-adv-x="1165" 
d="M1040 1192h-149l-113 225h-4l-231 -225h-166l340 328h147zM246 463v-27q0 -149 86 -235q88 -88 225 -88t234 73q80 59 120 136l123 -68q-61 -117 -190 -193q-128 -79 -291 -79q-198 0 -328 127q-127 130 -127 331q0 117 45 222q50 116 121 190q75 85 178 133
q102 51 220 51q200 0 311 -114q110 -116 110 -318q0 -80 -18 -141h-819zM264 590h672v31q0 131 -74 208q-73 76 -207 76q-129 0 -245 -94q-119 -93 -146 -221z" />
    <glyph glyph-name="edieresis" unicode="&#xeb;" horiz-adv-x="1165" 
d="M545 1188q-44 0 -73.5 29t-29.5 73q0 54 39 90q34 37 88 37q44 0 73.5 -29t29.5 -73q0 -54 -37 -88q-36 -39 -90 -39zM911 1188q-44 0 -73 29t-29 73q0 53 37 90t88 37q44 0 74 -29t30 -73q0 -54 -37 -88q-36 -39 -90 -39zM246 463v-27q0 -149 86 -235q88 -88 225 -88
t234 73q78 57 122 136l121 -68q-61 -117 -190 -193q-128 -79 -291 -79q-198 0 -328 127q-127 130 -127 331q0 117 45 222q50 116 121 190q75 85 178 133q102 51 220 51q200 0 311 -114q110 -116 110 -318q0 -80 -18 -141h-819zM264 590h672v31q0 131 -74 208q-73 76 -207 76
q-129 0 -245 -94q-119 -93 -146 -221z" />
    <glyph glyph-name="igrave" unicode="&#xec;" horiz-adv-x="491" 
d="M184 1520h172l119 -328h-129zM43 0l268 1018h150l-268 -1018h-150z" />
    <glyph glyph-name="iacute" unicode="&#xed;" horiz-adv-x="491" 
d="M502 1192h-156l277 328h192zM461 1018l-268 -1018h-150l268 1018h150z" />
    <glyph glyph-name="icircumflex" unicode="&#xee;" horiz-adv-x="491" 
d="M750 1192h-148l-115 225h-4l-229 -225h-168l340 328h147zM43 0l268 1018h150l-268 -1018h-150z" />
    <glyph glyph-name="idieresis" unicode="&#xef;" horiz-adv-x="491" 
d="M256 1188q-44 0 -73 29t-29 73q0 57 36 90q37 37 89 37q44 0 73 -29t29 -73q0 -53 -35 -88q-39 -39 -90 -39zM623 1188q-44 0 -73.5 29t-29.5 73q0 52 35 90q37 37 90 37q44 0 73.5 -29t29.5 -73q0 -56 -37 -88q-36 -39 -88 -39zM43 0l268 1018h150l-268 -1018h-150z" />
    <glyph glyph-name="eth" unicode="&#xf0;" horiz-adv-x="1230" 
d="M1108 901q33 -115 33 -276q0 -174 -60 -303q-73 -152 -213 -244q-143 -94 -325 -94q-195 0 -324 120q-127 121 -127 306q0 153 80 286q76 130 207 209q130 76 262 76q112 0 206.5 -52.5t151.5 -152.5l2 2q-30 252 -208 430l-355 -168l-57 105l313 145q-128 93 -315 162
l55 119q226 -75 393 -219l224 106l55 -104l-191 -88q141 -163 193 -365zM551 115q113 -2 215 59.5t162 163t57 211.5q0 119 -88 213q-42 45 -108.5 71.5t-143.5 26.5q-111 0 -205 -61q-93 -61 -147 -162q-55 -98 -55 -211q0 -140 86 -223q85 -88 227 -88z" />
    <glyph glyph-name="ntilde" unicode="&#xf1;" horiz-adv-x="1204" 
d="M913 1192q-65 0 -112 47t-111 47q-65 0 -106 -92h-107q28 97 86 158q61 61 154 61q61 0 114 -45q55 -47 113 -47q66 0 111 88h92q-27 -101 -86 -159t-148 -58zM770 0l152 575q16 66 16 115q0 99 -62.5 156t-168.5 57q-120 0 -224 -94q-100 -87 -143 -236l-150 -573h-149
l268 1018h146l-43 -168q86 95 168.5 140.5t187.5 45.5q146 0 236 -84q88 -88 88 -229q0 -63 -25 -158l-149 -565h-148z" />
    <glyph glyph-name="ograve" unicode="&#xf2;" horiz-adv-x="1236" 
d="M489 1520h173l118 -328h-129zM555 -16q-205 0 -332 127t-127 325q0 156 82 293q79 138 217 223q141 84 295 84q206 0 334 -125q127 -130 127 -325q0 -160 -82 -297q-81 -139 -219 -223q-137 -82 -295 -82zM565 115q107 0 213 65q104 71 160 174q61 107 61 226
q0 154 -88 239q-89 86 -231 86q-112 0 -215 -65q-103 -71 -160 -176q-59 -109 -59 -224q0 -155 88 -237q85 -88 231 -88z" />
    <glyph glyph-name="oacute" unicode="&#xf3;" horiz-adv-x="1236" 
d="M799 1192h-156l277 328h192zM555 -16q-205 0 -332 127t-127 325q0 156 82 293q79 138 217 223q141 84 295 84q206 0 334 -125q127 -130 127 -325q0 -160 -82 -297q-81 -139 -219 -223q-137 -82 -295 -82zM565 115q107 0 213 65q104 71 160 174q61 107 61 226
q0 154 -88 239q-89 86 -231 86q-112 0 -215 -65q-103 -71 -160 -176q-59 -109 -59 -224q0 -155 88 -237q85 -88 231 -88z" />
    <glyph glyph-name="ocircumflex" unicode="&#xf4;" horiz-adv-x="1236" 
d="M1059 1192h-150l-114 225h-4l-230 -225h-168l340 328h150zM555 -16q-205 0 -332 127t-127 325q0 156 82 293q79 138 217 223q141 84 295 84q206 0 334 -125q127 -130 127 -325q0 -160 -82 -297q-81 -139 -219 -223q-137 -82 -295 -82zM565 115q107 0 213 65
q104 71 160 174q61 107 61 226q0 154 -88 239q-89 86 -231 86q-112 0 -215 -65q-103 -71 -160 -176q-59 -109 -59 -224q0 -155 88 -237q85 -88 231 -88z" />
    <glyph glyph-name="otilde" unicode="&#xf5;" horiz-adv-x="1236" 
d="M866 1192q-67 0 -114 47t-109 47q-65 0 -106 -92h-107q25 97 86 158q58 61 152 61q59 0 116 -45q51 -47 113 -47q34 0 62.5 24.5t46.5 63.5h94q-29 -101 -88 -159t-146 -58zM555 -16q-205 0 -332 127t-127 325q0 156 82 293q79 138 217 223q141 84 295 84q206 0 334 -125
q127 -130 127 -325q0 -160 -82 -297q-81 -139 -219 -223q-137 -82 -295 -82zM565 115q107 0 213 65q104 71 160 174q61 107 61 226q0 154 -88 239q-89 86 -231 86q-112 0 -215 -65q-103 -71 -160 -176q-59 -109 -59 -224q0 -155 88 -237q85 -88 231 -88z" />
    <glyph glyph-name="odieresis" unicode="&#xf6;" horiz-adv-x="1236" 
d="M569 1188q-44 0 -73 29t-29 73q0 53 37 90t88 37q44 0 74 -29t30 -73q0 -54 -37 -88q-36 -39 -90 -39zM936 1188q-44 0 -73 29t-29 73q0 54 36 90q34 37 88 37q45 0 75 -29t30 -73q0 -55 -39 -88q-36 -39 -88 -39zM555 -16q-205 0 -332 127t-127 325q0 156 82 293
q79 138 217 223q141 84 295 84q206 0 334 -125q127 -130 127 -325q0 -160 -82 -297q-81 -139 -219 -223q-137 -82 -295 -82zM565 115q107 0 213 65q104 71 160 174q61 107 61 226q0 154 -88 239q-89 86 -231 86q-112 0 -215 -65q-103 -71 -160 -176q-59 -109 -59 -224
q0 -155 88 -237q85 -88 231 -88z" />
    <glyph glyph-name="divide" unicode="&#xf7;" horiz-adv-x="1167" 
d="M729 975q-45 0 -74.5 29.5t-29.5 74.5q0 54 39 90q36 39 90 39q45 0 74.5 -29.5t29.5 -74.5q0 -53 -37 -90q-39 -39 -92 -39zM1118 797l-39 -146h-905l39 146h905zM537 242q-45 0 -75 29t-30 73q0 53 39 92q37 37 90 37q45 0 75 -29.5t30 -74.5q0 -50 -37 -90
q-37 -37 -92 -37z" />
    <glyph glyph-name="oslash" unicode="&#xf8;" horiz-adv-x="1236" 
d="M1184 979l-119 -117q86 -118 86 -276q0 -120 -49 -230q-51 -114 -129 -192q-77 -80 -191 -131q-110 -49 -227 -49q-169 0 -287 90l-123 -119l-82 86l119 117q-84 112 -84 278q0 121 47 226q48 108 129 192q79 83 190 132.5t226 49.5q167 0 289 -90l123 119zM682 909
q-117 0 -217 -69q-102 -68 -160 -174q-59 -106 -59 -228q0 -103 43 -176l592 586q-76 61 -199 61zM563 113q85 0 166 38.5t141 104.5q61 64 96 150t35 176q0 105 -43 178l-591 -590q75 -57 196 -57z" />
    <glyph glyph-name="ugrave" unicode="&#xf9;" horiz-adv-x="1206" 
d="M557 1520h172l119 -328h-129zM803 168q-82 -94 -167.5 -140t-189.5 -46q-145 0 -235 84q-88 85 -88 229q0 61 24 156l150 567h147l-153 -576q-15 -66 -15 -114q0 -101 62.5 -157t167.5 -56q129 0 229 100q104 104 137 231l152 572h147l-219 -832q-20 -80 -26 -151v-35
h-148q0 2 -1 11.5t-1 11.5q0 34 27 145z" />
    <glyph glyph-name="uacute" unicode="&#xfa;" horiz-adv-x="1206" 
d="M834 1192h-158l276 328h195zM803 168q-82 -94 -167.5 -140t-189.5 -46q-145 0 -235 84q-88 85 -88 229q0 61 24 156l150 567h147l-153 -576q-15 -66 -15 -114q0 -101 62.5 -157t167.5 -56q129 0 229 100q104 104 137 231l152 572h147l-219 -832q-20 -80 -26 -151v-35
h-148q0 2 -1 11.5t-1 11.5q0 34 27 145z" />
    <glyph glyph-name="ucircumflex" unicode="&#xfb;" horiz-adv-x="1206" 
d="M1102 1192h-150l-114 225h-4l-230 -225h-168l340 328h150zM803 168q-82 -94 -167.5 -140t-189.5 -46q-145 0 -235 84q-88 85 -88 229q0 61 24 156l150 567h147l-153 -576q-15 -66 -15 -114q0 -101 62.5 -157t167.5 -56q129 0 229 100q104 104 137 231l152 572h147
l-219 -832q-20 -80 -26 -151v-35h-148q0 2 -1 11.5t-1 11.5q0 34 27 145z" />
    <glyph glyph-name="udieresis" unicode="&#xfc;" horiz-adv-x="1206" 
d="M594 1188q-44 0 -73 29t-29 73q0 54 36 90q37 37 88 37q45 0 75 -29t30 -73q0 -54 -37 -88q-39 -39 -90 -39zM961 1188q-44 0 -73.5 29t-29.5 73q0 53 37 90t88 37q44 0 73 -29t29 -73q0 -57 -36 -88q-36 -39 -88 -39zM803 168q-82 -94 -167.5 -140t-189.5 -46
q-145 0 -235 84q-88 85 -88 229q0 61 24 156l150 567h147l-153 -576q-15 -66 -15 -114q0 -101 62.5 -157t167.5 -56q129 0 229 100q104 104 137 231l152 572h147l-219 -832q-20 -80 -26 -151v-35h-148q0 2 -1 11.5t-1 11.5q0 34 27 145z" />
    <glyph glyph-name="yacute" unicode="&#xfd;" horiz-adv-x="1138" 
d="M797 1192h-158l276 328h193zM176 -502h-166l361 510l-193 1010h154l153 -854l586 854h170z" />
    <glyph glyph-name="thorn" unicode="&#xfe;" horiz-adv-x="1282" 
d="M629 -16q-147 0 -238 67q-92 66 -141 176l-193 -729h-147l541 2054h147l-184 -706q94 97 183 143.5t198 46.5q176 0 288 -118q113 -119 113 -310q0 -129 -47 -250q-49 -116 -125 -198q-80 -83 -183.5 -129.5t-211.5 -46.5zM614 115q115 -2 214.5 65t156.5 179t55 237
q0 140 -79 225q-81 84 -209 84q-109 0 -215 -65q-106 -68 -170 -178q-68 -115 -68 -232q0 -132 90 -225q84 -90 225 -90z" />
    <glyph glyph-name="ydieresis" unicode="&#xff;" horiz-adv-x="1138" 
d="M557 1188q-44 0 -73 29t-29 73q0 53 37 90q34 37 88 37q44 0 73 -29t29 -73q0 -54 -37 -88q-36 -39 -88 -39zM922 1188q-44 0 -73.5 29t-29.5 73q0 53 37 90t88 37q45 0 75 -29t30 -73q0 -54 -37 -88q-36 -39 -90 -39zM1071 1018h170l-1065 -1520h-166l361 510l-193 1010
h154l153 -854z" />
    <glyph glyph-name="Amacron" unicode="&#x100;" horiz-adv-x="1490" 
d="M776 1821h643l-37 -135h-641zM1120 1493l232 -1493h-158l-57 383h-813l-271 -383h-174l1061 1493h180zM422 524h694l-121 809z" />
    <glyph glyph-name="amacron" unicode="&#x101;" horiz-adv-x="1284" 
d="M1147 1354l-35 -133h-643l35 133h643zM1249 1018l-217 -832q-19 -73 -26 -151v-35h-150q0 2 -1 11.5t-1 11.5q0 43 31 155q-182 -194 -387 -194q-175 0 -287 118q-115 118 -115 310q0 129 47 250q50 118 127 198q79 83 183 129.5t213 46.5q270 0 378 -248l60 230h145z
M993 592q0 131 -88 225q-88 88 -227 88q-115 3 -214.5 -64.5t-156 -180t-53.5 -236.5q0 -141 78 -225q81 -84 209 -84q113 0 217 67q104 64 170 178q65 107 65 232z" />
    <glyph glyph-name="Abreve" unicode="&#x102;" horiz-adv-x="1490" 
d="M1120 1493l232 -1493h-158l-57 383h-813l-271 -383h-174l1061 1493h180zM422 524h694l-121 809zM1352 1950h102q-46 -148 -149 -230q-106 -90 -252 -90q-114 0 -183 60q-71 59 -71 174q0 40 12 86h90q-3 -99 37.5 -147t140.5 -48q94 0 160 49t113 146z" />
    <glyph glyph-name="abreve" unicode="&#x103;" horiz-adv-x="1284" 
d="M1249 1018l-217 -832q-19 -73 -26 -151v-35h-150q0 2 -1 11.5t-1 11.5q0 43 31 155q-182 -194 -387 -194q-175 0 -287 118q-115 118 -115 310q0 129 47 250q50 118 127 198q79 83 183 129.5t213 46.5q270 0 378 -248l60 230h145zM993 592q0 131 -88 225q-88 88 -227 88
q-115 3 -214.5 -64.5t-156 -180t-53.5 -236.5q0 -141 78 -225q81 -84 209 -84q113 0 217 67q104 64 170 178q65 107 65 232zM1036 1509h105q-44 -144 -152 -229q-106 -90 -252 -90q-111 0 -182 59q-72 63 -72 174q0 36 13 86h90q-2 -99 39 -146.5t141 -47.5q178 0 270 194z
" />
    <glyph glyph-name="Aogonek" unicode="&#x104;" horiz-adv-x="1490" 
d="M1120 1493l232 -1493q-11 -9 -28 -21.5t-21 -15.5q-44 -36 -52 -41q-36 -32 -53 -51q-49 -62 -49 -111q0 -108 147 -108l-28 -111q-21 -6 -58 -6q-88 0 -145 51q-59 50 -59 133q0 87 65 158q60 69 158 123h-35l-57 383h-813l-271 -383h-174l1061 1493h180zM1116 524
l-121 809l-573 -809h694z" />
    <glyph glyph-name="aogonek" unicode="&#x105;" horiz-adv-x="1284" 
d="M993 592q0 131 -88 225q-88 88 -227 88q-115 3 -214.5 -64.5t-156 -180t-53.5 -236.5q0 -141 78 -225q81 -84 209 -84q113 0 217 67q104 64 170 178q65 107 65 232zM950 -348l-28 -111q-21 -6 -58 -6q-88 0 -145 51q-60 51 -60 133q0 86 66 158q59 67 156 123h-25
q0 2 -1 11.5t-1 11.5q0 43 31 155q-182 -194 -387 -194q-175 0 -287 118q-115 118 -115 310q0 129 47 250q50 118 127 198q79 83 183 129.5t213 46.5q270 0 378 -248l60 230h145l-217 -832q-19 -73 -26 -151v-35q-29 -20 -50 -37q-3 -2 -11.5 -9.5t-18.5 -15.5t-21 -16
q-36 -32 -53 -51q-49 -62 -49 -111q0 -108 147 -108z" />
    <glyph glyph-name="Cacute" unicode="&#x106;" horiz-adv-x="1607" 
d="M1120 1630h-155l276 328h193zM1649 1026l-154 -45q-7 67 -52.5 146t-123.5 141q-56 43 -137.5 68.5t-173.5 25.5q-137 0 -267 -59q-129 -63 -215 -162q-93 -111 -139 -234q-53 -133 -53 -270q0 -223 137 -363q135 -141 358 -141q94 0 183 26.5t151 69.5q56 39 111 97
q74 81 125 188l145 -57q-52 -133 -172 -250q-64 -63 -143 -113q-81 -49 -191.5 -78.5t-228.5 -29.5q-134 0 -252.5 48.5t-204.5 135.5t-134 209t-48 258q-1 199 92.5 384.5t251.5 309.5q105 84 238.5 130t273.5 46q113 0 212 -29t167 -81q68 -48 121 -113q93 -114 123 -258z
" />
    <glyph glyph-name="cacute" unicode="&#x107;" horiz-adv-x="1179" 
d="M784 1192h-155l276 328h193zM246 438q0 -146 90 -233q87 -90 239 -90q66 0 130.5 23t109.5 61q89 74 125 151l129 -57q-60 -121 -186 -209q-138 -100 -318 -100q-205 0 -336 125q-133 124 -133 327q0 156 82 293q82 142 217 223q141 84 295 84q99 0 182.5 -31t135.5 -83
q100 -100 122 -217l-137 -48q-16 97 -84 168q-80 80 -227 80q-114 0 -217 -65q-103 -71 -160 -176q-59 -109 -59 -226z" />
    <glyph glyph-name="Ccircumflex" unicode="&#x108;" horiz-adv-x="1607" 
d="M1380 1628h-149l-115 225h-2l-231 -225h-166l338 328h149zM1649 1026l-154 -45q-7 67 -52.5 146t-123.5 141q-56 43 -137.5 68.5t-173.5 25.5q-137 0 -267 -59q-129 -63 -215 -162q-93 -111 -139 -234q-53 -133 -53 -270q0 -223 137 -363q135 -141 358 -141
q94 0 183 26.5t151 69.5q56 39 111 97q74 81 125 188l145 -57q-52 -133 -172 -250q-64 -63 -143 -113q-81 -49 -191.5 -78.5t-228.5 -29.5q-134 0 -252.5 48.5t-204.5 135.5t-134 209t-48 258q-1 199 92.5 384.5t251.5 309.5q105 84 238.5 130t273.5 46q113 0 212 -29
t167 -81q68 -48 121 -113q93 -114 123 -258z" />
    <glyph glyph-name="ccircumflex" unicode="&#x109;" horiz-adv-x="1179" 
d="M1055 1192h-150l-114 225h-5l-229 -225h-168l340 328h150zM246 438q0 -146 90 -233q87 -90 239 -90q66 0 130.5 23t109.5 61q89 74 125 151l129 -57q-60 -121 -186 -209q-138 -100 -318 -100q-205 0 -336 125q-133 124 -133 327q0 156 82 293q82 142 217 223
q141 84 295 84q99 0 182.5 -31t135.5 -83q100 -100 122 -217l-137 -48q-16 97 -84 168q-80 80 -227 80q-114 0 -217 -65q-103 -71 -160 -176q-59 -109 -59 -226z" />
    <glyph glyph-name="Cdotaccent" unicode="&#x10a;" horiz-adv-x="1607" 
d="M1055 1634q-46 0 -76.5 30.5t-30.5 74.5q0 55 37 92q42 39 92 39q45 0 76 -31t31 -76q0 -53 -37 -90q-42 -39 -92 -39zM1649 1026l-154 -45q-7 67 -52.5 146t-123.5 141q-56 43 -137.5 68.5t-173.5 25.5q-137 0 -267 -59q-129 -63 -215 -162q-93 -111 -139 -234
q-53 -133 -53 -270q0 -223 137 -363q135 -141 358 -141q94 0 183 26.5t151 69.5q56 39 111 97q74 81 125 188l145 -57q-52 -133 -172 -250q-64 -63 -143 -113q-81 -49 -191.5 -78.5t-228.5 -29.5q-134 0 -252.5 48.5t-204.5 135.5t-134 209t-48 258q-1 199 92.5 384.5
t251.5 309.5q105 84 238.5 130t273.5 46q113 0 212 -29t167 -81q68 -48 121 -113q93 -114 123 -258z" />
    <glyph glyph-name="cdotaccent" unicode="&#x10b;" horiz-adv-x="1179" 
d="M762 1188q-44 0 -74.5 30t-30.5 74q0 55 37 92q36 39 92 39q44 0 74.5 -30t30.5 -74q0 -58 -37 -92q-39 -39 -92 -39zM246 438q0 -146 90 -233q87 -90 239 -90q66 0 130.5 23t109.5 61q89 74 125 151l129 -57q-60 -121 -186 -209q-138 -100 -318 -100q-205 0 -336 125
q-133 124 -133 327q0 156 82 293q82 142 217 223q141 84 295 84q99 0 182.5 -31t135.5 -83q100 -100 122 -217l-137 -48q-16 97 -84 168q-80 80 -227 80q-114 0 -217 -65q-103 -71 -160 -176q-59 -109 -59 -226z" />
    <glyph glyph-name="Ccaron" unicode="&#x10c;" horiz-adv-x="1607" 
d="M821 1962h150l114 -225h2l232 225h166l-338 -330h-150zM1649 1026l-154 -45q-7 67 -52.5 146t-123.5 141q-56 43 -137.5 68.5t-173.5 25.5q-137 0 -267 -59q-129 -63 -215 -162q-93 -111 -139 -234q-53 -133 -53 -270q0 -223 137 -363q135 -141 358 -141q94 0 183 26.5
t151 69.5q56 39 111 97q74 81 125 188l145 -57q-52 -133 -172 -250q-64 -63 -143 -113q-81 -49 -191.5 -78.5t-228.5 -29.5q-134 0 -252.5 48.5t-204.5 135.5t-134 209t-48 258q-1 199 92.5 384.5t251.5 309.5q105 84 238.5 130t273.5 46q113 0 212 -29t167 -81
q68 -48 121 -113q93 -114 123 -258z" />
    <glyph glyph-name="ccaron" unicode="&#x10d;" horiz-adv-x="1179" 
d="M487 1520h150l115 -226h4l229 226h168l-340 -328h-149zM246 438q0 -146 90 -233q87 -90 239 -90q66 0 130.5 23t109.5 61q89 74 125 151l129 -57q-60 -121 -186 -209q-138 -100 -318 -100q-205 0 -336 125q-133 124 -133 327q0 156 82 293q82 142 217 223q141 84 295 84
q99 0 182.5 -31t135.5 -83q100 -100 122 -217l-137 -48q-16 97 -84 168q-80 80 -227 80q-114 0 -217 -65q-103 -71 -160 -176q-59 -109 -59 -226z" />
    <glyph glyph-name="Dcaron" unicode="&#x10e;" horiz-adv-x="1564" 
d="M870 1632l-174 330h148l114 -225h5l229 225h168l-340 -330h-150zM532 0h-450l399 1493h307q461 0 650 -283q96 -143 96 -344q0 -230 -108.5 -415.5t-297.5 -296.5q-256 -154 -596 -154zM782 1348h-182l-321 -1203h276q166 0 315 51t263 144q107 86 174 225q65 136 65 293
q0 124 -44.5 219t-124.5 153.5t-186 88t-235 29.5z" />
    <glyph glyph-name="dcaron" unicode="&#x10f;" horiz-adv-x="1320" 
d="M1393 1554l-363 -1368q-21 -79 -24 -151v-35h-152v23q0 48 31 157q-90 -98 -182 -147t-205 -49q-177 0 -289 118q-113 116 -113 310q0 129 47 250q50 118 127 198q79 82 182.5 129t211.5 47q267 0 378 -243l201 761h150zM1548 1126h-127l140 428h165zM993 592
q0 131 -88 225q-88 88 -227 88q-117 0 -217 -65q-100 -68 -154 -176q-53 -112 -53 -240q0 -141 78 -225q81 -84 209 -84q110 0 217 67q99 61 170 178q65 112 65 232z" />
    <glyph glyph-name="Dcroat" unicode="&#x110;" horiz-adv-x="1617" 
d="M135 0l182 686h-206l39 145h206l176 662h308q462 0 651 -283q94 -140 94 -344q1 -230 -107.5 -415.5t-297.5 -296.5q-253 -154 -596 -154h-449zM836 1348h-185l-137 -517h358l-38 -145h-359l-145 -541h276q166 0 316.5 51t261.5 144q111 88 176 225q63 132 63 293
q0 124 -44 219t-123.5 153.5t-185 88t-234.5 29.5z" />
    <glyph glyph-name="dslash" unicode="&#x111;" horiz-adv-x="1284" 
d="M1006 0h-150q-2 4 -2 23q0 48 31 157q-90 -98 -182 -147t-205 -49q-175 0 -287 118q-115 118 -115 310q0 129 47 250q50 118 127 198q79 83 183 129.5t213 46.5q267 0 378 -243l109 415h-369l35 133h369l55 213h150l-56 -213h129l-34 -133h-132l-268 -1022
q-19 -73 -26 -151v-35zM678 905q-115 3 -214.5 -64.5t-156 -180t-53.5 -236.5q0 -141 78 -225q81 -84 209 -84q113 0 217 67q104 64 170 178q65 107 65 232q0 134 -88 225q-85 88 -227 88z" />
    <glyph glyph-name="Emacron" unicode="&#x112;" horiz-adv-x="1261" 
d="M690 1821h643l-35 -135h-643zM1055 143l-37 -143h-936l399 1493h928l-39 -143h-770l-139 -519h704l-39 -145h-704l-146 -543h779z" />
    <glyph glyph-name="emacron" unicode="&#x113;" horiz-adv-x="1165" 
d="M451 1354h643l-35 -133h-643zM246 463v-27q0 -149 86 -235q88 -88 225 -88t234 73q78 57 122 136l121 -68q-61 -117 -190 -193q-128 -79 -291 -79q-198 0 -328 127q-127 130 -127 331q0 117 45 222q50 116 121 190q75 85 178 133q102 51 220 51q200 0 311 -114
q110 -116 110 -318q0 -80 -18 -141h-819zM264 590h672v31q0 131 -74 208q-73 76 -207 76q-129 0 -245 -94q-119 -93 -146 -221z" />
    <glyph glyph-name="Edotaccent" unicode="&#x116;" horiz-adv-x="1261" 
d="M952 1634q-45 0 -74.5 30t-29.5 75q0 55 37 92q39 39 90 39q46 0 76 -30.5t30 -76.5q0 -53 -37 -90q-39 -39 -92 -39zM1055 143l-37 -143h-936l399 1493h928l-39 -143h-770l-139 -519h704l-39 -145h-704l-146 -543h779z" />
    <glyph glyph-name="edotaccent" unicode="&#x117;" horiz-adv-x="1165" 
d="M721 1188q-44 0 -74.5 30t-30.5 74q0 55 37 92q36 39 92 39q44 0 74.5 -30t30.5 -74q0 -58 -37 -92q-39 -39 -92 -39zM246 463v-27q0 -149 86 -235q88 -88 225 -88t234 73q78 57 122 136l121 -68q-61 -117 -190 -193q-128 -79 -291 -79q-198 0 -328 127
q-127 130 -127 331q0 117 45 222q50 116 121 190q75 85 178 133q102 51 220 51q200 0 311 -114q110 -116 110 -318q0 -80 -18 -141h-819zM264 590h672v31q0 131 -74 208q-73 76 -207 76q-129 0 -245 -94q-119 -93 -146 -221z" />
    <glyph glyph-name="Eogonek" unicode="&#x118;" horiz-adv-x="1261" 
d="M1055 143l-37 -143q-21 -15 -49 -37q-7 -4 -24 -18.5t-27 -22.5q-33 -26 -54 -51q-49 -57 -49 -111q0 -108 146 -108l-29 -111q-18 -6 -58 -6q-88 0 -145 51q-57 48 -57 133q0 89 63 158q60 69 158 123h-811l399 1493h928l-39 -143h-770l-139 -519h704l-39 -145h-704
l-146 -543h779z" />
    <glyph glyph-name="eogonek" unicode="&#x119;" horiz-adv-x="1165" 
d="M1065 463h-819v-27q0 -149 86 -235q88 -88 225 -88t234 73q78 57 122 136l121 -68q-46 -88 -135 -156q-84 -67 -203 -98q-36 -25 -51 -37q-3 -2 -11.5 -9.5t-18.5 -15.5t-21 -16q-38 -33 -51 -51q-51 -59 -51 -111q0 -108 147 -108l-31 -111q-18 -6 -55 -6q-88 0 -145 51
q-60 51 -60 133q0 146 193 265q-194 3 -320 129q-123 126 -123 327q0 117 45 222q50 116 121 190q75 85 178 133q102 51 220 51q200 0 311 -114q110 -116 110 -318q0 -80 -18 -141zM264 590h672v31q0 131 -74 208q-73 76 -207 76q-129 0 -245 -94q-119 -93 -146 -221z" />
    <glyph glyph-name="Ecaron" unicode="&#x11a;" horiz-adv-x="1261" 
d="M901 1632l-176 330h149l115 -225h4l230 225h168l-340 -330h-150zM1055 143l-37 -143h-936l399 1493h928l-39 -143h-770l-139 -519h704l-39 -145h-704l-146 -543h779z" />
    <glyph glyph-name="ecaron" unicode="&#x11b;" horiz-adv-x="1165" 
d="M463 1520h149l115 -226h4l230 226h167l-340 -328h-149zM246 463v-27q0 -149 86 -235q88 -88 225 -88t234 73q80 59 120 136l123 -68q-61 -117 -190 -193q-128 -79 -291 -79q-198 0 -328 127q-127 130 -127 331q0 117 45 222q50 116 121 190q75 85 178 133q102 51 220 51
q200 0 311 -114q110 -116 110 -318q0 -80 -18 -141h-819zM264 590h672v31q0 131 -74 208q-73 76 -207 76q-129 0 -245 -94q-119 -93 -146 -221z" />
    <glyph glyph-name="Gcircumflex" unicode="&#x11c;" horiz-adv-x="1660" 
d="M1389 1628h-150l-113 225h-4l-231 -225h-166l340 328h147zM1645 1055l-154 -47q-21 89 -76 170q-37 52 -86 92q-54 42 -135.5 69t-175.5 27q-147 0 -279 -66q-133 -66 -217 -170q-90 -107 -139 -237q-51 -128 -51 -264q0 -209 125 -350q132 -148 364 -148q225 0 393 121
q170 123 228 328h-633l33 143h796q-19 -164 -90.5 -304t-183.5 -235q-110 -95 -253 -146.5t-300 -51.5q-145 0 -267.5 50t-205.5 140q-81 89 -125.5 205.5t-44.5 245.5q0 163 63.5 321.5t178.5 282.5q113 128 273 202.5t343 75.5q215 0 373 -106q62 -43 123 -107
q101 -118 123 -241z" />
    <glyph glyph-name="gcircumflex" unicode="&#x11d;" horiz-adv-x="1286" 
d="M1096 1192h-150l-115 225h-4l-229 -225h-168l340 328h150zM399 -510q-183 0 -303 94q-57 47 -88 97q-69 104 -69 217l141 30q-2 -52 22 -115.5t74 -113.5q35 -35 95.5 -56.5t131.5 -21.5q181 0 291 107q102 102 142 256l55 211q-167 -179 -383 -179q-110 0 -202.5 52.5
t-147.5 148.5q-58 94 -58 215q0 128 52 244q51 115 129 190q81 79 182.5 124.5t202.5 45.5q281 0 383 -243l59 225h147l-274 -1041q-62 -235 -209 -361t-373 -126zM680 907q-112 0 -209 -63q-95 -59 -156 -168q-59 -109 -59 -230q0 -131 86 -217q87 -84 209 -84
q78 0 157 36.5t142 99.5q63 62 101 147t38 174q0 138 -84 219q-83 86 -225 86z" />
    <glyph glyph-name="Gbreve" unicode="&#x11e;" horiz-adv-x="1660" 
d="M1645 1055l-154 -47q-21 89 -76 170q-37 52 -86 92q-54 42 -135.5 69t-175.5 27q-147 0 -279 -66q-133 -66 -217 -170q-90 -107 -139 -237q-51 -128 -51 -264q0 -209 125 -350q132 -148 364 -148q225 0 393 121q170 123 228 328h-633l33 143h796q-19 -164 -90.5 -304
t-183.5 -235q-110 -95 -253 -146.5t-300 -51.5q-145 0 -267.5 50t-205.5 140q-81 89 -125.5 205.5t-44.5 245.5q0 163 63.5 321.5t178.5 282.5q113 128 273 202.5t343 75.5q215 0 373 -106q62 -43 123 -107q101 -118 123 -241zM1331 1950h103q-45 -147 -150 -230
q-106 -90 -252 -90q-113 0 -182 60q-72 60 -72 174q0 36 13 86h90q-3 -99 37.5 -147t140.5 -48q94 0 159.5 49t112.5 146z" />
    <glyph glyph-name="gbreve" unicode="&#x11f;" horiz-adv-x="1286" 
d="M399 -510q-183 0 -303 94q-57 47 -88 97q-69 104 -69 217l141 30q-2 -52 22 -115.5t74 -113.5q35 -35 95.5 -56.5t131.5 -21.5q181 0 291 107q102 102 142 256l55 211q-167 -179 -383 -179q-110 0 -202.5 52.5t-147.5 148.5q-58 94 -58 215q0 128 52 244q51 115 129 190
q81 79 182.5 124.5t202.5 45.5q281 0 383 -243l59 225h147l-274 -1041q-62 -235 -209 -361t-373 -126zM680 907q-112 0 -209 -63q-95 -59 -156 -168q-59 -109 -59 -230q0 -131 86 -217q87 -84 209 -84q78 0 157 36.5t142 99.5q63 62 101 147t38 174q0 138 -84 219
q-83 86 -225 86zM1065 1509h102q-45 -147 -149 -229q-106 -90 -252 -90q-114 0 -182 59q-72 60 -72 174q0 39 12 86h90q-3 -99 38 -146.5t141 -47.5q94 0 159.5 48.5t112.5 145.5z" />
    <glyph glyph-name="Gdotaccent" unicode="&#x120;" horiz-adv-x="1660" 
d="M1049 1634q-44 0 -74.5 30.5t-30.5 74.5q0 55 37 92q39 39 92 39q44 0 74.5 -30.5t30.5 -76.5q0 -56 -37 -90q-39 -39 -92 -39zM1645 1055l-154 -47q-21 89 -76 170q-37 52 -86 92q-54 42 -135.5 69t-175.5 27q-147 0 -279 -66q-133 -66 -217 -170q-90 -107 -139 -237
q-51 -128 -51 -264q0 -209 125 -350q132 -148 364 -148q225 0 393 121q170 123 228 328h-633l33 143h796q-19 -164 -90.5 -304t-183.5 -235q-110 -95 -253 -146.5t-300 -51.5q-145 0 -267.5 50t-205.5 140q-81 89 -125.5 205.5t-44.5 245.5q0 163 63.5 321.5t178.5 282.5
q113 128 273 202.5t343 75.5q215 0 373 -106q62 -43 123 -107q101 -118 123 -241z" />
    <glyph glyph-name="gdotaccent" unicode="&#x121;" horiz-adv-x="1286" 
d="M778 1188q-46 0 -76 30t-30 74q0 55 37 92q39 39 92 39q44 0 75 -30t31 -74q0 -55 -37 -92q-42 -39 -92 -39zM399 -510q-183 0 -303 94q-57 47 -88 97q-69 104 -69 217l141 30q-2 -52 22 -115.5t74 -113.5q35 -35 95.5 -56.5t131.5 -21.5q181 0 291 107q102 102 142 256
l55 211q-167 -179 -383 -179q-110 0 -202.5 52.5t-147.5 148.5q-58 94 -58 215q0 128 52 244q51 115 129 190q81 79 182.5 124.5t202.5 45.5q281 0 383 -243l59 225h147l-274 -1041q-62 -235 -209 -361t-373 -126zM680 907q-112 0 -209 -63q-95 -59 -156 -168
q-59 -109 -59 -230q0 -131 86 -217q87 -84 209 -84q78 0 157 36.5t142 99.5q63 62 101 147t38 174q0 138 -84 219q-83 86 -225 86z" />
    <glyph glyph-name="Gcommaaccent" unicode="&#x122;" horiz-adv-x="1660" 
d="M1645 1055l-154 -47q-21 89 -76 170q-37 52 -86 92q-54 42 -135.5 69t-175.5 27q-147 0 -279 -66q-133 -66 -217 -170q-90 -107 -139 -237q-51 -128 -51 -264q0 -209 125 -350q132 -148 364 -148q225 0 393 121q170 123 228 328h-633l33 143h796q-19 -164 -90.5 -304
t-183.5 -235q-110 -95 -253 -146.5t-300 -51.5q-145 0 -267.5 50t-205.5 140q-81 89 -125.5 205.5t-44.5 245.5q0 163 63.5 321.5t178.5 282.5q113 128 273 202.5t343 75.5q215 0 373 -106q62 -43 123 -107q101 -118 123 -241zM563 -614l17 63q70 12 120 62q48 51 54 106
q-21 -12 -49 -12q-40 0 -65.5 25.5t-25.5 66.5q0 50 35 82q35 35 84 35q54 0 82.5 -34t28.5 -91q0 -121 -82 -209q-82 -85 -199 -94z" />
    <glyph glyph-name="gcommaaccent" unicode="&#x123;" horiz-adv-x="1286" 
d="M946 1597l-16 -63q-72 -12 -121 -61q-47 -50 -53 -105q23 10 49 10q40 0 65 -25.5t25 -66.5q0 -47 -35 -82q-38 -35 -84 -35q-54 0 -82 34t-28 93q0 119 82 207q79 85 198 94zM399 -510q-183 0 -303 94q-57 47 -88 97q-69 104 -69 217l141 30q-2 -52 22 -115.5t74 -113.5
q35 -35 95.5 -56.5t131.5 -21.5q181 0 291 107q102 102 142 256l55 211q-167 -179 -383 -179q-110 0 -202.5 52.5t-147.5 148.5q-58 94 -58 215q0 128 52 244q51 115 129 190q81 79 182.5 124.5t202.5 45.5q281 0 383 -243l59 225h147l-274 -1041q-62 -235 -209 -361
t-373 -126zM680 907q-112 0 -209 -63q-95 -59 -156 -168q-59 -109 -59 -230q0 -131 86 -217q87 -84 209 -84q78 0 157 36.5t142 99.5q63 62 101 147t38 174q0 138 -84 219q-83 86 -225 86z" />
    <glyph glyph-name="Hbar" unicode="&#x126;" horiz-adv-x="1595" 
d="M1245 0h-158l183 684h-842l-182 -684h-158l297 1108h-168l37 137h166l67 248h156l-65 -248h843l66 248h158l-68 -248h168l-37 -137h-166zM1384 1108h-843l-74 -277h844z" />
    <glyph glyph-name="hbar" unicode="&#x127;" horiz-adv-x="1204" 
d="M881 1208h-371l-94 -356q80 94 163.5 139t186.5 45q148 0 238 -84q88 -88 88 -229q0 -52 -25 -158l-149 -565h-148l152 575q14 55 14 115q0 99 -61.5 156t-167.5 57q-120 0 -224 -94q-104 -91 -143 -236l-152 -573h-147l319 1208h-127l35 133h127l56 211h149l-57 -211
h372z" />
    <glyph glyph-name="Itilde" unicode="&#x128;" horiz-adv-x="583" 
d="M721 1669q-72 0 -115 47q-45 45 -108 45q-66 0 -107 -92h-106q23 95 86 158q58 61 151 61q60 0 117 -45q53 -45 113 -45q66 0 108 86h94q-29 -100 -87.5 -157.5t-145.5 -57.5zM637 1493l-397 -1493h-158l399 1493h156z" />
    <glyph glyph-name="itilde" unicode="&#x129;" horiz-adv-x="491" 
d="M545 1192q-68 0 -115 47t-108 47q-66 0 -107 -92h-106q25 97 86 158t151 61q60 0 117 -45q55 -47 112 -47q34 0 62.5 24.5t46.5 63.5h94q-29 -102 -87.5 -159.5t-145.5 -57.5zM461 1018l-268 -1018h-150l268 1018h150z" />
    <glyph glyph-name="Imacron" unicode="&#x12a;" horiz-adv-x="583" 
d="M342 1821h567l-35 -135h-567zM637 1493l-397 -1493h-158l399 1493h156z" />
    <glyph glyph-name="imacron" unicode="&#x12b;" horiz-adv-x="491" 
d="M203 1354h563l-37 -133h-563zM461 1018l-268 -1018h-150l268 1018h150z" />
    <glyph glyph-name="Ibreve" unicode="&#x12c;" horiz-adv-x="583" 
d="M637 1493l-397 -1493h-158l399 1493h156zM893 1950h102q-46 -148 -149 -230q-106 -90 -252 -90q-112 0 -184 60q-70 61 -70 174q0 40 12 86h88q-2 -99 39.5 -147t141.5 -48q177 0 272 195z" />
    <glyph glyph-name="ibreve" unicode="&#x12d;" horiz-adv-x="491" 
d="M461 1018l-268 -1018h-150l268 1018h150zM715 1509h104q-49 -148 -151 -229q-106 -90 -252 -90q-115 0 -183 59q-71 59 -71 174q0 39 12 86h90q-3 -98 38 -146t140 -48q181 0 273 194z" />
    <glyph glyph-name="Iogonek" unicode="&#x12e;" horiz-adv-x="583" 
d="M637 1493l-397 -1493q-29 -18 -52 -37q-6 -4 -49 -41q-29 -21 -55 -51q-49 -62 -49 -111q0 -108 147 -108l-28 -111q-18 -6 -58 -6q-88 0 -145 51q-57 48 -57 133q0 89 63 158q60 69 158 123h-33l399 1493h156z" />
    <glyph glyph-name="iogonek" unicode="&#x12f;" horiz-adv-x="491" 
d="M492 1495q44 0 72 -28t28 -72q0 -50 -35 -88q-37 -37 -88 -37q-44 0 -72 28t-28 72q0 51 37 88q34 37 86 37zM43 0l266 1018h150l-266 -1018q-11 -8 -28.5 -20.5t-23.5 -16.5q-7 -4 -24 -18.5t-27 -22.5q-36 -28 -53 -51q-49 -57 -49 -111q0 -108 147 -108l-31 -111
q-18 -6 -55 -6q-88 0 -145 51q-60 51 -60 133q0 85 64 158q58 67 160 123h-25z" />
    <glyph glyph-name="Idot" unicode="&#x130;" horiz-adv-x="583" 
d="M610 1634q-46 0 -76 30t-30 75q0 56 39 92q39 39 90 39q46 0 76 -30.5t30 -76.5q0 -53 -37 -90q-42 -39 -92 -39zM637 1493l-397 -1493h-158l399 1493h156z" />
    <glyph glyph-name="dotlessi" unicode="&#x131;" horiz-adv-x="491" 
d="M43 0l268 1018h150l-268 -1018h-150z" />
    <glyph glyph-name="IJ" unicode="&#x132;" horiz-adv-x="1290" 
d="M358 535l-10 -37q-18 -85 -18 -119q0 -112 76 -182q75 -66 182 -66q255 0 334 295l284 1067h156l-289 -1083q-114 -424 -493 -424q-180 0 -289 100q-111 99 -111 274q0 70 23 170zM461 1493h155l-198 -739h-156z" />
    <glyph glyph-name="Kcommaaccent" unicode="&#x136;" horiz-adv-x="1290" 
d="M240 0h-158l399 1493h156l-174 -655h10l830 655h233l-930 -735l565 -758h-194l-533 723h-12zM332 -614l16 63q71 12 121 62q47 47 53 106q-18 -12 -49 -12q-40 0 -65 25.5t-25 66.5q0 48 37 82q32 35 82 35q54 0 82 -34t28 -91q0 -120 -80 -209q-82 -85 -200 -94z" />
    <glyph glyph-name="kcommaaccent" unicode="&#x137;" horiz-adv-x="1034" 
d="M330 510h-6l-134 -510h-149l410 1554h149l-252 -950h4l572 414h229l-674 -475l432 -543h-184zM176 -614l19 63q67 11 118 62q48 48 54 106q-18 -12 -50 -12q-40 0 -65 25.5t-25 66.5q0 48 37 82q32 35 84 35q53 0 81 -34t28 -91q0 -120 -80 -209q-82 -85 -201 -94z" />
    <glyph glyph-name="Lacute" unicode="&#x139;" horiz-adv-x="1101" 
d="M674 1630h-158l277 328h192zM987 145l-39 -145h-866l399 1493h156l-358 -1348h708z" />
    <glyph glyph-name="lacute" unicode="&#x13a;" horiz-adv-x="491" 
d="M639 1686h-158l277 327h194zM600 1554l-410 -1554h-149l410 1554h149z" />
    <glyph glyph-name="Lcommaaccent" unicode="&#x13b;" horiz-adv-x="1101" 
d="M82 0l399 1493h156l-358 -1348h708l-39 -145h-866zM279 -614l18 63q71 12 121 62q47 50 53 106q-21 -12 -49 -12q-40 0 -66 25.5t-26 66.5q0 48 37 82q32 35 84 35q54 0 82 -34t28 -91q0 -118 -82 -209q-82 -85 -200 -94z" />
    <glyph glyph-name="lcommaaccent" unicode="&#x13c;" horiz-adv-x="491" 
d="M41 0l410 1554h149l-410 -1554h-149zM-127 -614l16 63q71 12 121 62q47 50 53 106q-18 -12 -49 -12q-40 0 -65 25.5t-25 66.5q0 47 35 82t84 35q54 0 82.5 -34t28.5 -91q0 -121 -82 -209q-79 -85 -199 -94z" />
    <glyph glyph-name="Lcaron" unicode="&#x13d;" horiz-adv-x="1150" 
d="M1180 1108h-129l139 428h170zM987 145l-39 -145h-866l399 1493h156l-358 -1348h708z" />
    <glyph glyph-name="lcaron" unicode="&#x13e;" horiz-adv-x="528" 
d="M600 1554l-410 -1554h-149l410 1554h149zM627 1126h129l176 428h-164z" />
    <glyph glyph-name="Ldot" unicode="&#x13f;" horiz-adv-x="1134" 
d="M82 0l399 1493h156l-358 -1348h708l-39 -145h-866zM1038 834q44 0 72.5 -28.5t28.5 -72.5q0 -50 -35 -88q-38 -35 -88 -35q-43 0 -70.5 28t-27.5 71q0 51 34 88t86 37z" />
    <glyph glyph-name="ldot" unicode="&#x140;" horiz-adv-x="714" 
d="M41 0l410 1554h149l-410 -1554h-149zM668 834q44 0 72 -28.5t28 -72.5q0 -50 -35 -88q-38 -35 -88 -35q-44 0 -72 28t-28 71q0 51 37 88q34 37 86 37z" />
    <glyph glyph-name="Lslash" unicode="&#x141;" horiz-adv-x="1126" 
d="M299 145h709l-39 -145h-865l170 635l-223 -90l41 155l223 88l189 705h155l-167 -635l471 189l-41 -156l-473 -189z" />
    <glyph glyph-name="lslash" unicode="&#x142;" horiz-adv-x="681" 
d="M731 942l-43 -164l-227 -123l-174 -655h-148l148 567l-217 -114l43 163l217 115l217 823h149l-192 -733z" />
    <glyph glyph-name="Nacute" unicode="&#x143;" horiz-adv-x="1636" 
d="M1176 1630h-156l276 328h193zM1536 1493h156l-400 -1493h-170l-540 1286l-344 -1286h-156l399 1493h185l532 -1270z" />
    <glyph glyph-name="nacute" unicode="&#x144;" horiz-adv-x="1204" 
d="M854 1192h-156l277 328h192zM770 0l152 575q16 66 16 115q0 99 -62.5 156t-168.5 57q-120 0 -224 -94q-100 -87 -143 -236l-150 -573h-149l268 1018h146l-43 -168q86 95 168.5 140.5t187.5 45.5q146 0 236 -84q88 -88 88 -229q0 -63 -25 -158l-149 -565h-148z" />
    <glyph glyph-name="Ncommaaccent" unicode="&#x145;" horiz-adv-x="1636" 
d="M1536 1493h156l-400 -1493h-170l-540 1286l-344 -1286h-156l399 1493h185l532 -1270zM444 -614l17 63q71 12 121 62q47 47 53 106q-18 -12 -49 -12q-40 0 -65 25.5t-25 66.5q0 49 36 82q32 35 82 35q54 0 82.5 -34t28.5 -91q0 -120 -80 -209q-82 -85 -201 -94z" />
    <glyph glyph-name="ncommaaccent" unicode="&#x146;" horiz-adv-x="1204" 
d="M770 0l152 575q16 66 16 115q0 99 -62.5 156t-168.5 57q-120 0 -224 -94q-100 -87 -143 -236l-150 -573h-149l268 1018h146l-43 -168q86 95 168.5 140.5t187.5 45.5q146 0 236 -84q88 -88 88 -229q0 -63 -25 -158l-149 -565h-148zM256 -614l16 63q71 12 121 62
q47 50 53 106q-21 -12 -49 -12q-40 0 -65 25.5t-25 66.5q0 50 35 82q35 35 84 35q54 0 82.5 -34t28.5 -91q0 -121 -82 -209q-82 -85 -199 -94z" />
    <glyph glyph-name="Ncaron" unicode="&#x147;" horiz-adv-x="1636" 
d="M885 1958h149l115 -225h4l229 225h168l-340 -330h-149zM666 1493l532 -1270l338 1270h156l-400 -1493h-170l-540 1286l-344 -1286h-156l399 1493h185z" />
    <glyph glyph-name="ncaron" unicode="&#x148;" horiz-adv-x="1204" 
d="M528 1520h148l115 -226h4l229 226h168l-340 -328h-147zM1067 565l-149 -565h-148l152 575q16 66 16 115q0 99 -62.5 156t-168.5 57q-120 0 -224 -94q-100 -87 -143 -236l-150 -573h-149l268 1018h146l-43 -168q86 95 168.5 140.5t187.5 45.5q146 0 236 -84
q88 -88 88 -229q0 -63 -25 -158z" />
    <glyph glyph-name="Eng" unicode="&#x14a;" horiz-adv-x="1636" 
d="M1139 -6l-555 1294l-346 -1288h-156l399 1493h185l538 -1253l332 1253h156l-467 -1753q-67 -248 -334 -248q-79 0 -115 23l31 120q37 -12 80 -12q75 0 124.5 40t69.5 116z" />
    <glyph glyph-name="eng" unicode="&#x14b;" horiz-adv-x="1202" 
d="M1067 565l-217 -825q-67 -248 -328 -248q-77 0 -116 23l32 120q38 -12 78 -12q74 0 125.5 40.5t71.5 115.5l209 796q16 66 16 115q0 99 -62.5 156t-168.5 57q-120 0 -224 -94q-100 -87 -143 -236l-150 -573h-149l268 1018h146l-43 -168q86 95 168.5 140.5t187.5 45.5
q146 0 236 -84q88 -88 88 -229q0 -63 -25 -158z" />
    <glyph glyph-name="Omacron" unicode="&#x14c;" horiz-adv-x="1697" 
d="M795 1821h641l-35 -135h-643zM811 -14q-190 0 -334 84q-151 88 -229 229q-82 152 -82 326q0 169 67 327q61 154 179 285q114 120 274 197q158 73 338 73q136 0 257.5 -48t207.5 -134q85 -88 132.5 -206t47.5 -249q0 -169 -67 -327q-68 -165 -179 -285
q-117 -127 -274 -197q-156 -75 -338 -75zM821 131q145 0 273 64q130 62 217 165q88 98 143 236q51 131 51 272q3 137 -57 250.5t-174 179.5t-258 64q-168 1 -316 -86t-241 -229q-129 -189 -129 -420q-5 -212 134 -355.5t357 -140.5z" />
    <glyph glyph-name="omacron" unicode="&#x14d;" horiz-adv-x="1236" 
d="M463 1354h643l-35 -133h-643zM555 -16q-205 0 -332 127t-127 325q0 156 82 293q79 138 217 223q141 84 295 84q206 0 334 -125q127 -130 127 -325q0 -160 -82 -297q-81 -139 -219 -223q-137 -82 -295 -82zM565 115q107 0 213 65q104 71 160 174q61 107 61 226
q0 154 -88 239q-89 86 -231 86q-112 0 -215 -65q-103 -71 -160 -176q-59 -109 -59 -224q0 -155 88 -237q85 -88 231 -88z" />
    <glyph glyph-name="Ohungarumlaut" unicode="&#x150;" horiz-adv-x="1697" 
d="M977 1630h-158l277 328h194zM1319 1630h-156l277 328h192zM811 -14q-190 0 -334 84q-151 88 -229 229q-82 152 -82 326q0 169 67 327q61 154 179 285q114 120 274 197q158 73 338 73q136 0 257.5 -48t207.5 -134q85 -88 132.5 -206t47.5 -249q0 -169 -67 -327
q-68 -165 -179 -285q-117 -127 -274 -197q-156 -75 -338 -75zM821 131q145 0 273 64q130 62 217 165q88 98 143 236q51 131 51 272q3 137 -57 250.5t-174 179.5t-258 64q-168 1 -316 -86t-241 -229q-129 -189 -129 -420q-5 -212 134 -355.5t357 -140.5z" />
    <glyph glyph-name="ohungarumlaut" unicode="&#x151;" horiz-adv-x="1236" 
d="M633 1192h-156l277 328h192zM975 1192h-156l277 328h192zM555 -16q-205 0 -332 127t-127 325q0 156 82 293q79 138 217 223q141 84 295 84q206 0 334 -125q127 -130 127 -325q0 -160 -82 -297q-81 -139 -219 -223q-137 -82 -295 -82zM565 115q107 0 213 65
q104 71 160 174q61 107 61 226q0 154 -88 239q-89 86 -231 86q-112 0 -215 -65q-103 -71 -160 -176q-59 -109 -59 -224q0 -155 88 -237q85 -88 231 -88z" />
    <glyph glyph-name="OE" unicode="&#x152;" horiz-adv-x="2480" 
d="M2234 0h-934l54 203h-2q-242 -217 -541 -217q-190 0 -334 84q-144 81 -229 229q-82 152 -82 326q0 169 67 327q61 154 179 285q114 120 274 197q158 73 338 73q216 0 360 -104q152 -106 213 -281h2l101 371h926l-37 -143h-772l-138 -519h705l-39 -145h-705l-145 -543h778
zM823 131q145 0 273 64q134 64 219 165q91 105 143 236q51 131 51 272q0 213 -133 355q-133 139 -356 139q-142 0 -272 -62q-137 -67 -222 -165q-90 -104 -143 -236q-53 -136 -53 -272q0 -141 59.5 -253t173.5 -177q114 -66 260 -66z" />
    <glyph glyph-name="oe" unicode="&#x153;" horiz-adv-x="2048" 
d="M1966 604q0 -73 -20 -141h-818q-2 -6 -2 -27q0 -147 88 -235t226 -88q65 0 127 20t106 53q78 59 121 136l121 -68q-62 -118 -189 -193q-128 -79 -290 -79q-148 0 -258 75q-107 76 -150 209q-76 -128 -203 -205t-270 -77q-205 0 -332 127t-127 325q0 156 82 293
q79 138 217 223q141 84 295 84q150 0 254 -73q106 -74 150 -201q72 126 190 201q116 73 260 73q201 0 309 -114q113 -119 113 -318zM1819 621q0 131 -74 208q-76 76 -207 76q-132 0 -248 -94q-115 -92 -145 -221h674v31zM999 580q0 154 -88 239q-89 86 -231 86
q-112 0 -215 -65q-103 -71 -160 -176q-59 -109 -59 -224q0 -155 88 -237q85 -88 231 -88q107 0 213 65q104 71 160 174q61 107 61 226z" />
    <glyph glyph-name="Racute" unicode="&#x154;" horiz-adv-x="1382" 
d="M1309 1958l-314 -328h-155l276 328h193zM481 1493h439q246 0 372 -100q131 -104 131 -285q0 -215 -170 -350q-145 -116 -397 -140l305 -618h-180l-295 604h-287l-159 -604h-158zM1174 881q86 89 86 215q0 123 -91.5 187.5t-257.5 64.5h-313l-160 -603h314q286 0 422 136z
" />
    <glyph glyph-name="racute" unicode="&#x155;" horiz-adv-x="727" 
d="M645 1192h-156l277 328h192zM410 842q80 105 172 147q85 39 192 39q39 0 55 -8l-41 -156q-30 6 -67 6q-76 0 -145.5 -32.5t-120.5 -89.5q-97 -106 -136 -250l-129 -498h-149l268 1018h146z" />
    <glyph glyph-name="Rcommaaccent" unicode="&#x156;" horiz-adv-x="1382" 
d="M481 1493h439q246 0 372 -100q131 -104 131 -285q0 -215 -170 -350q-142 -116 -397 -140l305 -618h-180l-295 604h-287l-159 -604h-158zM1174 881q86 89 86 215q0 123 -91.5 187.5t-257.5 64.5h-313l-160 -603h314q286 0 422 136zM305 -614l17 63q70 12 120 62
q48 51 54 106q-21 -12 -50 -12q-40 0 -65 25.5t-25 66.5q0 47 35 82t84 35q54 0 82.5 -34t28.5 -91q0 -121 -82 -209q-79 -85 -199 -94z" />
    <glyph glyph-name="rcommaaccent" unicode="&#x157;" horiz-adv-x="727" 
d="M410 842q80 105 172 147q85 39 192 39q39 0 55 -8l-41 -156q-30 6 -67 6q-76 0 -145.5 -32.5t-120.5 -89.5q-97 -106 -136 -250l-129 -498h-149l268 1018h146zM-109 -614l19 63q71 12 121 62q48 51 51 106q-18 -12 -49 -12q-40 0 -65 25.5t-25 66.5q0 48 37 82
q32 35 83 35q54 0 82.5 -34t28.5 -91q0 -118 -82 -209q-82 -85 -201 -94z" />
    <glyph glyph-name="Rcaron" unicode="&#x158;" horiz-adv-x="1382" 
d="M1038 1632h-147l-176 330h147l115 -225h4l229 225h168zM481 1493h439q246 0 372 -100q131 -104 131 -285q0 -215 -170 -350q-145 -116 -397 -140l305 -618h-180l-295 604h-287l-159 -604h-158zM1174 881q86 89 86 215q0 123 -91.5 187.5t-257.5 64.5h-313l-160 -603h314
q286 0 422 136z" />
    <glyph glyph-name="rcaron" unicode="&#x159;" horiz-adv-x="727" 
d="M369 1520h147l115 -226h4l229 226h168l-340 -328h-149zM410 842q80 105 172 147q85 39 192 39q39 0 55 -8l-41 -156q-30 6 -67 6q-76 0 -145.5 -32.5t-120.5 -89.5q-97 -106 -136 -250l-129 -498h-149l268 1018h146z" />
    <glyph glyph-name="Sacute" unicode="&#x15a;" horiz-adv-x="1220" 
d="M887 1630h-156l277 328h192zM942 403q0 150 -186 230l-195 84q-118 52 -196 145t-78 213q0 129 71 232q65 94 185 151q111 51 245 51q95 0 178 -27.5t136 -72.5q52 -43 86 -98q63 -97 63 -199l-145 -29q0 34 -14.5 81.5t-47.5 88.5q-38 50 -104.5 82.5t-159.5 32.5
q-98 0 -182 -40.5t-125 -117.5q-29 -60 -29 -125q0 -66 43 -124q38 -55 121 -91l201 -88q142 -62 217.5 -156.5t75.5 -215.5q0 -172 -129 -295q-62 -61 -160.5 -95t-218.5 -34q-102 -2 -195.5 35.5t-161.5 102t-107.5 155.5t-37.5 190v23l152 26v-26q0 -163 100 -263
q99 -102 260 -102q136 0 238 76q100 72 100 200z" />
    <glyph glyph-name="sacute" unicode="&#x15b;" horiz-adv-x="925" 
d="M627 1192h-156l277 328h192zM887 750l-137 -35q-12 90 -76 147q-55 45 -152 45q-82 0 -137 -43q-57 -45 -57 -123q0 -82 100 -125l135 -59q88 -36 154 -111q61 -73 61 -163q0 -128 -98 -213q-98 -88 -262 -88q-94 0 -170.5 32t-120.5 86q-86 103 -86 222l137 32
q0 -98 66 -170q62 -71 180 -71q92 0 149 45q56 44 56 118q0 99 -127 154l-125 55q-199 87 -199 244q0 127 101 217t253 90q206 -3 297 -139q48 -69 58 -147z" />
    <glyph glyph-name="Scircumflex" unicode="&#x15c;" horiz-adv-x="1220" 
d="M1155 1628h-149l-115 225h-4l-230 -225h-168l340 328h150zM942 403q0 150 -186 230l-195 84q-118 52 -196 145t-78 213q0 129 71 232q65 94 185 151q111 51 245 51q95 0 178 -27.5t136 -72.5q52 -43 86 -98q63 -97 63 -199l-145 -29q0 34 -14.5 81.5t-47.5 88.5
q-38 50 -104.5 82.5t-159.5 32.5q-98 0 -182 -40.5t-125 -117.5q-29 -60 -29 -125q0 -66 43 -124q38 -55 121 -91l201 -88q142 -62 217.5 -156.5t75.5 -215.5q0 -172 -129 -295q-62 -61 -160.5 -95t-218.5 -34q-102 -2 -195.5 35.5t-161.5 102t-107.5 155.5t-37.5 190v23
l152 26v-26q0 -163 100 -263q99 -102 260 -102q136 0 238 76q100 72 100 200z" />
    <glyph glyph-name="scircumflex" unicode="&#x15d;" horiz-adv-x="925" 
d="M907 1192h-149l-115 225h-4l-229 -225h-168l340 328h149zM887 750l-137 -35q-12 90 -76 147q-55 45 -152 45q-82 0 -137 -43q-57 -45 -57 -123q0 -82 100 -125l135 -59q88 -36 154 -111q61 -73 61 -163q0 -128 -98 -213q-98 -88 -262 -88q-94 0 -170.5 32t-120.5 86
q-86 103 -86 222l137 32q0 -98 66 -170q62 -71 180 -71q92 0 149 45q56 44 56 118q0 99 -127 154l-125 55q-199 87 -199 244q0 127 101 217t253 90q206 -3 297 -139q48 -69 58 -147z" />
    <glyph glyph-name="Scedilla" unicode="&#x15e;" horiz-adv-x="1220" 
d="M780 1368q-98 0 -182 -40.5t-125 -117.5q-29 -60 -29 -125q0 -66 43 -124q38 -55 121 -91l201 -88q142 -62 217.5 -156.5t75.5 -215.5q0 -151 -98 -267q-101 -113 -281 -147q35 -53 35 -119q0 -88 -46.5 -164t-123.5 -123q-91 -55 -211 -55q-88 0 -152 23l29 114
q55 -14 125 -14q102 0 174 63q70 64 70 166q0 54 -29 99q-102 -2 -195.5 35.5t-161.5 102t-107.5 155.5t-37.5 190v23l152 26v-26q0 -163 100 -263q99 -102 260 -102q136 0 238 76q100 72 100 200q0 150 -186 230l-195 84q-118 52 -196 145t-78 213q0 129 71 232
q65 94 185 151q111 51 245 51q95 0 178 -27.5t136 -72.5q52 -43 86 -98q63 -97 63 -199l-145 -29q0 34 -14.5 81.5t-47.5 88.5q-38 50 -104.5 82.5t-159.5 32.5z" />
    <glyph glyph-name="scedilla" unicode="&#x15f;" horiz-adv-x="925" 
d="M428 616l135 -59q88 -36 154 -111q61 -73 61 -163q0 -117 -84 -201t-227 -96q27 -49 27 -109q0 -88 -45.5 -164t-122.5 -123q-94 -55 -211 -55q-90 0 -154 23l31 114q55 -14 125 -14q103 0 172 63q71 62 71 166q0 57 -32 103q-146 27 -222 133q-65 91 -65 199l137 32
q0 -98 66 -170q62 -71 180 -71q92 0 149 45q56 44 56 118q0 99 -127 154l-125 55q-199 87 -199 244q0 127 101 217t253 90q206 -3 297 -139q48 -69 58 -147l-137 -35q-12 90 -76 147q-55 45 -152 45q-82 0 -137 -43q-57 -45 -57 -123q0 -82 100 -125z" />
    <glyph glyph-name="Scaron" unicode="&#x160;" horiz-adv-x="1220" 
d="M584 1962h149l115 -225h2l231 225h168l-340 -330h-149zM942 403q0 150 -186 230l-195 84q-118 52 -196 145t-78 213q0 129 71 232q65 94 185 151q111 51 245 51q95 0 178 -27.5t136 -72.5q52 -43 86 -98q63 -97 63 -199l-145 -29q0 34 -14.5 81.5t-47.5 88.5
q-38 50 -104.5 82.5t-159.5 32.5q-98 0 -182 -40.5t-125 -117.5q-29 -60 -29 -125q0 -66 43 -124q38 -55 121 -91l201 -88q142 -62 217.5 -156.5t75.5 -215.5q0 -172 -129 -295q-62 -61 -160.5 -95t-218.5 -34q-102 -2 -195.5 35.5t-161.5 102t-107.5 155.5t-37.5 190v23
l152 26v-26q0 -163 100 -263q99 -102 260 -102q136 0 238 76q100 72 100 200z" />
    <glyph glyph-name="scaron" unicode="&#x161;" horiz-adv-x="925" 
d="M324 1520h147l115 -226h4l229 226h168l-340 -328h-147zM887 750l-137 -35q-12 90 -76 147q-55 45 -152 45q-82 0 -137 -43q-57 -45 -57 -123q0 -82 100 -125l135 -59q88 -36 154 -111q61 -73 61 -163q0 -128 -98 -213q-98 -88 -262 -88q-94 0 -170.5 32t-120.5 86
q-86 103 -86 222l137 32q0 -98 66 -170q62 -71 180 -71q92 0 149 45q56 44 56 118q0 99 -127 154l-125 55q-199 87 -199 244q0 127 101 217t253 90q206 -3 297 -139q48 -69 58 -147z" />
    <glyph glyph-name="uni0162" unicode="&#x162;" horiz-adv-x="1230" 
d="M1419 1348h-497l-361 -1348h-6q37 -55 37 -123q0 -87 -46.5 -163.5t-123.5 -123.5q-94 -55 -211 -55q-87 0 -154 23l31 114q55 -14 127 -14q100 0 172 63q70 64 70 166q0 68 -39 113h-15l361 1348h-500l41 145l1155 2z" />
    <glyph glyph-name="uni0163" unicode="&#x163;" horiz-adv-x="716" 
d="M-53 -457l30 119q20 -4 66 -4q103 0 172 63q72 63 72 166q0 75 -62 170q-55 52 -55 146q0 43 12 92l156 592h-186l32 131h189l78 293h145l-76 -293h254l-37 -131h-252l-159 -608q-9 -21 -9 -52q0 -60 37 -82t101 -22q30 0 88 10l-35 -127q-38 -14 -94 -14h-35
q41 -55 41 -119q0 -88 -45 -162t-123 -121q-91 -55 -211 -55q-36 0 -94 8z" />
    <glyph glyph-name="Tcaron" unicode="&#x164;" horiz-adv-x="1230" 
d="M657 1962h150l115 -225h4l229 225h168l-340 -328h-149zM922 1348l-361 -1348h-158l361 1348h-500l41 145l1155 2l-41 -147h-497z" />
    <glyph glyph-name="tcaron" unicode="&#x165;" horiz-adv-x="714" 
d="M801 1126h-127l139 428h166zM770 1018l-35 -131h-254l-159 -608q-7 -24 -7 -52q0 -60 36.5 -82t101.5 -22q26 0 88 10l-35 -127q-38 -14 -96 -14q-111 0 -177.5 56t-66.5 155q0 43 12 92l156 592h-187l35 131h187l77 293h148l-78 -293h254z" />
    <glyph glyph-name="Tbar" unicode="&#x166;" horiz-adv-x="1263" 
d="M317 686l39 145h283l139 517h-499l38 145l1158 2l-41 -147h-500l-137 -517h282l-37 -145h-284l-183 -686h-157l184 686h-285z" />
    <glyph glyph-name="tbar" unicode="&#x167;" horiz-adv-x="724" 
d="M651 631l-35 -131h-229l-57 -221q-6 -21 -6 -52q0 -42 20 -66t47.5 -31t69.5 -7q28 0 86 10l-35 -127q-38 -14 -94 -14q-113 0 -178.5 56t-65.5 155q0 43 12 92l54 205h-174l34 131h174l68 256h-186l34 131h187l78 293h147l-78 -293h254l-35 -131h-254l-67 -256h229z" />
    <glyph glyph-name="Utilde" unicode="&#x168;" horiz-adv-x="1501" 
d="M1171 1669q-71 0 -114 47q-45 45 -109 45q-65 0 -106 -92h-107q23 95 86 158q58 61 152 61q60 0 117 -45q53 -45 112 -45q33 0 61.5 24t47.5 62h94q-29 -100 -88 -157.5t-146 -57.5zM1419 1493h158l-252 -940q-67 -256 -213 -399q-165 -168 -420 -168q-236 0 -364 116
q-127 121 -127 314q0 96 28 211l230 866h157l-241 -905q-19 -81 -19 -152q0 -143 90 -224t261 -81q177 0 299 119q111 111 170 328z" />
    <glyph glyph-name="utilde" unicode="&#x169;" horiz-adv-x="1206" 
d="M903 1192q-68 0 -115 47t-108 47q-66 0 -107 -92h-106q25 97 86 158t152 61q59 0 116 -45q55 -47 113 -47q34 0 62 24.5t46 63.5h95q-29 -101 -88 -159t-146 -58zM803 168q-82 -94 -167.5 -140t-189.5 -46q-145 0 -235 84q-88 85 -88 229q0 61 24 156l150 567h147
l-153 -576q-15 -66 -15 -114q0 -101 62.5 -157t167.5 -56q129 0 229 100q104 104 137 231l152 572h147l-219 -832q-20 -80 -26 -151v-35h-148q0 2 -1 11.5t-1 11.5q0 34 27 145z" />
    <glyph glyph-name="Umacron" unicode="&#x16a;" horiz-adv-x="1501" 
d="M762 1821h643l-35 -135h-643zM1419 1493h158l-252 -940q-67 -256 -213 -399q-165 -168 -420 -168q-236 0 -364 116q-127 121 -127 314q0 96 28 211l230 866h157l-241 -905q-19 -81 -19 -152q0 -143 90 -224t261 -81q177 0 299 119q111 111 170 328z" />
    <glyph glyph-name="umacron" unicode="&#x16b;" horiz-adv-x="1206" 
d="M494 1354h643l-37 -133h-641zM803 168q-82 -94 -167.5 -140t-189.5 -46q-145 0 -235 84q-88 85 -88 229q0 61 24 156l150 567h147l-153 -576q-15 -66 -15 -114q0 -101 62.5 -157t167.5 -56q129 0 229 100q104 104 137 231l152 572h147l-219 -832q-20 -80 -26 -151v-35
h-148q0 2 -1 11.5t-1 11.5q0 34 27 145z" />
    <glyph glyph-name="Uring" unicode="&#x16e;" horiz-adv-x="1501" 
d="M1026 1589q-100 0 -162 62q-63 60 -63 157q0 115 88 203q85 88 201 88q102 0 163 -61q62 -62 62 -158q0 -117 -86 -203q-88 -88 -203 -88zM1081 1995q-65 0 -118 -56q-50 -53 -50 -122q0 -58 33 -90.5t88 -32.5q65 0 117 55q51 51 51 123q0 57 -32.5 90t-88.5 33z
M1419 1493h158l-252 -940q-67 -256 -213 -399q-165 -168 -420 -168q-236 0 -364 116q-127 121 -127 314q0 96 28 211l230 866h157l-241 -905q-19 -81 -19 -152q0 -143 90 -224t261 -81q177 0 299 119q111 111 170 328z" />
    <glyph glyph-name="uring" unicode="&#x16f;" horiz-adv-x="1206" 
d="M797 1151q-101 0 -162 61q-64 61 -64 158q0 114 86 203q86 86 203 86q101 0 164 -60q61 -61 61 -157q0 -117 -86 -203q-88 -88 -202 -88zM850 1556q-65 0 -117 -55q-49 -55 -49 -123q0 -58 32.5 -90.5t88.5 -32.5q64 0 117 56q51 51 51 123q0 57 -33.5 89.5t-89.5 32.5z
M803 168q-82 -94 -167.5 -140t-189.5 -46q-145 0 -235 84q-88 85 -88 229q0 61 24 156l150 567h147l-153 -576q-15 -66 -15 -114q0 -101 62.5 -157t167.5 -56q129 0 229 100q104 104 137 231l152 572h147l-219 -832q-20 -80 -26 -151v-35h-148q0 2 -1 11.5t-1 11.5
q0 34 27 145z" />
    <glyph glyph-name="Uhungarumlaut" unicode="&#x170;" horiz-adv-x="1501" 
d="M946 1630h-158l277 328h195zM1288 1630h-155l276 328h193zM1419 1493h158l-252 -940q-67 -256 -213 -399q-165 -168 -420 -168q-236 0 -364 116q-127 121 -127 314q0 96 28 211l230 866h157l-241 -905q-19 -81 -19 -152q0 -143 90 -224t261 -81q177 0 299 119
q111 111 170 328z" />
    <glyph glyph-name="uhungarumlaut" unicode="&#x171;" horiz-adv-x="1206" 
d="M657 1192h-155l276 328h193zM1001 1192h-157l276 328h193zM803 168q-82 -94 -167.5 -140t-189.5 -46q-145 0 -235 84q-88 85 -88 229q0 61 24 156l150 567h147l-153 -576q-15 -66 -15 -114q0 -101 62.5 -157t167.5 -56q129 0 229 100q104 104 137 231l152 572h147
l-219 -832q-20 -80 -26 -151v-35h-148q0 2 -1 11.5t-1 11.5q0 34 27 145z" />
    <glyph glyph-name="Uogonek" unicode="&#x172;" horiz-adv-x="1501" 
d="M1577 1493l-252 -940q-67 -256 -213 -399q-116 -119 -276 -154q-29 -18 -52 -37q-6 -4 -49 -41q-29 -21 -55 -51q-49 -62 -49 -111q0 -108 147 -108l-30 -111q-15 -6 -56 -6q-88 0 -145 51q-58 49 -58 133q0 83 56 148q56 68 139 119q-232 0 -356 118q-127 118 -127 312
q0 96 28 211l230 866h157l-241 -905q-19 -81 -19 -152q0 -143 90 -224t261 -81q177 0 299 119q111 111 170 328l243 915h158z" />
    <glyph glyph-name="uogonek" unicode="&#x173;" horiz-adv-x="1206" 
d="M803 168q-82 -94 -167.5 -140t-189.5 -46q-145 0 -235 84q-88 85 -88 229q0 61 24 156l150 567h147l-153 -576q-15 -66 -15 -114q0 -101 62.5 -157t167.5 -56q129 0 229 100q104 104 137 231l152 572h147l-219 -832q-20 -80 -26 -151v-35q-21 -15 -49 -37
q-45 -36 -52 -41q-36 -32 -53 -51q-49 -62 -49 -111q0 -108 147 -108l-30 -111q-15 -6 -56 -6q-88 0 -145 51q-59 50 -59 133q0 87 65 158q54 64 156 123h-23q0 2 -1 11.5t-1 11.5q0 34 27 145z" />
    <glyph glyph-name="Wcircumflex" unicode="&#x174;" horiz-adv-x="2185" 
d="M1716 1628h-149l-113 225h-4l-231 -225h-166l340 328h147zM565 0h-166l-90 1493h160l66 -1276h4l718 1276h177l53 -1278h4l735 1278h166l-868 -1493h-170l-54 1282z" />
    <glyph glyph-name="wcircumflex" unicode="&#x175;" horiz-adv-x="1648" 
d="M1317 1192h-150l-114 225h-4l-230 -225h-168l340 328h150zM1587 1018h154l-613 -1018h-165l-56 823l-487 -823h-162l-74 1018h152l51 -838l492 838h153l58 -838z" />
    <glyph glyph-name="Ycircumflex" unicode="&#x176;" horiz-adv-x="1406" 
d="M1303 1628h-150l-115 225h-4l-229 -225h-168l340 328h149zM758 772l663 721h199l-821 -883l-162 -610h-158l170 637l-340 856h174z" />
    <glyph glyph-name="ycircumflex" unicode="&#x177;" horiz-adv-x="1138" 
d="M1065 1192h-147l-115 225h-4l-230 -225h-168l340 328h150zM176 -502h-166l361 510l-193 1010h154l153 -854l586 854h170z" />
    <glyph glyph-name="Ydieresis" unicode="&#x178;" horiz-adv-x="1406" 
d="M807 1636q-44 0 -73 28.5t-29 72.5q0 54 36 90q34 37 88 37q45 0 74 -29t29 -74q0 -54 -37 -88q-37 -37 -88 -37zM1186 1636q-44 0 -73.5 28.5t-29.5 72.5q0 53 37 90q34 37 88 37q45 0 74 -29t29 -74q0 -53 -35 -88q-40 -37 -90 -37zM758 772l663 721h199l-821 -883
l-162 -610h-158l170 637l-340 856h174z" />
    <glyph glyph-name="Zacute" unicode="&#x179;" horiz-adv-x="1218" 
d="M958 1630h-157l276 328h193zM1053 143l-39 -143h-1075l36 143l1188 1209h-835l39 141h1036l-41 -143l-1192 -1207h883z" />
    <glyph glyph-name="zacute" unicode="&#x17a;" horiz-adv-x="972" 
d="M715 1192h-158l277 328h192zM1024 1018l-35 -127l-823 -764h631l-33 -127h-815l33 127l817 764h-602l34 127h793z" />
    <glyph glyph-name="Zdotaccent" unicode="&#x17b;" horiz-adv-x="1218" 
d="M905 1634q-45 0 -75.5 30t-30.5 75q0 56 39 92q39 39 90 39q46 0 76 -30.5t30 -76.5q0 -53 -37 -90q-39 -39 -92 -39zM1053 143l-39 -143h-1075l36 143l1188 1209h-835l39 141h1036l-41 -143l-1192 -1207h883z" />
    <glyph glyph-name="zdotaccent" unicode="&#x17c;" horiz-adv-x="972" 
d="M653 1188q-44 0 -74 30t-30 74q0 55 37 92q36 39 90 39q46 0 76 -30t30 -74q0 -55 -37 -92q-39 -39 -92 -39zM1024 1018l-35 -127l-823 -764h631l-33 -127h-815l33 127l817 764h-602l34 127h793z" />
    <glyph glyph-name="Zcaron" unicode="&#x17d;" horiz-adv-x="1218" 
d="M653 1962h148l114 -225h5l229 225h168l-340 -330h-148zM1362 1350l-1192 -1207h883l-39 -143h-1075l36 143l1188 1209h-835l39 141h1036z" />
    <glyph glyph-name="zcaron" unicode="&#x17e;" horiz-adv-x="972" 
d="M410 1520h149l115 -226h2l231 226h168l-340 -328h-149zM166 127h631l-33 -127h-815l33 127l817 764h-602l34 127h793l-35 -127z" />
    <glyph glyph-name="florin" unicode="&#x192;" horiz-adv-x="1060" 
d="M606 889h-196l34 129h222l82 176q72 160 170 233q98 70 229 70q63 0 121 -24l-35 -130q-47 23 -105 23q-96 3 -155 -59q-48 -51 -94 -148l-66 -141h236l-35 -129h-260l-275 -602q-72 -161 -170 -234q-92 -69 -229 -69q-66 0 -121 24l33 129q53 -24 104 -24q94 0 150 53
q56 56 100 153z" />
    <glyph glyph-name="uni01B5" unicode="&#x1b5;" horiz-adv-x="1228" 
d="M1405 1493l-37 -143l-516 -521h371l-35 -137h-471l-543 -549h883l-39 -143h-1075l37 143l538 549h-354l37 137h454l512 523h-835l39 141h1034z" />
    <glyph glyph-name="uni01B6" unicode="&#x1b6;" horiz-adv-x="974" 
d="M1026 1018l-35 -127l-346 -318h258l-33 -122h-354l-348 -324h631l-33 -127h-817l35 127l350 324h-246l33 122h340l340 318h-602l34 127h793z" />
    <glyph glyph-name="uni01CD" unicode="&#x1cd;" horiz-adv-x="1490" 
d="M817 1960h150l114 -225h4l230 225h168l-340 -328h-150zM1194 0l-57 383h-813l-271 -383h-174l1061 1493h180l232 -1493h-158zM995 1333l-573 -809h694z" />
    <glyph glyph-name="uni01CE" unicode="&#x1ce;" horiz-adv-x="1284" 
d="M858 1192h-149l-177 328h150l115 -226h4l229 226h168zM1102 1018h147l-217 -832q-26 -91 -26 -151v-35h-152v23q0 42 29 155q-176 -194 -385 -194q-177 0 -289 118q-113 116 -113 310q0 129 47 250q50 118 127 198q79 82 182.5 129t211.5 47q272 0 380 -248zM541 115
q110 0 217 67q99 61 170 178q65 112 65 232q0 131 -88 225q-88 88 -227 88q-116 3 -216 -64.5t-156.5 -179.5t-53.5 -237q0 -139 80 -225q81 -84 209 -84z" />
    <glyph glyph-name="uni01CF" unicode="&#x1cf;" horiz-adv-x="583" 
d="M526 1632l-176 330h150l114 -225h4l230 225h168l-340 -330h-150zM637 1493l-397 -1493h-158l399 1493h156z" />
    <glyph glyph-name="uni01D0" unicode="&#x1d0;" horiz-adv-x="491" 
d="M186 1520h150l115 -226h2l231 226h166l-338 -328h-150zM43 0l268 1018h150l-268 -1018h-150z" />
    <glyph glyph-name="uni01D1" unicode="&#x1d1;" horiz-adv-x="1697" 
d="M823 1962h150l112 -225h5l231 225h166l-340 -328h-148zM811 -14q-190 0 -334 84q-151 88 -229 229q-82 152 -82 326q0 169 67 327q61 154 179 285q114 120 274 197q158 73 338 73q136 0 257.5 -48t207.5 -134q85 -88 132.5 -206t47.5 -249q0 -169 -67 -327
q-68 -165 -179 -285q-117 -127 -274 -197q-156 -75 -338 -75zM821 131q145 0 273 64q130 62 217 165q88 98 143 236q51 131 51 272q3 137 -57 250.5t-174 179.5t-258 64q-168 1 -316 -86t-241 -229q-129 -189 -129 -420q-5 -212 134 -355.5t357 -140.5z" />
    <glyph glyph-name="uni01D2" unicode="&#x1d2;" horiz-adv-x="1236" 
d="M510 1520h147l115 -226h4l230 226h168l-340 -328h-148zM555 -16q-205 0 -332 127t-127 325q0 156 82 293q79 138 217 223q141 84 295 84q206 0 334 -125q127 -130 127 -325q0 -160 -82 -297q-81 -139 -219 -223q-137 -82 -295 -82zM565 115q107 0 213 65q104 71 160 174
q61 107 61 226q0 154 -88 239q-89 86 -231 86q-112 0 -215 -65q-103 -71 -160 -176q-59 -109 -59 -224q0 -155 88 -237q85 -88 231 -88z" />
    <glyph glyph-name="uni01D3" unicode="&#x1d3;" horiz-adv-x="1501" 
d="M793 1962h149l115 -225h4l229 225h168l-340 -328h-149zM1577 1493l-252 -940q-67 -256 -213 -399q-165 -168 -420 -168q-236 0 -364 116q-127 121 -127 314q0 96 28 211l230 866h157l-241 -905q-19 -81 -19 -152q0 -143 90 -224t261 -81q177 0 299 119q111 111 170 328
l243 915h158z" />
    <glyph glyph-name="uni01D4" unicode="&#x1d4;" horiz-adv-x="1206" 
d="M522 1520h150l114 -226h2l232 226h168l-340 -328h-150zM803 168q-82 -94 -167.5 -140t-189.5 -46q-145 0 -235 84q-88 85 -88 229q0 61 24 156l150 567h147l-153 -576q-15 -66 -15 -114q0 -101 62.5 -157t167.5 -56q129 0 229 100q104 104 137 231l152 572h147l-219 -832
q-20 -80 -26 -151v-35h-148q0 2 -1 11.5t-1 11.5q0 34 27 145z" />
    <glyph glyph-name="uni01D5" unicode="&#x1d5;" horiz-adv-x="1501" 
d="M1577 1493l-252 -940q-67 -256 -213 -399q-165 -168 -420 -168q-236 0 -364 116q-127 121 -127 314q0 96 28 211l230 866h157l-241 -905q-19 -81 -19 -152q0 -143 90 -224t261 -81q177 0 299 119q111 111 170 328l243 915h158zM803 1972h641l-35 -135h-643zM842 1532
q-42 0 -71.5 28.5t-29.5 71.5q0 53 37 90t90 37q42 0 72.5 -28.5t30.5 -71.5q0 -54 -39 -90q-37 -37 -90 -37zM1225 1532q-46 0 -76.5 28t-30.5 72q0 54 39 90q37 37 88 37q45 0 75 -28t30 -72q0 -53 -37 -90t-88 -37z" />
    <glyph glyph-name="uni01D6" unicode="&#x1d6;" horiz-adv-x="1206" 
d="M580 1653h643l-35 -133h-643zM590 1161q-45 0 -75 28.5t-30 72.5q0 53 37 90q36 39 90 39q44 0 73.5 -29.5t29.5 -73.5q0 -53 -37 -90t-88 -37zM954 1161q-44 0 -73 28.5t-29 72.5q0 53 37 90q36 39 88 39q44 0 74 -29.5t30 -73.5q0 -53 -37 -90t-90 -37zM803 168
q-82 -94 -167.5 -140t-189.5 -46q-145 0 -235 84q-88 85 -88 229q0 61 24 156l150 567h147l-153 -576q-15 -66 -15 -114q0 -101 62.5 -157t167.5 -56q129 0 229 100q104 104 137 231l152 572h147l-219 -832q-20 -80 -26 -151v-35h-148q0 2 -1 11.5t-1 11.5q0 34 27 145z" />
    <glyph glyph-name="uni01D7" unicode="&#x1d7;" horiz-adv-x="1501" 
d="M1577 1493l-252 -940q-67 -256 -213 -399q-165 -168 -420 -168q-236 0 -364 116q-127 121 -127 314q0 96 28 211l230 866h157l-241 -905q-19 -81 -19 -152q0 -143 90 -224t261 -81q177 0 299 119q111 111 170 328l243 915h158zM842 1532q-42 0 -71.5 28.5t-29.5 71.5
q0 53 37 90t90 37q42 0 72.5 -28.5t30.5 -71.5q0 -54 -39 -90q-37 -37 -90 -37zM1225 1532q-46 0 -76.5 28t-30.5 72q0 54 39 90q37 37 88 37q45 0 75 -28t30 -72q0 -53 -37 -90t-88 -37zM1139 1796h-152l262 313h191z" />
    <glyph glyph-name="uni01D8" unicode="&#x1d8;" horiz-adv-x="1206" 
d="M885 1481h-150l273 327h192zM590 1161q-45 0 -75 28.5t-30 72.5q0 53 37 90q36 39 90 39q44 0 73.5 -29.5t29.5 -73.5q0 -53 -37 -90t-88 -37zM954 1161q-44 0 -73 28.5t-29 72.5q0 53 37 90q36 39 88 39q44 0 74 -29.5t30 -73.5q0 -53 -37 -90t-90 -37zM803 168
q-82 -94 -167.5 -140t-189.5 -46q-145 0 -235 84q-88 85 -88 229q0 61 24 156l150 567h147l-153 -576q-15 -66 -15 -114q0 -101 62.5 -157t167.5 -56q129 0 229 100q104 104 137 231l152 572h147l-219 -832q-20 -80 -26 -151v-35h-148q0 2 -1 11.5t-1 11.5q0 34 27 145z" />
    <glyph glyph-name="uni01D9" unicode="&#x1d9;" horiz-adv-x="1501" 
d="M1577 1493l-252 -940q-67 -256 -213 -399q-165 -168 -420 -168q-236 0 -364 116q-127 121 -127 314q0 96 28 211l230 866h157l-241 -905q-19 -81 -19 -152q0 -143 90 -224t261 -81q177 0 299 119q111 111 170 328l243 915h158zM842 1532q-42 0 -71.5 28.5t-29.5 71.5
q0 53 37 90t90 37q42 0 72.5 -28.5t30.5 -71.5q0 -54 -39 -90q-37 -37 -90 -37zM1225 1532q-46 0 -76.5 28t-30.5 72q0 54 39 90q37 37 88 37q45 0 75 -28t30 -72q0 -53 -37 -90t-88 -37zM825 2109h136l120 -211h4l236 211h147l-325 -313h-150z" />
    <glyph glyph-name="uni01DA" unicode="&#x1da;" horiz-adv-x="1206" 
d="M569 1810h146l119 -225h4l233 225h164l-340 -329h-150zM590 1161q-45 0 -75 28.5t-30 72.5q0 53 37 90q36 39 90 39q44 0 73.5 -29.5t29.5 -73.5q0 -53 -37 -90t-88 -37zM954 1161q-44 0 -73 28.5t-29 72.5q0 53 37 90q36 39 88 39q44 0 74 -29.5t30 -73.5q0 -53 -37 -90
t-90 -37zM803 168q-82 -94 -167.5 -140t-189.5 -46q-145 0 -235 84q-88 85 -88 229q0 61 24 156l150 567h147l-153 -576q-15 -66 -15 -114q0 -101 62.5 -157t167.5 -56q129 0 229 100q104 104 137 231l152 572h147l-219 -832q-20 -80 -26 -151v-35h-148q0 2 -1 11.5t-1 11.5
q0 34 27 145z" />
    <glyph glyph-name="uni01DB" unicode="&#x1db;" horiz-adv-x="1501" 
d="M1577 1493l-252 -940q-67 -256 -213 -399q-165 -168 -420 -168q-236 0 -364 116q-127 121 -127 314q0 96 28 211l230 866h157l-241 -905q-19 -81 -19 -152q0 -143 90 -224t261 -81q177 0 299 119q111 111 170 328l243 915h158zM842 1532q-42 0 -71.5 28.5t-29.5 71.5
q0 53 37 90t90 37q42 0 72.5 -28.5t30.5 -71.5q0 -54 -39 -90q-37 -37 -90 -37zM1225 1532q-46 0 -76.5 28t-30.5 72q0 54 39 90q37 37 88 37q45 0 75 -28t30 -72q0 -53 -37 -90t-88 -37zM1118 1796h-131l-151 313h168z" />
    <glyph glyph-name="uni01DC" unicode="&#x1dc;" horiz-adv-x="1206" 
d="M578 1808h172l114 -327h-121zM590 1161q-45 0 -75 28.5t-30 72.5q0 53 37 90q36 39 90 39q44 0 73.5 -29.5t29.5 -73.5q0 -53 -37 -90t-88 -37zM954 1161q-44 0 -73 28.5t-29 72.5q0 53 37 90q36 39 88 39q44 0 74 -29.5t30 -73.5q0 -53 -37 -90t-90 -37zM803 168
q-82 -94 -167.5 -140t-189.5 -46q-145 0 -235 84q-88 85 -88 229q0 61 24 156l150 567h147l-153 -576q-15 -66 -15 -114q0 -101 62.5 -157t167.5 -56q129 0 229 100q104 104 137 231l152 572h147l-219 -832q-20 -80 -26 -151v-35h-148q0 2 -1 11.5t-1 11.5q0 34 27 145z" />
    <glyph glyph-name="Gcaron" unicode="&#x1e6;" horiz-adv-x="1660" 
d="M819 1962h150l114 -225h4l230 225h168l-340 -330h-150zM1645 1055l-154 -47q-21 89 -76 170q-37 52 -86 92q-54 42 -135.5 69t-175.5 27q-147 0 -279 -66q-133 -66 -217 -170q-90 -107 -139 -237q-51 -128 -51 -264q0 -209 125 -350q132 -148 364 -148q225 0 393 121
q170 123 228 328h-633l33 143h796q-19 -164 -90.5 -304t-183.5 -235q-110 -95 -253 -146.5t-300 -51.5q-145 0 -267.5 50t-205.5 140q-81 89 -125.5 205.5t-44.5 245.5q0 163 63.5 321.5t178.5 282.5q113 128 273 202.5t343 75.5q215 0 373 -106q62 -43 123 -107
q101 -118 123 -241z" />
    <glyph glyph-name="gcaron" unicode="&#x1e7;" horiz-adv-x="1286" 
d="M543 1520h149l115 -226h4l229 226h168l-340 -328h-149zM399 -510q-183 0 -303 94q-57 47 -88 97q-69 104 -69 217l141 30q-2 -52 22 -115.5t74 -113.5q35 -35 95.5 -56.5t131.5 -21.5q181 0 291 107q102 102 142 256l55 211q-167 -179 -383 -179q-110 0 -202.5 52.5
t-147.5 148.5q-58 94 -58 215q0 128 52 244q51 115 129 190q81 79 182.5 124.5t202.5 45.5q281 0 383 -243l59 225h147l-274 -1041q-62 -235 -209 -361t-373 -126zM680 907q-112 0 -209 -63q-95 -59 -156 -168q-59 -109 -59 -230q0 -131 86 -217q87 -84 209 -84
q78 0 157 36.5t142 99.5q63 62 101 147t38 174q0 138 -84 219q-83 86 -225 86z" />
    <glyph glyph-name="uni01E8" unicode="&#x1e8;" horiz-adv-x="1290" 
d="M696 1962h150l115 -225h4l229 225h168l-340 -330h-150zM444 723h-12l-192 -723h-158l399 1493h156l-174 -655h10l830 655h233l-930 -735l565 -758h-194z" />
    <glyph glyph-name="uni01E9" unicode="&#x1e9;" horiz-adv-x="1034" 
d="M330 510h-6l-134 -510h-149l410 1554h149l-252 -950h4l572 414h229l-674 -475l432 -543h-184zM705 1520h147l115 -226h4l229 226h168l-340 -328h-147z" />
    <glyph glyph-name="uni01F4" unicode="&#x1f4;" horiz-adv-x="1660" 
d="M1116 1630h-155l276 328h193zM1645 1055l-154 -47q-21 89 -76 170q-37 52 -86 92q-54 42 -135.5 69t-175.5 27q-147 0 -279 -66q-133 -66 -217 -170q-90 -107 -139 -237q-51 -128 -51 -264q0 -209 125 -350q132 -148 364 -148q225 0 393 121q170 123 228 328h-633l33 143
h796q-19 -164 -90.5 -304t-183.5 -235q-110 -95 -253 -146.5t-300 -51.5q-145 0 -267.5 50t-205.5 140q-81 89 -125.5 205.5t-44.5 245.5q0 163 63.5 321.5t178.5 282.5q113 128 273 202.5t343 75.5q215 0 373 -106q62 -43 123 -107q101 -118 123 -241z" />
    <glyph glyph-name="uni01F5" unicode="&#x1f5;" horiz-adv-x="1286" 
d="M811 1192h-156l277 328h192zM399 -510q-183 0 -303 94q-57 47 -88 97q-69 104 -69 217l141 30q-2 -52 22 -115.5t74 -113.5q35 -35 95.5 -56.5t131.5 -21.5q181 0 291 107q102 102 142 256l55 211q-167 -179 -383 -179q-110 0 -202.5 52.5t-147.5 148.5q-58 94 -58 215
q0 128 52 244q51 115 129 190q81 79 182.5 124.5t202.5 45.5q281 0 383 -243l59 225h147l-274 -1041q-62 -235 -209 -361t-373 -126zM680 907q-112 0 -209 -63q-95 -59 -156 -168q-59 -109 -59 -230q0 -131 86 -217q87 -84 209 -84q78 0 157 36.5t142 99.5q63 62 101 147
t38 174q0 138 -84 219q-83 86 -225 86z" />
    <glyph glyph-name="Aringacute" unicode="&#x1fa;" horiz-adv-x="1492" 
d="M1137 1393l215 -1393h-158l-57 383h-813l-271 -383h-174l1000 1409q-82 61 -82 174q0 117 86 203q85 88 202 88q39 0 70 -8l197 233h192l-284 -299q51 -60 51 -143q0 -88 -49 -158q-51 -73 -125 -106zM1075 1772q-61 0 -117 -56q-51 -54 -51 -125q0 -57 33.5 -90
t89.5 -33q64 0 117 56q51 51 51 123q0 58 -33.5 91.5t-89.5 33.5zM422 524h694l-121 809z" />
    <glyph glyph-name="aringacute" unicode="&#x1fb;" horiz-adv-x="1284" 
d="M1325 1884l-285 -297q50 -62 50 -145q0 -117 -86 -203q-88 -88 -203 -88q-101 0 -162 61q-64 61 -64 158q0 114 89 203q83 86 200 86q41 0 72 -8l197 233h192zM856 1556q-67 0 -119 -55q-49 -55 -49 -123q0 -58 33 -90.5t88 -32.5q64 0 117 56q51 51 51 123
q0 57 -32.5 89.5t-88.5 32.5zM1249 1018l-217 -832q-19 -73 -26 -151v-35h-150q-2 4 -2 23q0 50 31 155q-182 -194 -387 -194q-177 0 -289 118q-113 116 -113 310q0 129 47 250q50 118 127 198q79 82 182.5 129t211.5 47q272 0 380 -248l60 230h145zM993 592q0 131 -88 225
q-88 88 -227 88q-117 0 -217 -65q-100 -68 -154 -176q-53 -112 -53 -240q0 -141 78 -225q81 -84 209 -84q110 0 217 67q99 61 170 178q65 112 65 232z" />
    <glyph glyph-name="AEacute" unicode="&#x1fc;" horiz-adv-x="2019" 
d="M1587 1630h-157l276 328h192zM944 383h-573l-320 -383h-186l1253 1493h1047l-39 -143h-766l-139 -519h704l-37 -145h-706l-146 -543h776l-34 -143h-936zM981 524l221 832h-24l-691 -832h494z" />
    <glyph glyph-name="aeacute" unicode="&#x1fd;" horiz-adv-x="1845" 
d="M1102 1192h-158l277 328h192zM831 276q-83 -145 -209 -218.5t-278 -73.5h-10q-126 0 -209 71q-84 72 -84 189q0 300 453 327l323 19q27 106 27 139q0 86 -56 130t-149 44q-61 0 -114 -15.5t-87.5 -39.5t-61.5 -55t-41 -58t-22 -53l-139 45q25 78 92 152q40 43 92 77
q121 80 293 80q116 0 193 -53q81 -53 110 -131q174 184 394 184q199 0 307 -114q108 -117 108 -318q0 -74 -18 -139h-819v-29q0 -150 88 -235q94 -88 229 -88t232 73q75 62 118 136l121 -68q-61 -116 -188 -193q-122 -79 -287 -79q-155 0 -262 79q-105 74 -146 215zM784 467
l-284 -16q-66 -2 -140 -17q-36 -6 -65 -22q-105 -52 -105 -154q0 -67 54 -106q51 -39 121 -39q154 0 278 106q120 105 141 248zM944 590h674v31q0 131 -74 208q-76 76 -207 76t-247 -94q-116 -93 -146 -221z" />
    <glyph glyph-name="Oslashacute" unicode="&#x1fe;" horiz-adv-x="1697" 
d="M1118 1630h-155l276 328h193zM1716 1436l-174 -174q127 -168 127 -392q0 -169 -67 -327q-68 -165 -179 -285q-117 -127 -274 -197q-156 -75 -338 -75q-249 0 -428 153l-170 -166l-94 97l172 168q-125 165 -125 387q0 169 67 327q61 154 179 285q114 120 274 197
q158 73 338 73q248 0 424 -147l176 172zM1016 1366q-171 0 -318.5 -87.5t-240.5 -231.5q-129 -189 -129 -420q0 -157 63 -260l12 -21l936 911q-130 109 -323 109zM821 127q140 0 275 66q129 61 219 165q87 100 141 236q53 136 53 272q0 166 -79 291l-938 -913
q132 -117 329 -117z" />
    <glyph glyph-name="oslashacute" unicode="&#x1ff;" horiz-adv-x="1236" 
d="M803 1192h-156l277 328h192zM1184 979l-119 -117q86 -118 86 -276q0 -120 -49 -230q-51 -114 -129 -192q-77 -80 -191 -131q-110 -49 -227 -49q-169 0 -287 90l-123 -119l-82 86l119 117q-84 112 -84 278q0 121 47 226q48 108 129 192q79 83 190 132.5t226 49.5
q167 0 289 -90l123 119zM682 909q-117 0 -217 -69q-102 -68 -160 -174q-59 -106 -59 -228q0 -103 43 -176l592 586q-76 61 -199 61zM563 113q85 0 166 38.5t141 104.5q61 64 96 150t35 176q0 105 -43 178l-591 -590q75 -57 196 -57z" />
    <glyph glyph-name="Scommaaccent" unicode="&#x218;" horiz-adv-x="1220" 
d="M942 403q0 150 -186 230l-195 84q-118 52 -196 145t-78 213q0 129 71 232q65 94 185 151q111 51 245 51q95 0 178 -27.5t136 -72.5q52 -43 86 -98q63 -97 63 -199l-145 -29q0 34 -14.5 81.5t-47.5 88.5q-38 50 -104.5 82.5t-159.5 32.5q-98 0 -182 -40.5t-125 -117.5
q-29 -60 -29 -125q0 -66 43 -124q38 -55 121 -91l201 -88q142 -62 217.5 -156.5t75.5 -215.5q0 -172 -129 -295q-62 -61 -160.5 -95t-218.5 -34q-102 -2 -195.5 35.5t-161.5 102t-107.5 155.5t-37.5 190v23l152 26v-26q0 -163 100 -263q99 -102 260 -102q136 0 238 76
q100 72 100 200zM338 -614l16 63q71 12 121 62q47 50 53 106q-21 -12 -49 -12q-40 0 -65 25.5t-25 66.5q0 50 35 82q35 35 84 35q54 0 82 -34t28 -91q0 -122 -81 -209q-82 -85 -199 -94z" />
    <glyph glyph-name="scommaaccent" unicode="&#x219;" horiz-adv-x="925" 
d="M887 750l-137 -35q-12 90 -76 147q-55 45 -152 45q-82 0 -137 -43q-57 -45 -57 -123q0 -82 100 -125l135 -59q88 -36 154 -111q61 -73 61 -163q0 -128 -98 -213q-98 -88 -262 -88q-94 0 -170.5 32t-120.5 86q-86 103 -86 222l137 32q0 -98 66 -170q62 -71 180 -71
q92 0 149 45q56 44 56 118q0 99 -127 154l-125 55q-199 87 -199 244q0 127 101 217t253 90q206 -3 297 -139q48 -69 58 -147zM152 -614l18 63q69 12 119 62q47 50 53 106q-18 -12 -49 -12q-40 0 -65 25.5t-25 66.5q0 47 35 82t86 35q53 0 80.5 -34t27.5 -91q0 -120 -80 -209
q-82 -85 -200 -94z" />
    <glyph glyph-name="uni021A" unicode="&#x21a;" horiz-adv-x="1230" 
d="M922 1348l-361 -1348h-158l361 1348h-500l41 145l1155 2l-41 -147h-497zM238 -614l18 63q69 12 119 62q47 47 53 106q-18 -12 -49 -12q-40 0 -65 25.5t-25 66.5q0 48 37 82q32 35 84 35q53 0 80.5 -34t27.5 -91q0 -120 -80 -209q-82 -85 -200 -94z" />
    <glyph glyph-name="uni021B" unicode="&#x21b;" horiz-adv-x="714" 
d="M770 1018l-35 -131h-254l-159 -608q-7 -24 -7 -52q0 -60 36.5 -82t101.5 -22q26 0 88 10l-35 -127q-38 -14 -96 -14q-111 0 -177.5 56t-66.5 155q0 43 12 92l156 592h-187l35 131h187l77 293h148l-78 -293h254zM20 -614l19 63q69 12 119 62q47 47 53 106q-18 -12 -49 -12
q-40 0 -65 25.5t-25 66.5q0 48 37 82q32 35 84 35q54 0 81 -33.5t27 -91.5q0 -120 -80 -209q-82 -85 -201 -94z" />
    <glyph glyph-name="uni0237" unicode="&#x237;" horiz-adv-x="503" 
d="M473 1018l-336 -1278q-67 -248 -327 -248q-78 0 -117 23l33 120q37 -12 79 -12q72 0 123.5 40.5t71.5 115.5l326 1239h147z" />
    <glyph glyph-name="gravecomb" unicode="&#x300;" 
d="M-145 1520h172l118 -328h-129z" />
    <glyph glyph-name="acutecomb" unicode="&#x301;" 
d="M-78 1192h-158l277 328h195z" />
    <glyph glyph-name="uni0302" unicode="&#x302;" 
d="M332 1192h-148l-114 225h-4l-230 -225h-168l340 328h148z" />
    <glyph glyph-name="tildecomb" unicode="&#x303;" 
d="M102 1192q-67 0 -114 47t-111 47q-66 0 -104 -92h-109q28 97 86 158q61 61 154 61q55 0 116 -45q51 -47 113 -47q64 0 109 88h94q-29 -101 -88 -159t-146 -58z" />
    <glyph glyph-name="uni0304" unicode="&#x304;" 
d="M-303 1354h641l-35 -133h-641z" />
    <glyph glyph-name="uni0306" unicode="&#x306;" 
d="M223 1509h105q-48 -147 -152 -229q-106 -90 -252 -90q-113 0 -184 59q-70 61 -70 174q0 36 13 86h90q-3 -98 38 -146t140 -48q94 0 160 49t112 145z" />
    <glyph glyph-name="uni0307" unicode="&#x307;" 
d="M-12 1188q-44 0 -74.5 30t-30.5 74q0 55 37 92q36 39 90 39q46 0 76.5 -30t30.5 -74q0 -55 -37 -92q-39 -39 -92 -39z" />
    <glyph glyph-name="uni0308" unicode="&#x308;" 
d="M-195 1188q-44 0 -73 29t-29 73q0 55 35 90q40 37 90 37q44 0 73 -29t29 -73q0 -55 -36 -88q-36 -39 -89 -39zM172 1188q-44 0 -73 29t-29 73q0 53 34 90q37 37 91 37q44 0 73 -29t29 -73q0 -56 -37 -88q-36 -39 -88 -39z" />
    <glyph glyph-name="uni030A" unicode="&#x30a;" 
d="M-33 1151q-101 0 -162 61t-61 158q0 113 84 203q89 86 203 86q101 0 164 -60q61 -61 61 -157q0 -117 -86 -203q-85 -88 -203 -88zM23 1556q-68 0 -117 -55q-51 -54 -51 -123q0 -58 33 -90.5t89 -32.5q65 0 115 56q51 51 51 123q0 57 -32 89.5t-88 32.5z" />
    <glyph glyph-name="uni030B" unicode="&#x30b;" 
d="M-250 1192h-156l277 328h192zM92 1192h-155l276 328h193z" />
    <glyph glyph-name="uni030C" unicode="&#x30c;" 
d="M-332 1520h148l114 -226h4l230 226h168l-340 -328h-148z" />
    <glyph glyph-name="uni0312" unicode="&#x312;" 
d="M141 1597l-18 -63q-73 -13 -119 -61q-49 -49 -55 -105q23 10 51 10q39 0 64.5 -25.5t25.5 -66.5q0 -48 -37 -82q-35 -35 -84 -35q-54 0 -82 34t-28 93q0 116 82 207q82 85 200 94z" />
    <glyph glyph-name="uni0326" unicode="&#x326;" 
d="M-141 -614l18 63q72 12 119 62q49 49 55 106q-21 -12 -51 -12q-39 0 -64.5 25.5t-25.5 66.5q0 48 37 82q32 35 84 35q54 0 82 -34t28 -91q0 -118 -82 -209q-82 -85 -200 -94z" />
    <glyph glyph-name="uni0327" unicode="&#x327;" 
d="M-113 -465q-86 0 -153 23l30 114q52 -14 125 -14q103 0 172 63q72 66 72 166q0 66 -41 113h137q37 -52 37 -123q0 -89 -45.5 -164.5t-122.5 -122.5q-94 -55 -211 -55z" />
    <glyph glyph-name="uni0328" unicode="&#x328;" 
d="M117 -348l-29 -111q-21 -6 -57 -6q-89 0 -146 51q-59 50 -59 133q0 87 65 158q60 69 158 123h125q-36 -25 -51 -37q-3 -2 -11.5 -9.5t-18.5 -15.5t-21 -16q-41 -36 -52 -51q-51 -59 -51 -111q0 -108 148 -108z" />
    <glyph glyph-name="Theta" unicode="&#x398;" horiz-adv-x="1697" 
d="M811 -14q-190 0 -334 84q-151 88 -229 229q-82 152 -82 326q0 169 67 327q61 154 179 285q114 120 274 197q158 73 338 73q136 0 257.5 -48t207.5 -134q85 -88 132.5 -206t47.5 -249q0 -169 -67 -327q-68 -165 -179 -285q-117 -127 -274 -197q-156 -75 -338 -75zM821 131
q145 0 273 64q130 62 217 165q88 98 143 236q51 131 51 272q3 137 -57 250.5t-174 179.5t-258 64q-168 1 -316 -86t-241 -229q-129 -189 -129 -420q-5 -212 134 -355.5t357 -140.5zM1360 829h-840l-39 -141h840z" />
    <glyph glyph-name="uni03A9" unicode="&#x3a9;" horiz-adv-x="1687" 
d="M1020 215l-21 -78h459l-37 -137h-596l84 311q181 21 320 119q137 91 215 232q72 135 72 290q0 162 -105 279q-55 61 -147.5 96t-208.5 35q-136 0 -269 -51q-128 -55 -223 -144q-92 -86 -149 -209q-56 -124 -56 -253q0 -216 152 -332q77 -56 176 -62l-82 -311h-596l37 137
h457l20 78q-99 33 -173.5 110t-110.5 179q-37 101 -37 213q0 159 71 307q64 140 187 250q115 103 274 166q158 61 328 61q140 0 259 -41t196 -114q77 -72 118 -169.5t41 -207.5q0 -135 -49.5 -260.5t-138.5 -223.5q-86 -98 -207 -168t-260 -102z" />
    <glyph glyph-name="theta" unicode="&#x3b8;" horiz-adv-x="1380" 
d="M614 -16q-118 0 -207.5 41.5t-144.5 117t-82.5 176t-27.5 224.5q0 176 56 356t157 326q144 213 329 291q91 40 203 40q238 0 354 -157q111 -153 111 -398q3 -205 -79 -423t-218 -369q-93 -107 -207 -164q-119 -61 -244 -61zM342 840h856q14 77 14 161q0 205 -80.5 314.5
t-242.5 109.5q-88 0 -175 -46.5t-157 -129.5q-145 -164 -215 -409zM1171 711h-858q-14 -96 -14 -168q0 -206 81 -317t243 -111q89 0 176 47.5t159 132.5q145 175 213 416z" />
    <glyph glyph-name="pi" unicode="&#x3c0;" horiz-adv-x="1306" 
d="M1065 885l-160 -606q-6 -21 -6 -52q0 -57 34.5 -80.5t100.5 -23.5q30 0 88 10l-35 -127q-38 -14 -94 -14q-113 0 -178 56t-65 155q0 40 12 92l156 590h-386l-231 -885h-147l231 885h-256l35 133h1194l-37 -133h-256z" />
    <glyph glyph-name="uni0401" unicode="&#x401;" horiz-adv-x="1261" 
d="M793 1636q-44 0 -73.5 28.5t-29.5 72.5q0 53 37 90q34 37 88 37q45 0 75 -29t30 -74q0 -51 -37 -88t-90 -37zM1174 1636q-45 0 -75 28.5t-30 72.5q0 53 37 90q34 37 90 37q44 0 73 -29t29 -74q0 -52 -36 -88q-37 -37 -88 -37zM82 0l399 1493h926l-37 -143h-772l-137 -519
h704l-39 -145h-704l-146 -543h779l-39 -143h-934z" />
    <glyph glyph-name="uni0402" unicode="&#x402;" horiz-adv-x="1622" 
d="M942 -41q-62 0 -129 12q-65 11 -102 31l65 137q75 -35 156 -35q204 0 328 127q124 124 124 318q0 117 -81 192q-78 78 -218 78q-139 0 -249 -37q-111 -38 -228 -123l-174 -659h-155l360 1350h-373l39 143h1034l-39 -143h-507l-144 -537q125 78 238 115q112 37 248 37
q183 0 299 -107q118 -106 118 -285q0 -169 -75 -313q-78 -141 -217 -219q-142 -82 -318 -82z" />
    <glyph glyph-name="uni0403" unicode="&#x403;" horiz-adv-x="1112" 
d="M987 1628h-158l277 328h194zM82 0l397 1493h850l-39 -143h-694l-356 -1350h-158z" />
    <glyph glyph-name="uni0404" unicode="&#x404;" horiz-adv-x="1615" 
d="M1649 1028l-152 -47q-7 67 -53 147.5t-123 139.5q-56 43 -138.5 68.5t-174.5 25.5q-234 0 -408 -152q-178 -150 -240 -379h713l-37 -145h-700v-12q0 -250 133 -395q133 -148 358 -148q94 0 182 27t152 69q64 45 113 97q82 89 127 188l143 -55q-55 -135 -172 -252
q-70 -66 -143 -111q-182 -108 -422 -108q-183 0 -324 84q-146 82 -229 233q-84 150 -84 334q-1 199 92 385t250 309q104 84 237 130t277 46q112 0 211 -29t168 -79q64 -45 121 -115q93 -115 123 -256z" />
    <glyph glyph-name="uni0405" unicode="&#x405;" horiz-adv-x="1220" 
d="M942 403q0 150 -186 230l-195 84q-118 52 -196 145t-78 213q0 129 71 232q65 94 185 151q111 51 245 51q95 0 178 -27.5t136 -72.5q52 -43 86 -98q63 -97 63 -199l-145 -29q0 34 -14.5 81.5t-47.5 88.5q-38 50 -104.5 82.5t-159.5 32.5q-98 0 -182 -40.5t-125 -117.5
q-29 -60 -29 -125q0 -66 43 -124q38 -55 121 -91l201 -88q142 -62 217.5 -156.5t75.5 -215.5q0 -172 -129 -295q-62 -61 -160.5 -95t-218.5 -34q-102 -2 -195.5 35.5t-161.5 102t-107.5 155.5t-37.5 190v23l152 26v-26q0 -163 100 -263q99 -102 260 -102q136 0 238 76
q100 72 100 200z" />
    <glyph glyph-name="uni0406" unicode="&#x406;" horiz-adv-x="581" 
d="M82 0l399 1493h156l-399 -1493h-156z" />
    <glyph glyph-name="uni0407" unicode="&#x407;" horiz-adv-x="581" 
d="M504 1669q-34 -34 -78 -34t-78 34q-35 34 -35 81t35 81q34 34 78 34t78 -34t34 -81t-34 -81zM858 1669q-34 -34 -78 -34t-78 34q-35 34 -35 81t35 81q34 34 78 34t78 -34t34 -81t-34 -81zM82 0l399 1493h156l-399 -1493h-156z" />
    <glyph glyph-name="uni0408" unicode="&#x408;" horiz-adv-x="1165" 
d="M1079 1493h158l-291 -1083q-114 -424 -491 -424q-180 0 -289 100q-111 99 -111 274q0 76 31 203l12 53l154 5l-29 -123q-18 -70 -18 -117q0 -115 76 -182q74 -68 180 -68q255 0 334 295z" />
    <glyph glyph-name="uni0409" unicode="&#x409;" horiz-adv-x="2344" 
d="M1425 1350h-600l-200 -541q-25 -70 -66 -172q-71 -158 -74 -164q-76 -162 -174 -283q-146 -190 -352 -196q-33 0 -47 4l39 141q125 6 221 111q70 80 119 170q7 13 26.5 50t28.5 56q6 15 24 55.5t29 65.5q9 25 27 67.5t25 61.5q6 19 24 65.5t27 71.5l217 580h899
l-154 -584h314q235 0 364 -100q133 -103 133 -285q0 -247 -190 -385q-192 -139 -518 -139h-502zM1427 770l-165 -627h307q258 0 403 95q144 94 144 274q0 118 -93 190q-92 68 -256 68h-340z" />
    <glyph glyph-name="uni040A" unicode="&#x40a;" horiz-adv-x="2375" 
d="M1282 743h-850l-194 -743h-156l399 1493h156l-166 -608h850l164 608h157l-163 -608h342q223 0 352 -99q131 -98 131 -274q0 -165 -88 -281q-87 -115 -244 -174q-157 -57 -360 -57h-527zM1442 748l-162 -605h330q245 0 391 90q145 92 145 269q0 115 -90 180.5t-248 65.5
h-366z" />
    <glyph glyph-name="uni040B" unicode="&#x40b;" horiz-adv-x="1611" 
d="M1135 963q185 0 297 -80q108 -80 108 -232q0 -59 -18 -129l-133 -522h-156l133 496q16 62 16 98q0 106 -76 165.5t-210 59.5q-110 0 -240 -41q-146 -46 -242 -94l-182 -684h-151l358 1350h-373l39 143h1034l-39 -143h-509l-136 -519q78 39 234 91q130 41 246 41z" />
    <glyph glyph-name="uni040C" unicode="&#x40c;" horiz-adv-x="1290" 
d="M1004 1630h-156l276 328h193zM238 0h-156l399 1493h156l-174 -655h10l830 655h231l-930 -735l567 -758h-194l-535 723h-10z" />
    <glyph glyph-name="uni040E" unicode="&#x40e;" horiz-adv-x="1357" 
d="M1196 1706q-102 -76 -223 -76t-197 76q-77 77 -80 192l101 23q11 -89 52.5 -131.5t127.5 -42.5q89 0 158.5 46t101.5 128l96 -23q-37 -114 -137 -192zM1427 1493h185l-916 -1208q-124 -164 -235 -232q-113 -67 -234 -67q-116 0 -217 34l39 144q96 -35 187 -35
q85 0 168.5 57.5t173.5 180.5l24 30l-336 1096h170l283 -944z" />
    <glyph glyph-name="uni040F" unicode="&#x40f;" horiz-adv-x="1572" 
d="M1628 1493l-397 -1493h-490l-84 -311h-155l82 311h-500l395 1493h156l-356 -1350h835l359 1350h155z" />
    <glyph glyph-name="uni0410" unicode="&#x410;" horiz-adv-x="1490" 
d="M422 524h694l-121 809zM1120 1493l232 -1493h-158l-57 383h-813l-271 -383h-174l1061 1493h180z" />
    <glyph glyph-name="uni0411" unicode="&#x411;" horiz-adv-x="1382" 
d="M801 745h-363l-162 -602h328q252 0 395 93q140 93 140 266q0 114 -89.5 178.5t-248.5 64.5zM1430 1493l-39 -143h-793l-123 -465h338q222 0 354 -97q131 -98 131 -276q0 -170 -93 -286.5t-255.5 -171t-386.5 -54.5h-481l399 1493h949z" />
    <glyph glyph-name="uni0412" unicode="&#x412;" horiz-adv-x="1402" 
d="M1391 1145q0 -149 -107 -256q-102 -102 -270 -137q115 -33 192 -113q74 -77 74 -197q0 -193 -170 -319q-170 -123 -459 -123h-569l399 1493h445q223 0 342 -94q123 -94 123 -254zM1229 1130q0 106 -80 164t-227 58h-326l-137 -523h327q202 0 324 82q119 82 119 219z
M1120 453q0 114 -96 176q-98 61 -260 61h-344l-146 -547h392q206 0 331 82q123 83 123 228z" />
    <glyph glyph-name="uni0413" unicode="&#x413;" horiz-adv-x="1112" 
d="M1329 1493l-39 -143h-694l-356 -1350h-158l397 1493h850z" />
    <glyph glyph-name="uni0414" unicode="&#x414;" horiz-adv-x="1615" 
d="M211 143h897l322 1207h-603l-186 -490q-121 -318 -211 -473q-92 -157 -219 -244zM723 1493h901l-360 -1350h168l-121 -456h-148l82 313h-1200l-84 -313h-147l125 460q100 3 192 82q76 65 162 211q12 20 74 146q30 63 69 159q6 17 31 77t39 98z" />
    <glyph glyph-name="uni0415" unicode="&#x415;" horiz-adv-x="1261" 
d="M82 0l399 1493h926l-37 -143h-772l-137 -519h704l-39 -145h-704l-146 -543h779l-39 -143h-934z" />
    <glyph glyph-name="uni0416" unicode="&#x416;" horiz-adv-x="1900" 
d="M944 793h10l187 700h155l-186 -700h10l809 700h217l-880 -745l508 -748h-187l-483 725h-12l-193 -725h-158l195 725h-10l-836 -725h-219l915 786l-495 707h186z" />
    <glyph glyph-name="uni0417" unicode="&#x417;" horiz-adv-x="1232" 
d="M528 -14q-105 0 -191 29.5t-140 80.5q-49 44 -86 109q-62 114 -56 225l150 29q-3 -46 5.5 -90.5t32.5 -88.5t61.5 -77t98 -53.5t136.5 -20.5q111 0 202.5 43t149.5 125q59 86 59 195q0 110 -94 182q-94 67 -217 67q-83 0 -135 -18l-64 123l639 506h-772l39 141h989
l-41 -150l-594 -469q158 -3 269 -88q145 -112 145 -288q0 -118 -46.5 -216.5t-127.5 -162.5q-169 -133 -412 -133z" />
    <glyph glyph-name="uni0418" unicode="&#x418;" horiz-adv-x="1607" 
d="M481 1493h154l-336 -1272l1180 1272h184l-399 -1493h-154l340 1276l-1182 -1276h-186z" />
    <glyph glyph-name="uni0419" unicode="&#x419;" horiz-adv-x="1607" 
d="M1339 1706q-102 -76 -223 -76q-120 0 -196 76q-77 77 -80 192l100 23q11 -89 52.5 -131.5t127.5 -42.5q89 0 158.5 46t101.5 128l97 -23q-36 -113 -138 -192zM481 1493h154l-336 -1272l1180 1272h184l-399 -1493h-154l340 1276l-1182 -1276h-186z" />
    <glyph glyph-name="uni041A" unicode="&#x41a;" horiz-adv-x="1290" 
d="M238 0h-156l399 1493h156l-174 -655h10l830 655h231l-930 -735l567 -758h-194l-535 723h-10z" />
    <glyph glyph-name="uni041B" unicode="&#x41b;" horiz-adv-x="1564" 
d="M825 1350l-200 -541q-25 -70 -66 -172q-26 -67 -74 -164q-75 -162 -172 -285q-150 -188 -354 -194q-33 0 -47 4l39 141q127 6 221 111q74 84 119 168q29 57 53 106q35 73 55 121q10 27 28 70.5t24 58.5q7 21 26 72.5t25 66.5l217 580h901l-399 -1493h-156l360 1350h-600z
" />
    <glyph glyph-name="uni041C" unicode="&#x41c;" horiz-adv-x="1982" 
d="M1806 1493h232l-400 -1493h-153l338 1268h-2l-889 -1268h-135l-217 1282h-2l-342 -1282h-154l399 1493h213l215 -1280z" />
    <glyph glyph-name="uni041D" unicode="&#x41d;" horiz-adv-x="1583" 
d="M1081 0l183 684h-844l-182 -684h-156l399 1493h156l-176 -662h842l178 662h157l-399 -1493h-158z" />
    <glyph glyph-name="uni041E" unicode="&#x41e;" horiz-adv-x="1697" 
d="M811 -14q-190 0 -334 84q-151 88 -229 229q-82 152 -82 326q0 169 67 327q61 154 179 285q114 120 274 197q158 73 338 73q136 0 257.5 -48t207.5 -134q85 -88 132.5 -206t47.5 -249q0 -169 -67 -327q-68 -165 -179 -285q-117 -127 -274 -197q-156 -75 -338 -75zM821 131
q145 0 273 64q130 62 217 165q88 98 143 236q51 131 51 272q3 137 -57 250.5t-174 179.5t-258 64q-168 1 -316 -86t-241 -229q-129 -189 -129 -420q-5 -212 134 -355.5t357 -140.5z" />
    <glyph glyph-name="uni041F" unicode="&#x41f;" horiz-adv-x="1564" 
d="M1221 0h-156l360 1350h-827l-360 -1350h-156l399 1493h1139z" />
    <glyph glyph-name="uni0420" unicode="&#x420;" horiz-adv-x="1320" 
d="M1395 1102q0 -243 -189 -379q-186 -137 -501 -137h-310l-157 -586h-156l399 1493h414q267 0 397 -127q103 -97 103 -264zM1235 1094q0 127 -94 190q-94 64 -250 64h-293l-166 -621h283q246 0 383 96t137 271z" />
    <glyph glyph-name="uni0421" unicode="&#x421;" horiz-adv-x="1607" 
d="M1647 1026l-152 -45q-6 66 -52.5 145t-123.5 142q-56 43 -137.5 68.5t-173.5 25.5q-140 0 -267 -59q-132 -63 -215 -162q-88 -102 -141 -234q-51 -128 -51 -270q0 -222 135 -363t358 -141q95 0 183 26.5t151 69.5q59 39 111 97q78 85 127 188l145 -57q-56 -134 -172 -250
q-58 -58 -143 -113q-182 -108 -422 -108q-132 0 -250.5 48.5t-204.5 135.5t-134 209t-48 258q-3 199 91 384.5t253 309.5q103 84 236.5 130t275.5 46q113 0 212 -29t167 -81q72 -53 121 -113q90 -111 121 -258z" />
    <glyph glyph-name="uni0422" unicode="&#x422;" horiz-adv-x="1230" 
d="M920 1348l-359 -1348h-158l359 1348h-498l39 145l1155 2l-39 -147h-499z" />
    <glyph glyph-name="uni0423" unicode="&#x423;" horiz-adv-x="1357" 
d="M1427 1493h185l-916 -1208q-124 -164 -235 -232q-113 -67 -234 -67q-116 0 -217 34l39 144q96 -35 187 -35q85 0 168.5 57.5t173.5 180.5l24 30l-336 1096h170l283 -944z" />
    <glyph glyph-name="uni0424" unicode="&#x424;" horiz-adv-x="1849" 
d="M1290 1540l-41 -149q207 -4 349 -97t198 -243q38 -98 39 -210t-35 -216q-73 -218 -272 -355q-208 -145 -512 -145h-103l-45 -172h-157l45 172q-140 3 -253 48t-184 121t-109 174.5t-38 211.5q0 139 57 268t160 228q98 95 258 155q152 60 342 60h103l38 149h160z
M1053 1247h-80q-146 0 -267 -42t-204 -118q-168 -158 -168 -395q0 -187 121 -305q123 -117 340 -117zM952 270h84q146 0 267 42t202 118q168 154 168 395q0 188 -123 305q-120 114 -340 117z" />
    <glyph glyph-name="uni0425" unicode="&#x425;" horiz-adv-x="1357" 
d="M844 754l381 -754h-174l-320 649l-620 -649h-211l759 778l-364 715h172l307 -612l596 612h207z" />
    <glyph glyph-name="uni0426" unicode="&#x426;" horiz-adv-x="1624" 
d="M82 0l399 1493h156l-361 -1350h842l361 1350h151l-356 -1350h168l-123 -456h-148l84 313h-1173z" />
    <glyph glyph-name="uni0427" unicode="&#x427;" horiz-adv-x="1402" 
d="M907 0l168 637q-104 -52 -241 -96q-124 -39 -230 -39q-179 0 -285 78t-106 233q0 61 18 129l148 551h156l-148 -549q-12 -46 -12 -92q0 -99 69 -153t197 -54q196 0 475 141l187 707h153l-393 -1493h-156z" />
    <glyph glyph-name="uni0428" unicode="&#x428;" horiz-adv-x="2295" 
d="M1954 0h-1872l399 1493h156l-361 -1350h701l360 1350h156l-360 -1350h702l365 1350h151z" />
    <glyph glyph-name="uni0429" unicode="&#x429;" horiz-adv-x="2344" 
d="M2355 1493l-362 -1350h168l-123 -456h-146l84 313h-1894l399 1493h156l-361 -1350h703l360 1350h154l-360 -1350h702l365 1350h155z" />
    <glyph glyph-name="uni042A" unicode="&#x42a;" horiz-adv-x="1527" 
d="M950 768h-340l-166 -625h312q255 0 401 95q143 96 143 274q0 120 -92 188q-95 68 -258 68zM285 1493h518l-156 -584h314q233 0 364 -104q135 -105 135 -281q0 -247 -190 -385q-192 -139 -518 -139h-502l358 1350h-362z" />
    <glyph glyph-name="uni042B" unicode="&#x42b;" horiz-adv-x="1894" 
d="M481 909h310q232 0 366 -104q131 -104 131 -281q0 -247 -190 -385q-192 -139 -518 -139h-498l399 1493h154zM1550 0l400 1493h-158l-397 -1493h155zM444 768l-168 -625h308q255 0 401 95q141 94 141 274q0 120 -92 188t-256 68h-334z" />
    <glyph glyph-name="uni042C" unicode="&#x42c;" horiz-adv-x="1357" 
d="M481 1493h154l-154 -584h310q232 0 366 -104q131 -104 131 -281q0 -247 -190 -385q-192 -139 -518 -139h-498zM778 768h-334l-168 -625h308q255 0 401 95q141 94 141 274q0 120 -92 188t-256 68z" />
    <glyph glyph-name="uni042D" unicode="&#x42d;" horiz-adv-x="1624" 
d="M946 1507q189 0 336 -84q148 -86 229 -231q80 -145 80 -322q0 -175 -65 -340q-62 -160 -178 -282q-113 -119 -275 -191q-160 -71 -338 -71q-160 0 -289 63q-134 61 -223 176q-87 115 -102 260l149 47q34 -187 158 -296q123 -105 315 -105q124 0 238.5 44t200.5 122
q170 157 227 389h-733l39 145h710v15q0 232 -131 375q-129 141 -354 141q-191 0 -356 -107q-171 -109 -240 -278l-141 55q55 139 174 252q116 110 264 166q143 57 305 57z" />
    <glyph glyph-name="uni042E" unicode="&#x42e;" horiz-adv-x="2150" 
d="M420 678l-182 -678h-156l399 1493h156l-178 -670h270q35 145 111.5 271.5t181.5 218.5q104 92 234.5 143t265.5 51q176 0 315 -80q138 -82 211 -223q72 -144 72 -315q0 -180 -66 -350q-69 -173 -176 -289q-116 -125 -260 -193q-154 -71 -315 -71q-184 0 -320 86
q-138 82 -207 227q-69 147 -69 328q0 13 1 29.5t1 21.5h-289zM1311 129q173 0 323 102q150 104 238 275q86 177 86 375q0 215 -121 348q-120 135 -328 135q-130 0 -249 -61q-117 -57 -205 -162q-84 -100 -137 -240q-52 -137 -52 -289q0 -213 123 -348t322 -135z" />
    <glyph glyph-name="uni042F" unicode="&#x42f;" horiz-adv-x="1370" 
d="M1065 727l164 623h-273q-256 0 -397 -99q-139 -95 -139 -268q0 -120 92 -188t254 -68h299zM735 590l-575 -590h-201l610 614q-152 38 -229.5 132.5t-77.5 238.5q0 237 189 373q191 135 507 135h467l-399 -1493h-156l156 590h-291z" />
    <glyph glyph-name="uni0430" unicode="&#x430;" horiz-adv-x="1284" 
d="M1044 788l60 230h145l-217 -832q-19 -73 -26 -151v-35h-150q0 2 -1 11.5t-1 11.5q0 43 31 155q-182 -194 -387 -194q-175 0 -287 118q-115 118 -115 310q0 129 47 250q50 118 127 198q79 83 183 129.5t213 46.5q270 0 378 -248zM993 592q0 131 -88 225q-88 88 -227 88
q-115 3 -214.5 -64.5t-156 -180t-53.5 -236.5q0 -141 78 -225q81 -84 209 -84q113 0 217 67q104 64 170 178q65 107 65 232z" />
    <glyph glyph-name="uni0431" unicode="&#x431;" horiz-adv-x="1282" 
d="M322 797h4q75 91 184 151q109 62 240 62q196 0 321 -119q125 -125 125 -316q0 -111 -51 -225q-46 -103 -131 -188q-78 -78 -189 -129q-107 -49 -219 -49q-223 0 -343 129t-120 374q0 171 50 342q71 263 250 416.5t485 210.5l350 66l16 -125l-358 -72q-187 -36 -318 -111
q-69 -39 -133 -100q-123 -120 -163 -317zM295 434q0 -144 84 -231q84 -90 229 -90q103 0 207 63q97 63 162 172q61 107 61 225q0 142 -86 228q-83 86 -231 86q-113 0 -211 -64q-99 -60 -158 -168q-57 -102 -57 -221z" />
    <glyph glyph-name="uni0432" unicode="&#x432;" horiz-adv-x="1167" 
d="M1087 780q0 -105 -71 -170q-71 -68 -189 -92q84 -21 135.5 -78.5t51.5 -138.5q0 -131 -115 -217q-116 -84 -315 -84h-541l268 1018h457q151 0 235 -64t84 -174zM932 762q0 131 -195 131h-311l-84 -318h305q127 0 207 52q78 50 78 135zM862 309q0 71 -61 111
q-59 39 -162 39h-324l-90 -336h355q131 0 206.5 49.5t75.5 136.5z" />
    <glyph glyph-name="uni0433" unicode="&#x433;" horiz-adv-x="888" 
d="M311 1018h678l-33 -129h-532l-234 -889h-147z" />
    <glyph glyph-name="uni0434" unicode="&#x434;" horiz-adv-x="1269" 
d="M367 743l102 275h721l-236 -891h125l-116 -442h-144l82 315h-833l-82 -315h-146l117 440q67 9 117 39q43 28 92 108q29 50 61 121q42 92 60 144q30 71 80 206zM184 127h625l199 764h-441l-133 -356q-75 -189 -117 -259q-54 -91 -133 -149z" />
    <glyph glyph-name="uni0435" unicode="&#x435;" horiz-adv-x="1165" 
d="M1065 463h-819v-27q0 -149 86 -235q88 -88 225 -88t234 73q78 57 122 136l121 -68q-61 -117 -190 -193q-128 -79 -291 -79q-198 0 -328 127q-127 130 -127 331q0 117 45 222q50 116 121 190q75 85 178 133q102 51 220 51q200 0 311 -114q110 -116 110 -318
q0 -80 -18 -141zM264 590h672v31q0 131 -74 208q-73 76 -207 76q-129 0 -245 -94q-119 -93 -146 -221z" />
    <glyph glyph-name="uni0436" unicode="&#x436;" horiz-adv-x="1546" 
d="M702 549h13l125 469h147l-125 -469h17l567 469h207l-633 -512l375 -506h-183l-352 494h-10l-131 -494h-148l129 494h-10l-588 -494h-208l655 543l-375 475h176z" />
    <glyph glyph-name="uni0437" unicode="&#x437;" horiz-adv-x="991" 
d="M410 -18q-89 0 -163.5 28t-119.5 76q-93 99 -90 233l141 19q-2 -38 8 -75.5t34.5 -73t74.5 -58t119 -22.5q159 0 237 98q43 52 43 125q0 77 -63 119q-62 41 -146 41q-70 0 -120 -13l-43 111l456 301h-598l33 127h780l-37 -137l-426 -279q136 -6 224 -76q88 -73 88 -188
q0 -90 -38 -160.5t-101 -112t-137.5 -62.5t-155.5 -21z" />
    <glyph glyph-name="uni0438" unicode="&#x438;" horiz-adv-x="1230" 
d="M1051 1018h149l-268 -1018h-148l213 801h-2l-802 -801h-150l266 1018h148l-213 -803z" />
    <glyph glyph-name="uni0439" unicode="&#x439;" horiz-adv-x="1230" 
d="M1036 1264q-102 -76 -221 -76q-123 0 -199 76q-73 73 -79 192l100 23q11 -88 53.5 -131t126.5 -43q89 0 158.5 46t101.5 128l97 -23q-37 -117 -138 -192zM457 1018l-213 -803l807 803h149l-268 -1018h-148l213 801h-2l-802 -801h-150l266 1018h148z" />
    <glyph glyph-name="uni043A" unicode="&#x43a;" horiz-adv-x="1052" 
d="M328 477h-11l-127 -477h-147l268 1018h148l-121 -453h12l598 453h219l-690 -514l453 -504h-197z" />
    <glyph glyph-name="uni043B" unicode="&#x43b;" horiz-adv-x="1210" 
d="M326 651l133 367h721l-269 -1018h-147l233 891h-436l-135 -365q-14 -36 -33.5 -87t-25.5 -66q-29 -68 -70 -140q-44 -83 -88 -127q-35 -37 -109 -77q-63 -35 -145 -35q-5 0 -37 4l35 129q55 0 115 35q31 17 79 84q24 35 33 55q7 15 16.5 33.5t10.5 19.5q2 6 22 56
q41 92 97 241z" />
    <glyph glyph-name="uni043C" unicode="&#x43c;" horiz-adv-x="1536" 
d="M1087 0l226 850h-2l-617 -850h-96l-174 874h-4l-232 -874h-145l268 1018h211l164 -823l596 823h223l-268 -1018h-150z" />
    <glyph glyph-name="uni043D" unicode="&#x43d;" horiz-adv-x="1220" 
d="M774 0l121 465h-582l-123 -465h-147l268 1018h150l-113 -424h582l112 424h148l-268 -1018h-148z" />
    <glyph glyph-name="uni043E" unicode="&#x43e;" horiz-adv-x="1236" 
d="M555 -16q-205 0 -332 127t-127 325q0 156 82 293q79 138 217 223q141 84 295 84q206 0 334 -125q127 -130 127 -325q0 -160 -82 -297q-81 -139 -219 -223q-137 -82 -295 -82zM565 115q107 0 213 65q104 71 160 174q61 107 61 226q0 154 -88 239q-89 86 -231 86
q-112 0 -215 -65q-103 -71 -160 -176q-59 -109 -59 -224q0 -155 88 -237q85 -88 231 -88z" />
    <glyph glyph-name="uni043F" unicode="&#x43f;" horiz-adv-x="1193" 
d="M981 889h-557l-234 -889h-147l268 1018h852l-268 -1018h-147z" />
    <glyph glyph-name="uni0440" unicode="&#x440;" horiz-adv-x="1282" 
d="M629 -16q-147 0 -238 67q-92 66 -141 176l-193 -729h-147l399 1520h146l-47 -178q95 100 185.5 148t201.5 48q176 0 288 -118q113 -119 113 -310q0 -129 -47 -250q-49 -116 -125 -198q-80 -83 -183.5 -129.5t-211.5 -46.5zM614 115q115 -2 214.5 65t156.5 179t55 237
q0 140 -79 225q-81 84 -209 84q-109 0 -215 -65q-106 -68 -170 -178q-68 -115 -68 -232q0 -132 90 -225q84 -90 225 -90z" />
    <glyph glyph-name="uni0441" unicode="&#x441;" horiz-adv-x="1179" 
d="M246 438q0 -146 90 -233q87 -90 239 -90q66 0 130.5 23t109.5 61q89 74 125 151l129 -57q-60 -121 -186 -209q-138 -100 -318 -100q-205 0 -336 125q-133 124 -133 327q0 156 82 293q82 142 217 223q141 84 295 84q99 0 182.5 -31t135.5 -83q100 -100 122 -217l-137 -48
q-16 97 -84 168q-80 80 -227 80q-114 0 -217 -65q-103 -71 -160 -176q-59 -109 -59 -226z" />
    <glyph glyph-name="uni0442" unicode="&#x442;" horiz-adv-x="935" 
d="M1044 1018l-34 -129h-359l-237 -889h-150l238 889h-363l35 129h870z" />
    <glyph glyph-name="uni0443" unicode="&#x443;" horiz-adv-x="1138" 
d="M176 -502h-166l361 510l-193 1010h154l153 -854l586 854h170z" />
    <glyph glyph-name="uni0444" unicode="&#x444;" horiz-adv-x="1691" 
d="M885 922l149 571h150l-150 -563q83 58 137 80q56 26 134 26q140 0 225 -94q82 -98 82 -268q0 -93 -21.5 -188.5t-66.5 -186t-108 -160.5t-153 -112.5t-194 -42.5q-155 0 -254 106l-147 -555h-148l146 551q-77 -54 -138.5 -78t-130.5 -24q-145 0 -227 91.5t-82 262.5
q-3 140 49.5 288t147.5 253q65 73 155.5 115t192.5 42q141 0 252 -114zM700 221l154 584q-34 46 -90.5 72t-122.5 26q-93 0 -173 -50t-128 -134q-100 -173 -100 -371q0 -109 53.5 -171t155.5 -62q127 0 251 106zM1001 805l-155 -592q34 -45 90.5 -70.5t122.5 -25.5
q94 0 173 48t128 130q98 165 98 369q0 111 -53 176t-154 65q-126 0 -250 -100z" />
    <glyph glyph-name="uni0445" unicode="&#x445;" horiz-adv-x="1048" 
d="M616 512l271 -512h-164l-209 412l-416 -412h-192l545 526l-261 492h166l201 -391l385 391h195z" />
    <glyph glyph-name="uni0446" unicode="&#x446;" horiz-adv-x="1243" 
d="M1163 1018l-233 -891h125l-117 -442h-143l82 315h-834l266 1018h150l-234 -891h557l234 891h147z" />
    <glyph glyph-name="uni0447" unicode="&#x447;" horiz-adv-x="1075" 
d="M379 1018l-94 -363q-13 -50 -13 -65q0 -60 43 -94.5t121 -34.5q73 0 172 26q95 28 166 70l123 461h147l-268 -1018h-147l110 422q-76 -34 -174 -64q-91 -26 -178 -26q-125 0 -196.5 60.5t-71.5 166.5q0 39 14 96l94 363h152z" />
    <glyph glyph-name="uni0448" unicode="&#x448;" horiz-adv-x="1746" 
d="M852 127h481l236 891h145l-266 -1018h-1405l268 1018h150l-236 -891h480l235 891h145z" />
    <glyph glyph-name="uni0449" unicode="&#x449;" horiz-adv-x="1794" 
d="M1714 1018l-233 -887h125l-119 -446h-144l84 315h-1384l266 1018h152l-238 -891h482l235 891h145l-233 -891h479l236 891h147z" />
    <glyph glyph-name="uni044A" unicode="&#x44a;" horiz-adv-x="1277" 
d="M614 1018l-102 -381h313q163 0 258 -74q95 -79 95 -194q0 -173 -134 -273q-137 -96 -364 -96h-483l233 889h-295l33 129h446zM481 516l-102 -389h293q168 0 261 59.5t93 173.5q0 75 -61 115q-65 41 -156 41h-328z" />
    <glyph glyph-name="uni044B" unicode="&#x44b;" horiz-adv-x="1595" 
d="M43 0l268 1018h148l-103 -381h314q163 0 258 -74q94 -76 94 -194q0 -173 -133 -273q-137 -96 -365 -96h-481zM1415 1018l-268 -1018h149l269 1018h-150zM653 516h-327l-101 -389h293q167 0 259.5 59.5t92.5 173.5q0 75 -61 115q-62 41 -156 41z" />
    <glyph glyph-name="uni044C" unicode="&#x44c;" horiz-adv-x="1124" 
d="M459 1018l-103 -381h314q163 0 258 -74q94 -76 94 -194q0 -173 -133 -273q-137 -96 -365 -96h-481l268 1018h148zM326 516l-101 -389h293q167 0 259.5 59.5t92.5 173.5q0 75 -61 115q-62 41 -156 41h-327z" />
    <glyph glyph-name="uni044D" unicode="&#x44d;" horiz-adv-x="1175" 
d="M510 -18q-214 0 -352 149q-75 78 -95 180l138 43q21 -112 114 -178q94 -63 203 -63q135 -2 257 102t151 246h-488l33 129h469q-3 150 -92 233q-87 84 -232 84q-112 0 -215 -65q-96 -63 -151 -166l-131 45q55 110 176 205q64 52 151 81t181 29q203 0 334 -125
q124 -124 124 -325q0 -134 -47 -242q-48 -113 -127 -192q-81 -79 -186.5 -124.5t-214.5 -45.5z" />
    <glyph glyph-name="uni044E" unicode="&#x44e;" horiz-adv-x="1622" 
d="M307 446l-117 -446h-147l268 1018h148l-117 -443h207q34 132 112.5 235t194.5 163q114 63 250 63q198 0 315 -123q115 -121 115 -311q0 -163 -74 -305q-76 -142 -207 -227q-133 -86 -294 -86q-136 0 -235 60.5t-146 166.5q-48 99 -48 235h-225zM971 113q117 0 211 67
q93 67 149 178q53 106 53 238q0 144 -75 225q-81 84 -215 84q-112 0 -213 -69q-94 -67 -150 -179q-53 -112 -53 -235q0 -143 78 -227q76 -82 215 -82z" />
    <glyph glyph-name="uni044F" unicode="&#x44f;" horiz-adv-x="1110" 
d="M645 1018h436l-272 -1018h-147l98 375h-254l-354 -375h-189l391 406q-96 25 -147 87.5t-51 159.5q0 169 133 269q134 96 356 96zM520 496h275l104 393h-248q-169 0 -260.5 -61.5t-91.5 -174.5q0 -77 57 -117t164 -40z" />
    <glyph glyph-name="uni0451" unicode="&#x451;" horiz-adv-x="1165" 
d="M545 1188q-44 0 -73.5 29t-29.5 73q0 54 39 90q34 37 88 37q44 0 73.5 -29t29.5 -73q0 -54 -37 -88q-36 -39 -90 -39zM911 1188q-44 0 -73 29t-29 73q0 53 37 90t88 37q44 0 74 -29t30 -73q0 -54 -37 -88q-36 -39 -90 -39zM246 463v-27q0 -149 86 -235q88 -88 225 -88
t234 73q78 57 122 136l121 -68q-61 -117 -190 -193q-128 -79 -291 -79q-198 0 -328 127q-127 130 -127 331q0 117 45 222q50 116 121 190q75 85 178 133q102 51 220 51q200 0 311 -114q110 -116 110 -318q0 -80 -18 -141h-819zM264 590h672v31q0 131 -74 208q-73 76 -207 76
q-129 0 -245 -94q-119 -93 -146 -221z" />
    <glyph glyph-name="uni0452" unicode="&#x452;" horiz-adv-x="1171" 
d="M545 1341h370l-34 -133h-371l-94 -356q83 95 165 139.5t187 44.5q146 0 236 -84q88 -85 88 -229q3 -53 -25 -158q-76 -295 -86 -336q-21 -80 -41 -154t-30.5 -112.5t-12.5 -46.5q-30 -100 -66 -184q-36 -77 -83 -129q-96 -105 -302 -105q-123 0 -194 39l57 125
q57 -31 137 -31q229 0 302 281l172 649q16 57 16 129q0 99 -61.5 156t-167.5 57q-120 0 -224 -94q-100 -87 -143 -236l-150 -573h-149l319 1208h-127l35 133h127l56 211h149z" />
    <glyph glyph-name="uni0453" unicode="&#x453;" horiz-adv-x="888" 
d="M715 1192h-156l277 328h192zM311 1018h678l-33 -129h-532l-234 -889h-147z" />
    <glyph glyph-name="uni0454" unicode="&#x454;" horiz-adv-x="1177" 
d="M1128 707l-135 -50q-16 99 -84 170q-80 80 -227 80q-134 0 -252 -92q-113 -90 -160 -225h484l-35 -129h-473q0 -2 -1 -11.5t-1 -11.5q0 -148 90 -235q90 -90 241 -90q66 0 130.5 23t109.5 61q87 72 127 151l127 -55q-66 -123 -186 -209q-138 -100 -318 -100
q-205 0 -336 125q-133 124 -133 327q0 156 82 293q82 142 217 223q141 84 295 84q233 -3 354 -155q68 -82 84 -174z" />
    <glyph glyph-name="uni0455" unicode="&#x455;" horiz-adv-x="925" 
d="M887 750l-137 -35q-12 90 -76 147q-55 45 -152 45q-82 0 -137 -43q-57 -45 -57 -123q0 -82 100 -125l135 -59q88 -36 154 -111q61 -73 61 -163q0 -128 -98 -213q-98 -88 -262 -88q-94 0 -170.5 32t-120.5 86q-86 103 -86 222l137 32q0 -98 66 -170q62 -71 180 -71
q92 0 149 45q56 44 56 118q0 99 -127 154l-125 55q-199 87 -199 244q0 127 101 217t253 90q206 -3 297 -139q48 -69 58 -147z" />
    <glyph glyph-name="uni0456" unicode="&#x456;" horiz-adv-x="491" 
d="M492 1495q44 0 72 -28t28 -72q0 -50 -35 -88q-37 -37 -88 -37q-44 0 -72 28t-28 72q0 51 37 88q34 37 86 37zM43 0l266 1018h150l-266 -1018h-150z" />
    <glyph glyph-name="uni0457" unicode="&#x457;" horiz-adv-x="491" 
d="M256 1188q-44 0 -73 29t-29 73q0 57 36 90q37 37 89 37q44 0 73 -29t29 -73q0 -53 -35 -88q-39 -39 -90 -39zM623 1188q-44 0 -73.5 29t-29.5 73q0 52 35 90q37 37 90 37q44 0 73.5 -29t29.5 -73q0 -56 -37 -88q-36 -39 -88 -39zM43 0l268 1018h150l-268 -1018h-150z" />
    <glyph glyph-name="uni0458" unicode="&#x458;" horiz-adv-x="503" 
d="M606 1395q0 -50 -35 -88q-37 -37 -88 -37q-43 0 -71.5 28t-28.5 72q0 51 37 88q34 37 86 37q43 0 71.5 -28t28.5 -72zM473 1018l-336 -1278q-67 -248 -327 -248q-78 0 -117 23l33 120q37 -12 79 -12q72 0 123.5 40.5t71.5 115.5l326 1239h147z" />
    <glyph glyph-name="uni0459" unicode="&#x459;" horiz-adv-x="1843" 
d="M764 0l233 889h-438l-133 -363q-6 -16 -16 -42t-13 -35q-5 -11 -15 -38.5t-15 -39.5q-14 -36 -35 -74q-40 -91 -76 -135q-69 -84 -98 -103q-34 -23 -60 -34q-55 -31 -143 -31q-5 0 -37 4l35 129q77 0 143 55q20 18 51 64q11 18 39 69q20 40 37 80q1 2 2.5 5.5t2.5 6
t1 3.5q31 66 97 241l133 367h721l-101 -381h312q161 0 258 -72q94 -76 94 -196q0 -173 -133 -273q-137 -96 -365 -96h-481zM944 127h295q164 0 257 59t93 170q0 77 -58 118.5t-157 41.5h-327z" />
    <glyph glyph-name="uni045A" unicode="&#x45a;" horiz-adv-x="1849" 
d="M901 492h-584l-129 -492h-145l266 1018h148l-107 -404h582l108 404h146l-107 -404h318q163 0 258 -71q94 -69 94 -195q0 -162 -135 -256q-136 -92 -363 -92h-481zM1049 492l-99 -365h293q166 0 259 56.5t93 156.5q0 78 -61 115q-64 37 -156 37h-329z" />
    <glyph glyph-name="uni045B" unicode="&#x45b;" horiz-adv-x="1204" 
d="M881 1208h-371l-94 -356q80 94 163.5 139t186.5 45q148 0 238 -84q88 -88 88 -229q0 -52 -25 -158l-149 -565h-148l152 575q14 55 14 115q0 99 -61.5 156t-167.5 57q-120 0 -224 -94q-104 -91 -143 -236l-152 -573h-147l319 1208h-127l35 133h127l56 211h149l-57 -211
h372z" />
    <glyph glyph-name="uni045C" unicode="&#x45c;" horiz-adv-x="1052" 
d="M791 1192h-156l276 328h193zM930 0h-197l-405 477h-11l-127 -477h-147l268 1018h148l-121 -453h12l598 453h219l-690 -514z" />
    <glyph glyph-name="uni045E" unicode="&#x45e;" horiz-adv-x="1138" 
d="M973 1264q-102 -76 -221 -76q-120 0 -199 76q-74 74 -80 192l100 23q11 -88 54 -131t127 -43q89 0 158.5 46t101.5 128l96 -23q-38 -117 -137 -192zM1071 1018h170l-1065 -1520h-166l361 510l-193 1010h154l153 -854z" />
    <glyph glyph-name="uni045F" unicode="&#x45f;" horiz-adv-x="1196" 
d="M1163 1018l-266 -1018h-354l-84 -315h-144l84 315h-356l266 1018h150l-234 -887h559l232 887h147z" />
    <glyph glyph-name="uni0490" unicode="&#x490;" horiz-adv-x="1114" 
d="M596 1350l-356 -1350h-158l397 1493h703l78 287h147l-115 -430h-696z" />
    <glyph glyph-name="uni0491" unicode="&#x491;" horiz-adv-x="888" 
d="M956 889h-532l-234 -889h-147l268 1018h535l74 274h143z" />
    <glyph glyph-name="uni0496" unicode="&#x496;" horiz-adv-x="1939" 
d="M1696 -313h-148l84 313h-45l-483 725h-12l-193 -725h-158l195 725h-10l-836 -725h-219l915 786l-495 707h186l467 -700h10l187 700h155l-186 -700h10l809 700h217l-880 -745l411 -605h142z" />
    <glyph glyph-name="uni0497" unicode="&#x497;" horiz-adv-x="1579" 
d="M1317 -315h-143l83 315h-45l-352 494h-10l-131 -494h-148l129 494h-10l-588 -494h-208l655 543l-375 475h176l352 -469h13l125 469h147l-125 -469h17l567 469h207l-633 -512l280 -379h134z" />
    <glyph glyph-name="uni0498" unicode="&#x498;" horiz-adv-x="1232" 
d="M524 -313h-147l80 303q-87 7 -161 41t-120 84q-43 46 -74 106q-54 105 -47 209l150 29q-3 -46 5.5 -90.5t32.5 -88.5t61.5 -77t98 -53.5t136.5 -20.5q111 0 202.5 43t149.5 125q59 86 59 195q0 110 -94 182q-94 67 -217 67q-83 0 -135 -18l-64 123l639 506h-772l39 141
h989l-41 -150l-594 -469q158 -3 269 -88q145 -112 145 -288q0 -140 -70 -258q-69 -112 -184 -174q-110 -64 -256 -76z" />
    <glyph glyph-name="uni0499" unicode="&#x499;" horiz-adv-x="991" 
d="M403 -315h-143l80 303q-146 18 -227 114q-79 94 -76 217l141 19q-2 -38 8 -75.5t34.5 -73t74.5 -58t119 -22.5q159 0 237 98q43 52 43 125q0 77 -63 119q-62 41 -146 41q-70 0 -120 -13l-43 111l456 301h-598l33 127h780l-37 -137l-426 -279q136 -6 224 -76
q88 -73 88 -188q0 -79 -30 -143.5t-81 -106.5t-114 -67t-134 -33z" />
    <glyph glyph-name="uni049A" unicode="&#x49a;" horiz-adv-x="1331" 
d="M1094 -313h-150l84 313h-51l-535 723h-10l-194 -723h-156l399 1493h156l-174 -655h10l830 655h231l-930 -735l459 -615h151z" />
    <glyph glyph-name="uni049B" unicode="&#x49b;" horiz-adv-x="1089" 
d="M850 -315h-143l84 315h-58l-405 477h-11l-127 -477h-147l268 1018h148l-121 -453h12l598 453h219l-690 -514l338 -377h152z" />
    <glyph glyph-name="uni04A2" unicode="&#x4a2;" horiz-adv-x="1628" 
d="M1323 -313h-147l84 313h-179l183 684h-844l-182 -684h-156l399 1493h156l-176 -662h842l178 662h157l-360 -1350h166z" />
    <glyph glyph-name="uni04A3" unicode="&#x4a3;" horiz-adv-x="1269" 
d="M963 -315h-144l84 315h-129l121 465h-582l-123 -465h-147l268 1018h150l-113 -424h582l112 424h148l-236 -891h125z" />
    <glyph glyph-name="uni04AA" unicode="&#x4aa;" horiz-adv-x="1607" 
d="M795 -313h-148l80 303q-242 27 -399 207q-158 180 -158 440q-3 199 91 384.5t253 309.5q103 84 236.5 130t275.5 46q113 0 212 -29t167 -81q72 -53 121 -113q90 -111 121 -258l-152 -45q-6 66 -52.5 145t-123.5 142q-56 43 -137.5 68.5t-173.5 25.5q-140 0 -267 -59
q-132 -63 -215 -162q-88 -102 -141 -234q-51 -128 -51 -270q0 -222 135 -363t358 -141q95 0 183 26.5t151 69.5q59 39 111 97q78 85 127 188l145 -57q-55 -131 -158 -236q-63 -63 -131 -108q-160 -110 -381 -125z" />
    <glyph glyph-name="uni04AB" unicode="&#x4ab;" horiz-adv-x="1179" 
d="M559 -315h-143l78 303q-177 21 -287 143q-111 120 -111 305q0 156 82 293q82 142 217 223q141 84 295 84q99 0 182.5 -31t135.5 -83q100 -100 122 -217l-137 -48q-16 97 -84 168q-80 80 -227 80q-114 0 -217 -65q-103 -71 -160 -176q-59 -109 -59 -226q0 -146 90 -233
q87 -90 239 -90q66 0 130.5 23t109.5 61q89 74 125 151l129 -57q-56 -111 -170 -197q-116 -90 -262 -108z" />
    <glyph glyph-name="uni04AC" unicode="&#x4ac;" horiz-adv-x="1236" 
d="M645 -313h-149l84 313h-177l359 1348h-498l39 145l1155 2l-39 -147h-499l-322 -1205h168z" />
    <glyph glyph-name="uni04AD" unicode="&#x4ad;" horiz-adv-x="942" 
d="M455 -315h-144l84 315h-131l238 889h-363l35 129h870l-34 -129h-359l-202 -762h122z" />
    <glyph glyph-name="uni04B2" unicode="&#x4b2;" horiz-adv-x="1394" 
d="M1147 -313h-150l84 313h-30l-320 649l-620 -649h-211l759 778l-364 715h172l307 -612l596 612h207l-733 -739l307 -611h117z" />
    <glyph glyph-name="uni04B3" unicode="&#x4b3;" horiz-adv-x="1079" 
d="M809 -315h-143l82 315h-25l-209 412l-416 -412h-192l545 526l-261 492h166l201 -391l385 391h195l-521 -506l203 -385h107z" />
    <glyph glyph-name="uni04B6" unicode="&#x4b6;" horiz-adv-x="1452" 
d="M1083 0h-176l168 637q-104 -52 -241 -96q-124 -39 -230 -39q-179 0 -285 78t-106 233q0 61 18 129l148 551h156l-148 -549q-12 -46 -12 -92q0 -99 69 -153t197 -54q196 0 475 141l187 707h153l-354 -1350h168l-123 -456h-148z" />
    <glyph glyph-name="uni04B7" unicode="&#x4b7;" horiz-adv-x="1124" 
d="M819 -315h-143l82 315h-129l110 422q-76 -34 -174 -64q-91 -26 -178 -26q-125 0 -196.5 60.5t-71.5 166.5q0 39 14 96l94 363h152l-94 -363q-13 -50 -13 -65q0 -60 43 -94.5t121 -34.5q73 0 172 26q95 28 166 70l123 461h147l-235 -891h125z" />
    <glyph glyph-name="uni04C0" unicode="&#x4c0;" horiz-adv-x="581" 
d="M82 0l399 1493h156l-399 -1493h-156z" />
    <glyph glyph-name="uni04C1" unicode="&#x4c1;" horiz-adv-x="1900" 
d="M1468 1706q-102 -76 -223 -76q-120 0 -196 76q-76 73 -82 192l100 23q12 -89 54.5 -131.5t127.5 -42.5q89 0 157.5 46t102.5 128l97 -23q-40 -117 -138 -192zM1141 1493h155l-186 -700h10l809 700h217l-880 -745l508 -748h-187l-483 725h-12l-193 -725h-158l195 725h-10
l-836 -725h-219l915 786l-495 707h186l467 -700h10z" />
    <glyph glyph-name="uni04C2" unicode="&#x4c2;" horiz-adv-x="1546" 
d="M1169 1264q-102 -76 -223 -76q-120 0 -196 76q-76 73 -82 192l100 23q12 -89 54.5 -131.5t127.5 -42.5q89 0 158.5 46t101.5 128l97 -23q-40 -117 -138 -192zM840 1018h147l-125 -469h17l567 469h207l-633 -512l375 -506h-183l-352 494h-10l-131 -494h-148l129 494h-10
l-588 -494h-208l655 543l-375 475h176l352 -469h13z" />
    <glyph glyph-name="uni04CF" unicode="&#x4cf;" horiz-adv-x="491" 
d="M43 0l268 1018h150l-268 -1018h-150z" />
    <glyph glyph-name="uni04D0" unicode="&#x4d0;" horiz-adv-x="1490" 
d="M1296 1706q-102 -76 -221 -76q-122 0 -198 76q-77 77 -80 192l100 23q11 -88 53.5 -131t126.5 -43q89 0 158.5 46t101.5 128l97 -23q-36 -113 -138 -192zM1194 0l-57 383h-813l-271 -383h-174l1061 1493h180l232 -1493h-158zM995 1333l-573 -809h694z" />
    <glyph glyph-name="uni04D1" unicode="&#x4d1;" horiz-adv-x="1284" 
d="M1028 1264q-102 -76 -223 -76t-197 76q-76 73 -82 192l101 23q12 -89 54.5 -131.5t127.5 -42.5q89 0 157.5 46t102.5 128l96 -23q-41 -118 -137 -192zM1249 1018l-217 -832q-19 -73 -26 -151v-35h-150q-2 4 -2 23q0 43 31 155q-182 -194 -387 -194q-175 0 -287 118
q-115 118 -115 310q0 129 47 250q50 118 127 198q79 83 183 129.5t213 46.5q270 0 378 -248l60 230h145zM993 592q0 131 -88 225q-88 88 -227 88q-117 0 -217 -65q-100 -68 -154 -176q-53 -112 -53 -240q0 -141 78 -225q81 -84 209 -84q110 0 217 67q104 64 170 178
q65 107 65 232z" />
    <glyph glyph-name="uni04D2" unicode="&#x4d2;" horiz-adv-x="1490" 
d="M883 1636q-44 0 -73.5 28.5t-29.5 72.5q0 53 37 90q34 37 88 37q45 0 75 -29t30 -74q0 -51 -37 -88q-40 -37 -90 -37zM1262 1636q-44 0 -73.5 28.5t-29.5 72.5q0 53 37 90q34 37 88 37q45 0 75 -29t30 -74q0 -51 -37 -88t-90 -37zM1194 0l-57 383h-813l-271 -383h-174
l1061 1493h180l232 -1493h-158zM995 1333l-573 -809h694z" />
    <glyph glyph-name="uni04D3" unicode="&#x4d3;" horiz-adv-x="1284" 
d="M612 1188q-44 0 -73 29t-29 73q0 53 37 90t88 37q46 0 75 -29t29 -73q0 -54 -37 -88q-39 -39 -90 -39zM979 1188q-44 0 -73 29t-29 73q0 54 36 90q37 37 88 37q45 0 75 -29t30 -73q0 -54 -37 -88q-36 -39 -90 -39zM1249 1018l-217 -832q-19 -73 -26 -151v-35h-150
q-2 4 -2 23q0 43 31 155q-182 -194 -387 -194q-175 0 -287 118q-115 118 -115 310q0 129 47 250q50 118 127 198q79 83 183 129.5t213 46.5q270 0 378 -248l60 230h145zM993 592q0 131 -88 225q-88 88 -227 88q-117 0 -217 -65q-100 -68 -154 -176q-53 -112 -53 -240
q0 -141 78 -225q81 -84 209 -84q110 0 217 67q104 64 170 178q65 107 65 232z" />
    <glyph glyph-name="uni04D4" unicode="&#x4d4;" horiz-adv-x="2021" 
d="M944 383h-573l-320 -383h-186l1253 1493h1047l-39 -143h-766l-139 -519h704l-37 -145h-706l-146 -543h776l-34 -143h-936zM981 524l221 832h-24l-691 -832h494z" />
    <glyph glyph-name="uni04D5" unicode="&#x4d5;" horiz-adv-x="1845" 
d="M831 276q-83 -145 -209 -218.5t-278 -73.5h-10q-126 0 -209 71q-84 72 -84 189q0 300 453 327l323 19q27 106 27 139q0 86 -56 130t-149 44q-61 0 -114 -15.5t-87.5 -39.5t-61.5 -55t-41 -58t-22 -53l-139 45q25 78 92 152q40 43 92 77q121 80 293 80q116 0 193 -53
q81 -53 110 -131q174 184 394 184q199 0 307 -114q108 -117 108 -318q0 -74 -18 -139h-819v-29q0 -150 88 -235q94 -88 229 -88t232 73q75 62 118 136l121 -68q-61 -116 -188 -193q-122 -79 -287 -79q-155 0 -262 79q-105 74 -146 215zM784 467l-284 -16q-66 -2 -140 -17
q-36 -6 -65 -22q-105 -52 -105 -154q0 -67 54 -106q51 -39 121 -39q154 0 278 106q120 105 141 248zM944 590h674v31q0 131 -74 208q-76 76 -207 76t-247 -94q-116 -93 -146 -221z" />
    <glyph glyph-name="uni04D6" unicode="&#x4d6;" horiz-adv-x="1261" 
d="M1204 1706q-105 -76 -223 -76q-121 0 -197 76q-76 73 -82 192l101 23q12 -89 54 -131.5t126 -42.5q90 0 159 46t103 128l96 -23q-41 -118 -137 -192zM82 0l399 1493h926l-37 -143h-772l-137 -519h704l-39 -145h-704l-146 -543h779l-39 -143h-934z" />
    <glyph glyph-name="uni04D7" unicode="&#x4d7;" horiz-adv-x="1165" 
d="M961 1264q-105 -76 -224 -76q-120 0 -196 76q-76 73 -82 192l100 23q11 -88 53.5 -131t126.5 -43q90 0 159 46t103 128l95 -23q-37 -117 -135 -192zM246 463v-27q0 -149 86 -235q88 -88 225 -88t234 73q78 57 122 136l121 -68q-61 -117 -190 -193q-128 -79 -291 -79
q-198 0 -328 127q-127 130 -127 331q0 117 45 222q50 116 121 190q75 85 178 133q102 51 220 51q200 0 311 -114q110 -116 110 -318q0 -80 -18 -141h-819zM264 590h672v31q0 131 -74 208q-73 76 -207 76q-129 0 -245 -94q-119 -93 -146 -221z" />
    <glyph glyph-name="uni04DC" unicode="&#x4dc;" horiz-adv-x="1900" 
d="M1067 1636q-44 0 -73 28.5t-29 72.5q0 54 36 90q32 37 89 37q45 0 74.5 -29t29.5 -74q0 -51 -37 -88q-40 -37 -90 -37zM1446 1636q-44 0 -73.5 28.5t-29.5 72.5q0 53 37 90q34 37 88 37q45 0 75 -29t30 -74q0 -51 -37 -88t-90 -37zM1141 1493h155l-186 -700h10l809 700
h217l-880 -745l508 -748h-187l-483 725h-12l-193 -725h-158l195 725h-10l-836 -725h-219l915 786l-495 707h186l467 -700h10z" />
    <glyph glyph-name="uni04DD" unicode="&#x4dd;" horiz-adv-x="1546" 
d="M780 1188q-44 0 -73 29t-29 73q0 53 37 90t88 37q44 0 74 -29t30 -73q0 -54 -37 -88q-36 -39 -90 -39zM1147 1188q-44 0 -73.5 29t-29.5 73q0 53 37 90t88 37q45 0 75 -29t30 -73q0 -54 -37 -88q-39 -39 -90 -39zM840 1018h147l-125 -469h17l567 469h207l-633 -512
l375 -506h-183l-352 494h-10l-131 -494h-148l129 494h-10l-588 -494h-208l655 543l-375 475h176l352 -469h13z" />
    <glyph glyph-name="uni04DE" unicode="&#x4de;" horiz-adv-x="1232" 
d="M686 1636q-46 0 -74 28t-28 73q0 56 37 90q34 37 88 37q45 0 73.5 -29t28.5 -74q0 -51 -37 -88t-88 -37zM1065 1636q-44 0 -73 28.5t-29 72.5q0 57 36 90q34 37 88 37q45 0 74 -29t29 -74q0 -50 -35 -88q-40 -37 -90 -37zM528 -14q-105 0 -191 29.5t-140 80.5
q-49 44 -86 109q-62 114 -56 225l150 29q-3 -46 5.5 -90.5t32.5 -88.5t61.5 -77t98 -53.5t136.5 -20.5q111 0 202.5 43t149.5 125q59 86 59 195q0 110 -94 182q-94 67 -217 67q-83 0 -135 -18l-64 123l639 506h-772l39 141h989l-41 -150l-594 -469q158 -3 269 -88
q145 -112 145 -288q0 -118 -46.5 -216.5t-127.5 -162.5q-169 -133 -412 -133z" />
    <glyph glyph-name="uni04DF" unicode="&#x4df;" horiz-adv-x="991" 
d="M467 1188q-45 0 -75 29t-30 73q0 53 37 90t90 37q44 0 73.5 -29t29.5 -73q0 -54 -37 -88q-36 -39 -88 -39zM831 1188q-44 0 -73 29t-29 73q0 53 37 90t88 37q44 0 74 -29t30 -73q0 -55 -36 -88q-36 -39 -91 -39zM410 -18q-89 0 -163.5 28t-119.5 76q-93 99 -90 233
l141 19q-2 -38 8 -75.5t34.5 -73t74.5 -58t119 -22.5q159 0 237 98q43 52 43 125q0 77 -63 119q-62 41 -146 41q-70 0 -120 -13l-43 111l456 301h-598l33 127h780l-37 -137l-426 -279q136 -6 224 -76q88 -73 88 -188q0 -90 -38 -160.5t-101 -112t-137.5 -62.5t-155.5 -21z
" />
    <glyph glyph-name="uni04E2" unicode="&#x4e2;" horiz-adv-x="1607" 
d="M825 1821h641l-34 -135h-644zM299 221l1180 1272h184l-399 -1493h-154l340 1276l-1182 -1276h-186l399 1493h154z" />
    <glyph glyph-name="uni04E3" unicode="&#x4e3;" horiz-adv-x="1230" 
d="M508 1354h643l-35 -133h-643zM1051 1018h149l-268 -1018h-148l213 801h-2l-802 -801h-150l266 1018h148l-213 -803z" />
    <glyph glyph-name="uni04E4" unicode="&#x4e4;" horiz-adv-x="1607" 
d="M911 1636q-44 0 -73 28.5t-29 72.5q0 53 37 90q34 37 88 37q45 0 74.5 -29t29.5 -74q0 -51 -37 -88q-40 -37 -90 -37zM1290 1636q-44 0 -73 28.5t-29 72.5q0 53 37 90q34 37 88 37q45 0 74.5 -29t29.5 -74q0 -51 -37 -88t-90 -37zM299 221l1180 1272h184l-399 -1493h-154
l340 1276l-1182 -1276h-186l399 1493h154z" />
    <glyph glyph-name="uni04E5" unicode="&#x4e5;" horiz-adv-x="1230" 
d="M618 1188q-44 0 -73 29t-29 73q0 53 37 90t88 37q44 0 74 -29t30 -73q0 -55 -36 -88q-36 -39 -91 -39zM985 1188q-44 0 -73 29t-29 73q0 53 37 90q34 37 88 37q44 0 74 -29t30 -73q0 -54 -37 -88q-39 -39 -90 -39zM1051 1018h149l-268 -1018h-148l213 801h-2l-802 -801
h-150l266 1018h148l-213 -803z" />
    <glyph glyph-name="uni04E6" unicode="&#x4e6;" horiz-adv-x="1697" 
d="M895 1636q-44 0 -73 28.5t-29 72.5q0 54 36 90q32 37 89 37q45 0 74.5 -29t29.5 -74q0 -52 -39 -88q-37 -37 -88 -37zM1274 1636q-44 0 -73.5 28.5t-29.5 72.5q0 53 37 90q34 37 88 37q45 0 75 -29t30 -74q0 -51 -37 -88t-90 -37zM811 -14q-190 0 -334 84
q-151 88 -229 229q-82 152 -82 326q0 169 67 327q61 154 179 285q114 120 274 197q158 73 338 73q136 0 257.5 -48t207.5 -134q85 -88 132.5 -206t47.5 -249q0 -169 -67 -327q-68 -165 -179 -285q-117 -127 -274 -197q-156 -75 -338 -75zM821 131q145 0 273 64
q130 62 217 165q88 98 143 236q51 131 51 272q3 137 -57 250.5t-174 179.5t-258 64q-168 1 -316 -86t-241 -229q-129 -189 -129 -420q-5 -212 134 -355.5t357 -140.5z" />
    <glyph glyph-name="uni04E7" unicode="&#x4e7;" horiz-adv-x="1236" 
d="M569 1188q-44 0 -73 29t-29 73q0 53 37 90t88 37q44 0 74 -29t30 -73q0 -54 -37 -88q-36 -39 -90 -39zM936 1188q-44 0 -73 29t-29 73q0 54 36 90q34 37 88 37q45 0 75 -29t30 -73q0 -55 -39 -88q-36 -39 -88 -39zM555 -16q-205 0 -332 127t-127 325q0 156 82 293
q79 138 217 223q141 84 295 84q206 0 334 -125q127 -130 127 -325q0 -160 -82 -297q-81 -139 -219 -223q-137 -82 -295 -82zM565 115q107 0 213 65q104 71 160 174q61 107 61 226q0 154 -88 239q-89 86 -231 86q-112 0 -215 -65q-103 -71 -160 -176q-59 -109 -59 -224
q0 -155 88 -237q85 -88 231 -88z" />
    <glyph glyph-name="uni04E8" unicode="&#x4e8;" horiz-adv-x="1697" 
d="M811 -14q-190 0 -334 84q-151 88 -229 229q-82 152 -82 326q0 169 67 327q61 154 179 285q114 120 274 197q158 73 338 73q136 0 257.5 -48t207.5 -134q85 -88 132.5 -206t47.5 -249q0 -169 -67 -327q-68 -165 -179 -285q-117 -127 -274 -197q-156 -75 -338 -75zM356 829
h1149q2 16 2 39q0 217 -135 355q-133 139 -356 139q-114 0 -224 -42t-198 -116q-85 -74 -147 -171t-91 -204zM1485 688h-1155q0 -5 -1 -25t-1 -36q-3 -212 136 -355.5t357 -140.5q118 0 230 44t200 122q87 77 148.5 178.5t85.5 212.5z" />
    <glyph glyph-name="uni04E9" unicode="&#x4e9;" horiz-adv-x="1236" 
d="M555 -16q-205 0 -332 127t-127 325q0 156 82 293q79 138 217 223q141 84 295 84q206 0 334 -125q127 -130 127 -325q0 -160 -82 -297q-81 -139 -219 -223q-137 -82 -295 -82zM266 580h733h2q0 152 -90 239q-86 86 -231 86q-141 0 -254 -96q-120 -94 -160 -229zM983 455
h-737v-15q0 -155 88 -237q85 -88 231 -88q136 0 260 100q117 96 158 240z" />
    <glyph glyph-name="uni04EA" unicode="&#x4ea;" horiz-adv-x="1697" 
d="M895 1636q-44 0 -73 28.5t-29 72.5q0 54 36 90q32 37 89 37q45 0 74.5 -29t29.5 -74q0 -52 -39 -88q-37 -37 -88 -37zM1274 1636q-44 0 -73.5 28.5t-29.5 72.5q0 53 37 90q34 37 88 37q45 0 75 -29t30 -74q0 -51 -37 -88t-90 -37zM811 -14q-190 0 -334 84
q-151 88 -229 229q-82 152 -82 326q0 169 67 327q61 154 179 285q114 120 274 197q158 73 338 73q136 0 257.5 -48t207.5 -134q85 -88 132.5 -206t47.5 -249q0 -169 -67 -327q-68 -165 -179 -285q-117 -127 -274 -197q-156 -75 -338 -75zM356 829h1149q2 16 2 39
q0 217 -135 355q-133 139 -356 139q-114 0 -224 -42t-198 -116q-85 -74 -147 -171t-91 -204zM1485 688h-1155q0 -5 -1 -25t-1 -36q-3 -212 136 -355.5t357 -140.5q118 0 230 44t200 122q87 77 148.5 178.5t85.5 212.5z" />
    <glyph glyph-name="uni04EB" unicode="&#x4eb;" horiz-adv-x="1236" 
d="M569 1188q-44 0 -73 29t-29 73q0 53 37 90t88 37q44 0 74 -29t30 -73q0 -54 -37 -88q-36 -39 -90 -39zM936 1188q-44 0 -73 29t-29 73q0 54 36 90q34 37 88 37q45 0 75 -29t30 -73q0 -55 -39 -88q-36 -39 -88 -39zM555 -16q-205 0 -332 127t-127 325q0 156 82 293
q79 138 217 223q141 84 295 84q206 0 334 -125q127 -130 127 -325q0 -160 -82 -297q-81 -139 -219 -223q-137 -82 -295 -82zM266 580h733h2q0 152 -90 239q-86 86 -231 86q-141 0 -254 -96q-120 -94 -160 -229zM983 455h-737v-15q0 -155 88 -237q85 -88 231 -88
q136 0 260 100q117 96 158 240z" />
    <glyph glyph-name="uni04EC" unicode="&#x4ec;" horiz-adv-x="1624" 
d="M791 1636q-44 0 -73.5 28.5t-29.5 72.5q0 53 37 90q34 37 88 37q45 0 75 -29t30 -74q0 -51 -37 -88q-40 -37 -90 -37zM1169 1636q-44 0 -73 28.5t-29 72.5q0 53 37 90q34 37 88 37q45 0 74.5 -29t29.5 -74q0 -52 -36 -88q-37 -37 -91 -37zM946 1507q189 0 336 -84
q148 -86 229 -231q80 -145 80 -322q0 -175 -65 -340q-62 -160 -178 -282q-113 -119 -275 -191q-160 -71 -338 -71q-160 0 -289 63q-134 61 -223 176q-87 115 -102 260l149 47q34 -187 158 -296q123 -105 315 -105q124 0 238.5 44t200.5 122q170 157 227 389h-733l39 145h710
v15q0 232 -131 375q-129 141 -354 141q-191 0 -356 -107q-171 -109 -240 -278l-141 55q55 139 174 252q116 110 264 166q143 57 305 57z" />
    <glyph glyph-name="uni04ED" unicode="&#x4ed;" horiz-adv-x="1175" 
d="M516 1188q-44 0 -73 29t-29 73q0 53 37 90t88 37q44 0 74 -29t30 -73q0 -54 -37 -88q-36 -39 -90 -39zM883 1188q-44 0 -73.5 29t-29.5 73q0 53 37 90q34 37 88 37q45 0 75 -29t30 -73q0 -54 -37 -88q-39 -39 -90 -39zM510 -18q-214 0 -352 149q-75 78 -95 180l138 43
q21 -112 114 -178q94 -63 203 -63q135 -2 257 102t151 246h-488l33 129h469q-3 150 -92 233q-87 84 -232 84q-112 0 -215 -65q-96 -63 -151 -166l-131 45q55 110 176 205q64 52 151 81t181 29q203 0 334 -125q124 -124 124 -325q0 -134 -47 -242q-48 -113 -127 -192
q-81 -79 -186.5 -124.5t-214.5 -45.5z" />
    <glyph glyph-name="uni04EE" unicode="&#x4ee;" horiz-adv-x="1357" 
d="M684 1821h641l-35 -135h-643zM1427 1493h185l-916 -1208q-124 -164 -235 -232q-113 -67 -234 -67q-116 0 -217 34l39 144q96 -35 187 -35q85 0 168.5 57.5t173.5 180.5l24 30l-336 1096h170l283 -944z" />
    <glyph glyph-name="uni04EF" unicode="&#x4ef;" horiz-adv-x="1138" 
d="M461 1354h641l-35 -133h-643zM176 -502h-166l361 510l-193 1010h154l153 -854l586 854h170z" />
    <glyph glyph-name="uni04F0" unicode="&#x4f0;" horiz-adv-x="1357" 
d="M786 1636q-44 0 -73 28.5t-29 72.5q0 53 37 90q34 37 88 37q46 0 75 -28.5t29 -74.5q0 -52 -36 -88q-40 -37 -91 -37zM1167 1636q-46 0 -75 28.5t-29 72.5q0 53 37 90q34 37 88 37q46 0 75 -28.5t29 -74.5q0 -51 -37 -88t-88 -37zM1427 1493h185l-916 -1208
q-124 -164 -235 -232q-113 -67 -234 -67q-116 0 -217 34l39 144q96 -35 187 -35q85 0 168.5 57.5t173.5 180.5l24 30l-336 1096h170l283 -944z" />
    <glyph glyph-name="uni04F1" unicode="&#x4f1;" horiz-adv-x="1138" 
d="M647 1223q-34 -34 -77.5 -34t-77.5 34t-34 80.5t34 80.5t77.5 34t77.5 -34q35 -34 35 -80.5t-35 -80.5zM1012 1223q-35 -34 -79 -34t-79 34q-34 34 -34 80.5t34 80.5q35 34 79 34t79 -34q34 -34 34 -80.5t-34 -80.5zM1071 1018h170l-1065 -1520h-166l361 510l-193 1010
h154l153 -854z" />
    <glyph glyph-name="uni04F2" unicode="&#x4f2;" horiz-adv-x="1357" 
d="M848 1630h-158l277 328h192zM1190 1630h-156l277 328h192zM1427 1493h185l-916 -1208q-124 -164 -235 -232q-113 -67 -234 -67q-116 0 -217 34l39 144q96 -35 187 -35q85 0 168.5 57.5t173.5 180.5l24 30l-336 1096h170l283 -944z" />
    <glyph glyph-name="uni04F3" unicode="&#x4f3;" horiz-adv-x="1138" 
d="M629 1192h-158l277 328h194zM971 1192h-156l277 328h192zM176 -502h-166l361 510l-193 1010h154l153 -854l586 854h170z" />
    <glyph glyph-name="uni04F4" unicode="&#x4f4;" horiz-adv-x="1402" 
d="M780 1636q-44 0 -73 28.5t-29 72.5q0 54 39 90q32 37 88 37q45 0 73.5 -29t28.5 -74q0 -51 -37 -88t-90 -37zM1161 1636q-45 0 -74.5 28.5t-29.5 72.5q0 54 39 90q32 37 88 37q44 0 73 -29t29 -74q0 -51 -37 -88t-88 -37zM907 0l168 637q-104 -52 -241 -96
q-124 -39 -230 -39q-179 0 -285 78t-106 233q0 61 18 129l148 551h156l-148 -549q-12 -46 -12 -92q0 -99 69 -153t197 -54q196 0 475 141l187 707h153l-393 -1493h-156z" />
    <glyph glyph-name="uni04F5" unicode="&#x4f5;" horiz-adv-x="1075" 
d="M504 1188q-45 0 -75 29t-30 73q0 54 39 90q34 37 88 37q44 0 73.5 -29t29.5 -73q0 -53 -35 -88q-39 -39 -90 -39zM870 1188q-45 0 -73.5 28.5t-28.5 73.5q0 55 35 90q37 37 88 37q46 0 75 -29t29 -73q0 -54 -37 -88q-36 -39 -88 -39zM379 1018l-94 -363q-13 -50 -13 -65
q0 -60 43 -94.5t121 -34.5q73 0 172 26q95 28 166 70l123 461h147l-268 -1018h-147l110 422q-76 -34 -174 -64q-91 -26 -178 -26q-125 0 -196.5 60.5t-71.5 166.5q0 39 14 96l94 363h152z" />
    <glyph glyph-name="uni04F8" unicode="&#x4f8;" horiz-adv-x="1894" 
d="M1069 1636q-44 0 -73 28.5t-29 72.5q0 53 37 90q34 37 90 37q44 0 73 -29t29 -74q0 -51 -37 -88t-90 -37zM1450 1636q-45 0 -74.5 28.5t-29.5 72.5q0 54 36 90q34 37 91 37q45 0 73.5 -29t28.5 -74q0 -51 -37 -88t-88 -37zM481 909h310q232 0 366 -104q131 -104 131 -281
q0 -247 -190 -385q-192 -139 -518 -139h-498l399 1493h154zM1550 0l400 1493h-158l-397 -1493h155zM444 768l-168 -625h308q255 0 401 95q141 94 141 274q0 120 -92 188t-256 68h-334z" />
    <glyph glyph-name="uni04F9" unicode="&#x4f9;" horiz-adv-x="1595" 
d="M43 0l268 1018h148l-103 -381h314q163 0 258 -74q94 -76 94 -194q0 -173 -133 -273q-137 -96 -365 -96h-481zM1415 1018l-268 -1018h149l269 1018h-150zM653 516h-327l-101 -389h293q167 0 259.5 59.5t92.5 173.5q0 75 -61 115q-62 41 -156 41zM799 1188q-45 0 -74 29
t-29 73q0 55 35 90q37 37 88 37q46 0 75.5 -29t29.5 -73q0 -54 -37 -88q-36 -39 -88 -39zM1163 1188q-44 0 -73 29t-29 73q0 53 37 90t90 37q44 0 73 -29t29 -73q0 -54 -37 -88q-36 -39 -90 -39z" />
    <glyph glyph-name="uni0E3F" unicode="&#xe3f;" horiz-adv-x="1404" 
d="M1391 1145q0 -151 -105 -256q-105 -102 -270 -137q114 -34 190 -113q74 -77 74 -197q0 -193 -170 -319q-170 -123 -457 -123h-22l-35 -131h-129l35 131h-420l399 1493h420l33 127h131l-37 -133q169 -17 268 -113q95 -89 95 -229zM598 1352l-139 -523h264l139 523h-264z
M991 1348l-139 -519q175 15 278 95q101 79 101 206q0 94 -61.5 150t-178.5 68zM420 690l-144 -547h265l145 547h-266zM1120 453q0 104 -82 165q-86 61 -223 70l-145 -545q202 0 329 82q121 83 121 228z" />
    <glyph glyph-name="uni1E20" unicode="&#x1e20;" horiz-adv-x="1660" 
d="M799 1821h643l-37 -135h-641zM1645 1055l-154 -47q-21 89 -76 170q-37 52 -86 92q-54 42 -135.5 69t-175.5 27q-147 0 -279 -66q-133 -66 -217 -170q-90 -107 -139 -237q-51 -128 -51 -264q0 -209 125 -350q132 -148 364 -148q225 0 393 121q170 123 228 328h-633l33 143
h796q-19 -164 -90.5 -304t-183.5 -235q-110 -95 -253 -146.5t-300 -51.5q-145 0 -267.5 50t-205.5 140q-81 89 -125.5 205.5t-44.5 245.5q0 163 63.5 321.5t178.5 282.5q113 128 273 202.5t343 75.5q215 0 373 -106q62 -43 123 -107q101 -118 123 -241z" />
    <glyph glyph-name="uni1E21" unicode="&#x1e21;" horiz-adv-x="1286" 
d="M485 1354h641l-34 -133h-641zM399 -510q-183 0 -303 94q-57 47 -88 97q-69 104 -69 217l141 30q-2 -52 22 -115.5t74 -113.5q35 -35 95.5 -56.5t131.5 -21.5q181 0 291 107q102 102 142 256l55 211q-167 -179 -383 -179q-110 0 -202.5 52.5t-147.5 148.5q-58 94 -58 215
q0 128 52 244q51 115 129 190q81 79 182.5 124.5t202.5 45.5q281 0 383 -243l59 225h147l-274 -1041q-62 -235 -209 -361t-373 -126zM680 907q-112 0 -209 -63q-95 -59 -156 -168q-59 -109 -59 -230q0 -131 86 -217q87 -84 209 -84q78 0 157 36.5t142 99.5q63 62 101 147
t38 174q0 138 -84 219q-83 86 -225 86z" />
    <glyph glyph-name="uni1E30" unicode="&#x1e30;" horiz-adv-x="1290" 
d="M1004 1630h-156l276 328h193zM240 0h-158l399 1493h156l-174 -655h10l830 655h233l-930 -735l565 -758h-194l-533 723h-12z" />
    <glyph glyph-name="uni1E31" unicode="&#x1e31;" horiz-adv-x="1034" 
d="M330 510h-6l-134 -510h-149l410 1554h149l-252 -950h4l572 414h229l-674 -475l432 -543h-184zM1151 1520h-193l-276 -328h156z" />
    <glyph glyph-name="uni1E60" unicode="&#x1e60;" horiz-adv-x="1220" 
d="M846 1634q-44 0 -74.5 30.5t-30.5 74.5q0 55 37 92q39 39 92 39q44 0 74.5 -30.5t30.5 -76.5q0 -53 -37 -90q-39 -39 -92 -39zM942 403q0 150 -186 230l-195 84q-118 52 -196 145t-78 213q0 129 71 232q65 94 185 151q111 51 245 51q95 0 178 -27.5t136 -72.5
q52 -43 86 -98q63 -97 63 -199l-145 -29q0 34 -14.5 81.5t-47.5 88.5q-38 50 -104.5 82.5t-159.5 32.5q-98 0 -182 -40.5t-125 -117.5q-29 -60 -29 -125q0 -66 43 -124q38 -55 121 -91l201 -88q142 -62 217.5 -156.5t75.5 -215.5q0 -172 -129 -295q-62 -61 -160.5 -95
t-218.5 -34q-102 -2 -195.5 35.5t-161.5 102t-107.5 155.5t-37.5 190v23l152 26v-26q0 -163 100 -263q99 -102 260 -102q136 0 238 76q100 72 100 200z" />
    <glyph glyph-name="uni1E61" unicode="&#x1e61;" horiz-adv-x="925" 
d="M588 1188q-46 0 -76.5 30t-30.5 74q0 56 39 92q36 39 90 39q46 0 76.5 -30t30.5 -74q0 -55 -37 -92q-39 -39 -92 -39zM887 750l-137 -35q-12 90 -76 147q-55 45 -152 45q-82 0 -137 -43q-57 -45 -57 -123q0 -82 100 -125l135 -59q88 -36 154 -111q61 -73 61 -163
q0 -128 -98 -213q-98 -88 -262 -88q-94 0 -170.5 32t-120.5 86q-86 103 -86 222l137 32q0 -98 66 -170q62 -71 180 -71q92 0 149 45q56 44 56 118q0 99 -127 154l-125 55q-199 87 -199 244q0 127 101 217t253 90q206 -3 297 -139q48 -69 58 -147z" />
    <glyph glyph-name="Wgrave" unicode="&#x1e80;" horiz-adv-x="2185" 
d="M1137 1958h170l118 -328h-127zM565 0h-166l-90 1493h160l66 -1276h4l718 1276h177l53 -1278h4l735 1278h166l-868 -1493h-170l-54 1282z" />
    <glyph glyph-name="wgrave" unicode="&#x1e81;" horiz-adv-x="1648" 
d="M752 1520h170l120 -328h-129zM1587 1018h154l-613 -1018h-165l-56 823l-487 -823h-162l-74 1018h152l51 -838l492 838h153l58 -838z" />
    <glyph glyph-name="Wacute" unicode="&#x1e82;" horiz-adv-x="2185" 
d="M1450 1630h-158l277 328h192zM565 0h-166l-90 1493h160l66 -1276h4l718 1276h177l53 -1278h4l735 1278h166l-868 -1493h-170l-54 1282z" />
    <glyph glyph-name="wacute" unicode="&#x1e83;" horiz-adv-x="1648" 
d="M1057 1192h-156l277 328h192zM1587 1018h154l-613 -1018h-165l-56 823l-487 -823h-162l-74 1018h152l51 -838l492 838h153l58 -838z" />
    <glyph glyph-name="Wdieresis" unicode="&#x1e84;" horiz-adv-x="2185" 
d="M1202 1636q-44 0 -73 28.5t-29 72.5q0 53 37 90q34 37 90 37q45 0 73.5 -29t28.5 -74q0 -51 -37 -88t-90 -37zM1583 1636q-45 0 -74.5 28.5t-29.5 72.5q0 53 37 90q34 37 90 37q44 0 73 -29t29 -74q0 -51 -37 -88t-88 -37zM565 0h-166l-90 1493h160l66 -1276h4l718 1276
h177l53 -1278h4l735 1278h166l-868 -1493h-170l-54 1282z" />
    <glyph glyph-name="wdieresis" unicode="&#x1e85;" horiz-adv-x="1648" 
d="M819 1188q-44 0 -73 29t-29 73q0 53 37 90t88 37q44 0 74 -29t30 -73q0 -54 -37 -88q-39 -39 -90 -39zM1186 1188q-44 0 -73.5 29t-29.5 73q0 52 35 90q37 37 90 37q44 0 73.5 -29t29.5 -73q0 -56 -37 -88q-36 -39 -88 -39zM1587 1018h154l-613 -1018h-165l-56 823
l-487 -823h-162l-74 1018h152l51 -838l492 838h153l58 -838z" />
    <glyph glyph-name="uni1E90" unicode="&#x1e90;" horiz-adv-x="1218" 
d="M1237 1630h-150l-114 225h-2l-232 -225h-166l338 330h150zM1362 1350l-1192 -1207h883l-39 -143h-1075l36 143l1188 1209h-835l39 141h1036z" />
    <glyph glyph-name="uni1E91" unicode="&#x1e91;" horiz-adv-x="972" 
d="M979 1192h-150l-114 225h-4l-230 -225h-168l340 328h150zM166 127h631l-33 -127h-815l33 127l817 764h-602l34 127h793l-35 -127z" />
    <glyph glyph-name="uni1EBC" unicode="&#x1ebc;" horiz-adv-x="1261" 
d="M1108 1669q-72 0 -115 47q-45 45 -108 45q-66 0 -107 -92h-106q23 95 86 158q61 61 151 61q60 0 117 -45t113 -45q66 0 108 86h94q-29 -100 -87.5 -157.5t-145.5 -57.5zM1055 143l-37 -143h-936l399 1493h928l-39 -143h-770l-139 -519h704l-39 -145h-704l-146 -543h779z
" />
    <glyph glyph-name="uni1EBD" unicode="&#x1ebd;" horiz-adv-x="1165" 
d="M842 1192q-68 0 -115 47t-109 47q-65 0 -106 -92h-106q25 97 86 158t151 61q60 0 117 -45q55 -47 112 -47q34 0 62.5 24.5t46.5 63.5h94q-29 -102 -87.5 -159.5t-145.5 -57.5zM246 463v-27q0 -149 86 -235q88 -88 225 -88t234 73q78 57 122 136l121 -68
q-61 -117 -190 -193q-128 -79 -291 -79q-198 0 -328 127q-127 130 -127 331q0 117 45 222q50 116 121 190q75 85 178 133q102 51 220 51q200 0 311 -114q110 -116 110 -318q0 -80 -18 -141h-819zM264 590h672v31q0 131 -74 208q-73 76 -207 76q-129 0 -245 -94
q-119 -93 -146 -221z" />
    <glyph glyph-name="Ygrave" unicode="&#x1ef2;" horiz-adv-x="1406" 
d="M752 1958h172l118 -328h-129zM758 772l663 721h199l-821 -883l-162 -610h-158l170 637l-340 856h174z" />
    <glyph glyph-name="ygrave" unicode="&#x1ef3;" horiz-adv-x="1138" 
d="M522 1520h170l119 -328h-127zM176 -502h-166l361 510l-193 1010h154l153 -854l586 854h170z" />
    <glyph glyph-name="uni2000" unicode="&#x2000;" horiz-adv-x="1054" 
 />
    <glyph glyph-name="uni2001" unicode="&#x2001;" horiz-adv-x="2109" 
 />
    <glyph glyph-name="uni2002" unicode="&#x2002;" horiz-adv-x="1054" 
 />
    <glyph glyph-name="uni2003" unicode="&#x2003;" horiz-adv-x="2109" 
 />
    <glyph glyph-name="uni2004" unicode="&#x2004;" horiz-adv-x="702" 
 />
    <glyph glyph-name="uni2005" unicode="&#x2005;" horiz-adv-x="526" 
 />
    <glyph glyph-name="uni2006" unicode="&#x2006;" horiz-adv-x="350" 
 />
    <glyph glyph-name="uni2007" unicode="&#x2007;" horiz-adv-x="350" 
 />
    <glyph glyph-name="uni2008" unicode="&#x2008;" horiz-adv-x="264" 
 />
    <glyph glyph-name="uni2009" unicode="&#x2009;" horiz-adv-x="421" 
 />
    <glyph glyph-name="uni200A" unicode="&#x200a;" horiz-adv-x="116" 
 />
    <glyph glyph-name="uni2010" unicode="&#x2010;" horiz-adv-x="839" 
d="M739 676l-41 -158h-544l41 158h544z" />
    <glyph glyph-name="uni2011" unicode="&#x2011;" horiz-adv-x="839" 
d="M739 676l-41 -158h-544l41 158h544z" />
    <glyph glyph-name="figuredash" unicode="&#x2012;" horiz-adv-x="839" 
d="M739 676l-41 -158h-544l41 158h544z" />
    <glyph glyph-name="endash" unicode="&#x2013;" horiz-adv-x="1167" 
d="M154 522l39 150h876l-39 -150h-876z" />
    <glyph glyph-name="emdash" unicode="&#x2014;" horiz-adv-x="1955" 
d="M154 522l39 150h1662l-38 -150h-1663z" />
    <glyph glyph-name="quoteleft" unicode="&#x2018;" horiz-adv-x="532" 
d="M639 1507l-23 -75q-84 -15 -143 -74q-59 -62 -65 -129q22 14 59 14q50 0 80.5 -30.5t30.5 -79.5q0 -59 -43 -99q-43 -43 -103 -43q-64 0 -98.5 42t-34.5 110q0 146 98 250q96 105 242 114z" />
    <glyph glyph-name="quoteright" unicode="&#x2019;" horiz-adv-x="534" 
d="M297 987l20 76q88 15 146 76q55 55 65 127q-24 -15 -59 -15q-49 0 -80 30.5t-31 80.5q0 57 43 100q44 41 103 41q64 0 98.5 -41t34.5 -110q0 -146 -98 -250q-103 -106 -242 -115z" />
    <glyph glyph-name="quotesinglbase" unicode="&#x201a;" horiz-adv-x="552" 
d="M72 -279v78q60 12 106 70q44 58 47 129q-21 -12 -51 -12q-53 0 -87 36t-34 91q0 52 39 88q43 37 94 37q67 0 109 -54q37 -49 37 -123q0 -130 -68 -225q-69 -97 -192 -115z" />
    <glyph glyph-name="quotedblleft" unicode="&#x201c;" horiz-adv-x="899" 
d="M639 1507l-23 -75q-84 -15 -143 -74q-59 -62 -65 -129q22 14 59 14q50 0 80.5 -30.5t30.5 -79.5q0 -59 -43 -99q-43 -43 -103 -43q-64 0 -98.5 42t-34.5 110q0 146 98 250q96 105 242 114zM1006 1507l-21 -75q-86 -15 -145 -74q-58 -65 -64 -129q22 14 60 14
q48 0 78 -30.5t30 -79.5q0 -62 -43 -99q-43 -43 -102 -43q-64 0 -98.5 42t-34.5 110q0 147 100 250q96 105 240 114z" />
    <glyph glyph-name="quotedblright" unicode="&#x201d;" horiz-adv-x="901" 
d="M297 987l20 76q88 15 146 76q55 55 65 127q-24 -15 -59 -15q-49 0 -80 30.5t-31 80.5q0 57 43 100q44 41 103 41q64 0 98.5 -41t34.5 -110q0 -146 -98 -250q-103 -106 -242 -115zM666 987l20 76q88 16 143 76q60 60 66 127q-24 -15 -59 -15q-48 0 -78.5 31t-30.5 80
q0 57 43 100q44 41 100 41q66 0 100 -40.5t34 -110.5q0 -148 -99 -250q-100 -106 -239 -115z" />
    <glyph glyph-name="quotedblbase" unicode="&#x201e;" horiz-adv-x="917" 
d="M-12 -279l22 76q85 15 144 74q59 62 65 129q-22 -14 -59 -14q-50 0 -80.5 30.5t-30.5 79.5q0 58 43 101q47 41 103 41q64 0 98.5 -42t34.5 -110q0 -145 -99 -250q-97 -106 -241 -115zM356 -279l21 76q86 15 145 74q58 65 64 129q-22 -14 -60 -14q-48 0 -78 30.5t-30 79.5
q0 58 43 101q44 41 102 41q64 0 98.5 -42t34.5 -110q0 -147 -100 -250q-97 -106 -240 -115z" />
    <glyph glyph-name="dagger" unicode="&#x2020;" horiz-adv-x="1198" 
d="M770 850l-227 -850h-146l228 850h-377l37 135h377l114 428h146l-115 -428h369l-37 -135h-369z" />
    <glyph glyph-name="daggerdbl" unicode="&#x2021;" horiz-adv-x="1198" 
d="M543 0l-105 -393h-145l104 393h-403l37 137h403l201 748h-406l37 135h404l104 393h146l-105 -393h406l-35 -135h-408l-198 -748h405l-37 -137h-405z" />
    <glyph glyph-name="bullet" unicode="&#x2022;" horiz-adv-x="972" 
d="M535 362q-139 0 -234 99q-96 92 -96 235q0 140 96 236q97 100 234 100q140 0 233 -100q98 -98 98 -236q0 -141 -98 -235q-94 -99 -233 -99z" />
    <glyph glyph-name="ellipsis" unicode="&#x2026;" horiz-adv-x="1632" 
d="M174 -16q-54 0 -88.5 33t-34.5 87q0 63 43 109q43 43 107 43q53 0 88 -34.5t35 -88.5q0 -63 -43 -106t-107 -43zM723 -16q-53 0 -88 33.5t-35 86.5q0 64 45 109q43 43 105 43q54 0 89 -34.5t35 -88.5q0 -64 -45 -106q-43 -43 -106 -43zM1274 -16q-54 0 -88.5 33t-34.5 87
q0 63 43 109q43 43 106 43q54 0 88.5 -34.5t34.5 -88.5q0 -63 -43 -106t-106 -43z" />
    <glyph glyph-name="uni202F" unicode="&#x202f;" horiz-adv-x="421" 
 />
    <glyph glyph-name="perthousand" unicode="&#x2030;" horiz-adv-x="2480" 
d="M557 834q-129 0 -213 84q-84 81 -84 217q0 153 105 264q105 108 260 108q128 0 215 -84q84 -81 84 -215q0 -155 -105 -266q-108 -108 -262 -108zM1513 1493h166l-1296 -1493h-164zM618 1384q-104 0 -167 -75q-66 -75 -66 -174q0 -79 51 -127q50 -50 129 -50q101 0 168 76
q66 75 66 174q0 76 -51 127q-49 49 -130 49zM1270 -10q-131 0 -213 82q-84 87 -84 217q0 157 104 264q106 109 260 109q131 0 215 -84q86 -83 86 -216q0 -155 -106 -264q-105 -108 -262 -108zM1331 539q-101 0 -168 -76q-65 -74 -65 -174q0 -76 51 -127q49 -49 129 -49
q105 0 168 75q65 74 65 177q0 76 -51 124q-50 50 -129 50zM2007 -10q-133 0 -215 82q-84 87 -84 217q0 157 104 264q109 109 261 109q134 0 215 -84q86 -83 86 -216q0 -154 -107 -264q-105 -108 -260 -108zM2066 539q-101 0 -168 -76q-65 -74 -65 -174q0 -76 51 -127
q49 -49 129 -49q105 0 168 75q66 75 66 177q0 75 -52 124q-50 50 -129 50z" />
    <glyph glyph-name="guilsinglleft" unicode="&#x2039;" horiz-adv-x="671" 
d="M117 573l434 347l76 -103l-328 -258l180 -237l-108 -86z" />
    <glyph glyph-name="guilsinglright" unicode="&#x203a;" horiz-adv-x="669" 
d="M600 582l-434 -346l-76 102l328 258l-180 238l108 86z" />
    <glyph glyph-name="uni203D" unicode="&#x203d;" horiz-adv-x="1079" 
d="M616 1147h158l-104 -393h2q20 17 69 57q11 9 37.5 29.5t36.5 29.5q27 21 66 60q68 68 94 143q14 38 14 84q0 69 -39 117q-47 53 -96 69q-56 21 -117 21q-91 0 -161 -30.5t-109 -84.5q-78 -100 -78 -221l-149 19q1 129 70.5 236.5t186 167.5t251.5 58q163 3 283.5 -98
t117.5 -244q0 -126 -66 -221q-26 -39 -67 -80q-30 -30 -70 -61q-3 -3 -65 -47q-7 -2 -13 -8q-35 -24 -116 -84q-40 -32 -76 -68q-35 -37 -53.5 -73t-32.5 -93h-148zM414 -16q-45 0 -73 27t-28 71q0 50 35 88q37 37 88 37q43 0 72 -28.5t29 -72.5q0 -51 -35 -86
q-36 -36 -88 -36z" />
    <glyph glyph-name="uni2042" unicode="&#x2042;" horiz-adv-x="1773" 
d="M1049 1075l102 -274l-98 -39l-109 276l-229 -184l-66 82l225 184l-243 162l57 88l246 -162l80 291l102 -26l-78 -291l295 14l6 -104zM502 276l102 -274l-98 -39l-109 277l-229 -185l-66 82l226 187l-244 161l57 86l248 -159l78 290l104 -28l-79 -291l294 16l9 -106z
M1364 276l102 -274l-98 -39l-108 277l-230 -185l-65 82l225 187l-244 161l58 86l245 -159l80 290l105 -28l-80 -291l295 16l8 -106z" />
    <glyph glyph-name="fraction" unicode="&#x2044;" horiz-adv-x="1134" 
d="M1368 1493l-1296 -1493h-164l1292 1493h168z" />
    <glyph glyph-name="uni2051" unicode="&#x2051;" horiz-adv-x="983" 
d="M743 1075l103 -274l-98 -39l-109 276l-229 -184l-66 82l225 184l-243 162l57 88l248 -162l78 291l102 -26l-78 -291l295 14l6 -104zM532 276l103 -274l-98 -39l-109 277l-231 -185l-64 82l225 187l-243 161l57 86l248 -159l78 290l104 -28l-80 -291l295 16l6 -106z" />
    <glyph glyph-name="uni205F" unicode="&#x205f;" horiz-adv-x="526" 
 />
    <glyph glyph-name="lira" unicode="&#x20a4;" horiz-adv-x="1251" 
d="M1239 1137l-152 -25q3 6 3 21q0 98 -72 167q-70 64 -172 64q-80 0 -141.5 -29.5t-98.5 -81t-55.5 -117.5t-18.5 -143v-39h467l-34 -129h-414q16 -91 16 -149v-29h353l-35 -127h-338q-30 -116 -105.5 -212.5t-185.5 -164.5h440q118 0 195 68q77 65 98 174l146 -27
q-21 -153 -142 -256q-119 -102 -270 -102h-715l43 156q121 56 208.5 150.5t123.5 213.5h-231l32 127h222q2 8 2 29q0 33 -17 149h-160l33 129h111q-2 20 -2 47q0 222 129 363q131 143 348 143q167 0 280 -96q109 -97 109 -233v-41z" />
    <glyph glyph-name="uni20A9" unicode="&#x20a9;" horiz-adv-x="2258" 
d="M2431 1493l-397 -684h200l-28 -109h-236l-407 -700h-170l-31 700h-356l-402 -700h-166l-41 700h-233l29 109h196l-41 684h160l35 -684h368l385 684h179l28 -684h369l395 684h164zM1067 809h291l-19 473zM578 217l272 483h-301l24 -483h5zM1530 215l278 485h-301l19 -485
h4z" />
    <glyph glyph-name="dong" unicode="&#x20ab;" horiz-adv-x="1341" 
d="M1458 1341l-35 -133h-120l-269 -1022q-19 -73 -26 -151v-35h-150q0 2 -1 11.5t-1 11.5q0 48 31 157q-90 -98 -182 -147t-205 -49q-178 0 -287 118q-113 116 -113 310q0 136 47 250q44 111 125 198q78 82 182.5 129t211.5 47q270 0 378 -243l111 415h-350l35 133h350
l57 213h148l-56 -213h119zM543 115q113 0 217 67q104 64 170 178q65 112 65 232q0 134 -88 225q-85 88 -227 88q-115 0 -215 -65q-100 -68 -154 -176q-55 -110 -55 -240q0 -139 80 -225q78 -84 207 -84zM-61 -352l34 129h953l-35 -129h-952z" />
    <glyph glyph-name="Euro" unicode="&#x20ac;" horiz-adv-x="1761" 
d="M1776 1026l-152 -45q-10 95 -84 193q-42 55 -92 96q-57 42 -139 68t-172 26q-194 0 -359 -113q-162 -113 -241 -284h669l-61 -131h-658q-26 -93 -26 -179h610l-59 -129h-541q27 -174 160 -286q132 -111 325 -111q93 0 182 27.5t152 70.5q51 34 111 97q82 89 127 188
l143 -57q-52 -134 -170 -250q-68 -65 -145 -113q-81 -49 -191.5 -78.5t-228.5 -29.5q-245 0 -418 151q-176 151 -211 391h-203l35 129h160q3 99 23 179h-146l35 131h154q99 241 311 389q212 151 479 151q112 0 211 -29t168 -79q63 -46 119 -115q93 -114 123 -258z" />
    <glyph glyph-name="uni20AE" unicode="&#x20ae;" horiz-adv-x="1329" 
d="M1473 1348h-500l-111 -418l463 157l-37 -139l-463 -160l-55 -204l463 157l-37 -139l-463 -160l-119 -442h-157l102 383l-465 -160l39 139l463 160l55 205l-463 -160l37 142l463 161l129 478h-500l39 145l1155 2z" />
    <glyph glyph-name="uni20B1" unicode="&#x20b1;" horiz-adv-x="1509" 
d="M1595 1104l-34 -131h-117q-50 -186 -227 -287q-178 -100 -449 -100h-309l-156 -586h-158l261 973h-170l36 131h168l105 389h413q268 0 398 -127q104 -98 104 -262h135zM954 1348h-292l-66 -246h702q-6 124 -98 184q-92 62 -246 62zM496 727h282q201 0 330 64t172 184
h-717z" />
    <glyph glyph-name="uni20B4" unicode="&#x20b4;" horiz-adv-x="1376" 
d="M217 856l35 129h831q74 86 74 193q0 52 -22 90t-59.5 58t-79.5 29t-91 9q-109 0 -229 -66q-116 -65 -184 -165l-125 79q78 124 237 211q150 84 311 84q59 0 113.5 -9.5t108 -33t93 -58.5t63.5 -90t24 -124q0 -112 -74 -207h141l-34 -129h-1133zM1266 537h-826
q-45 -41 -72.5 -97.5t-27.5 -113.5q0 -105 92 -154q81 -41 182 -41q111 0 236 64q117 65 194 170l125 -80q-95 -139 -249 -219q-150 -78 -320 -78q-59 -1 -116 9t-113 33.5t-97.5 59.5t-67.5 92t-26 125q0 62 22 115.5t68 114.5h-139l35 131h1134z" />
    <glyph glyph-name="uni20B8" unicode="&#x20b8;" horiz-adv-x="1335" 
d="M348 1493h1157l-41 -145h-1155zM1417 1171l-39 -147h-497l-275 -1024h-157l274 1024h-498l39 147h1153z" />
    <glyph glyph-name="uni20B9" unicode="&#x20b9;" horiz-adv-x="1415" 
d="M1430 1493v-131h-381q75 -42 111.5 -103t47.5 -147h222v-129h-224q-21 -141 -123 -246q-105 -108 -256 -129l363 -608h-186l-357 604h-319v148h399q123 0 204.5 60t110.5 171h-714v129h716q-25 111 -102.5 171t-196.5 60h-417v150h1102z" />
    <glyph glyph-name="uni20BA" unicode="&#x20ba;" horiz-adv-x="1306" 
d="M1116 645l148 -14q-27 -162 -119 -293.5t-244 -216.5q-212 -121 -543 -121h-161l141 535l-236 -107l41 147l236 109l59 223l-235 -108l39 147l235 109l117 438h156l-95 -358l498 227l-41 -148l-498 -227l-59 -223l498 227l-39 -149l-498 -226l-127 -473q223 0 391 76
q142 63 226 173t110 253z" />
    <glyph glyph-name="uni20BD" unicode="&#x20bd;" horiz-adv-x="1409" 
d="M778 586h-291l-47 -176h449l-35 -129h-448l-76 -281h-156l76 281h-182l34 129h183l45 176h-180l34 135h183l206 772h396q267 0 397 -127q104 -98 104 -264q1 -242 -190 -380.5t-502 -135.5zM690 1348l-166 -621h264q246 0 383 96q138 97 138 271q0 126 -95 190
q-94 64 -249 64h-275z" />
    <glyph glyph-name="uni2113" unicode="&#x2113;" horiz-adv-x="882" 
d="M985 1190q0 -90 -36 -180.5t-99 -165.5q-64 -77 -141 -142q-144 -122 -328 -202l-41 -162q-28 -108 16 -168.5t158 -60.5q76 0 152 24l-35 -131q-71 -18 -148 -18q-172 0 -245 98q-77 100 -37 258l24 106q-74 -30 -174 -51l33 129l180 60l148 563q73 278 321 278
q114 0 185 -65q67 -64 67 -170zM846 1188q0 49 -34 80.5t-85 31.5q-72 0 -114.5 -44t-65.5 -130l-125 -481q165 77 287 211q64 69 100.5 155t36.5 177z" />
    <glyph glyph-name="uni2116" unicode="&#x2116;" horiz-adv-x="2603" 
d="M1548 1493h156l-399 -1493h-170l-541 1286l-344 -1286h-156l400 1493h182l534 -1270zM2468 926q0 -156 -107 -260q-107 -107 -262 -107q-153 0 -260 107q-108 102 -108 260q0 159 106 262q107 104 262 104q153 0 260 -104q109 -109 109 -262zM2265 758q66 69 66 168
q0 98 -66 170q-66 69 -166 69t-166 -69q-65 -68 -65 -170q0 -103 65 -168q67 -70 166 -70t166 70zM2458 205h-719v133h719v-133z" />
    <glyph glyph-name="trademark" unicode="&#x2122;" horiz-adv-x="1978" 
d="M698 1378l-198 -745h-129l200 745h-258l31 115h643l-31 -115h-258zM1712 633l195 725h-6l-476 -725h-104l-96 729h-8l-193 -729h-119l232 860h180l92 -696l453 696h202l-229 -860h-123z" />
    <glyph glyph-name="estimated" unicode="&#x212e;" horiz-adv-x="1703" 
d="M1671 748h-1143v-484q76 -79 189 -121q112 -47 225 -47q191 0 331 82t216 234l96 -54q-78 -168 -250 -272q-166 -100 -393 -100q-167 0 -307 59.5t-234 165.5q-93 105 -142.5 245.5t-49.5 301.5q0 153 53 291t148 241q93 101 233 160q134 57 299 57q163 0 297 -57
q136 -58 231 -160q96 -101 148.5 -237.5t52.5 -290.5v-14zM1358 860v377q-78 78 -191 121q-115 41 -229 41q-239 0 -410 -160v-379h830z" />
    <glyph glyph-name="uni2153" unicode="&#x2153;" horiz-adv-x="1941" 
d="M223 0l1295 1493h165l-1294 -1493h-166zM285 1323l358 170h123l-209 -868h-135l172 716l-268 -124zM1290 870h615l-41 -141l-301 -213q72 -13 118 -53q84 -66 84 -174q0 -137 -102 -223q-106 -86 -240 -86q-133 0 -217 81q-83 77 -80 209l129 19q-1 -33 7 -64t26.5 -60
t54 -46t84.5 -17q85 0 144 50q57 51 57 133q0 55 -43 92q-44 35 -102 35q-45 0 -94 -19l-48 105l357 254h-438z" />
    </font>
</defs>
</svg>
