<?xml version="1.0" standalone="no"?>
<!DOCTYPE svg PUBLIC "-//W3C//DTD SVG 1.1//EN" "http://www.w3.org/Graphics/SVG/1.1/DTD/svg11.dtd" >
<svg xmlns="http://www.w3.org/2000/svg" xmlns:xlink="http://www.w3.org/1999/xlink" version="1.1">
<metadata>
Created by FontForge 20201107 at Mon Dec  1 13:43:44 2025
 By 
Copyright (c) 2016 by THOMAS GILLETT. All rights reserved.
</metadata>
<defs>
<font id="Gordita-BlackItalic" horiz-adv-x="1243" >
  <font-face 
    font-family="Gordita Black"
    font-weight="900"
    font-style="italic"
    font-stretch="normal"
    units-per-em="2048"
    panose-1="0 0 0 0 0 0 0 0 0 0"
    ascent="1638"
    descent="-410"
    x-height="1018"
    cap-height="1493"
    bbox="-604 -750.486 2970 2327"
    underline-thickness="94"
    underline-position="-190"
    unicode-range="U+000D-FB04"
  />
<missing-glyph horiz-adv-x="1523" 
d="M1430 1493v-1493h-1258v1493h1258zM319 1337l971 -1181v1181h-971z" />
    <glyph glyph-name="ff" unicode="ff" horiz-adv-x="1628" 
d="M1714 1257q-80 0 -125.5 -38t-70.5 -121l-25 -80h250l-78 -297h-246l-192 -721h-363l193 721h-402l-192 -721h-361l195 721h-188l77 297h187l39 141q50 183 176 291q127 109 336 109q135 0 200 -41l-73 -281q-52 20 -99 20q-80 0 -127 -39t-69 -120l-25 -80h404l39 141
q54 187 178 291q124 109 334 109q135 0 200 -41l-74 -281q-52 20 -98 20z" />
    <glyph glyph-name="fi" unicode="fi" horiz-adv-x="1472" 
d="M1423 1575q84 0 138 -51q55 -55 55 -138q0 -95 -68 -163t-166 -68q-80 0 -133 53q-55 49 -55 133q0 98 68 166t161 68zM1493 1018l-272 -1018h-365l193 721h-392l-192 -721h-363l195 721h-188l79 297h185l39 141q54 187 178 291q127 109 334 109q134 0 202 -41l-75 -281
q-48 20 -99 20q-80 0 -125.5 -38t-70.5 -121l-25 -80h762z" />
    <glyph glyph-name="fl" unicode="fl" horiz-adv-x="1474" 
d="M1270 1554h366l-415 -1554h-365l193 721h-392l-192 -721h-363l195 721h-188l79 297h185l39 141q54 187 178 291q127 109 334 109q134 0 202 -41l-75 -281q-48 20 -99 20q-80 0 -125.5 -38t-70.5 -121l-25 -80h395z" />
    <glyph glyph-name="ffi" unicode="ffi" horiz-adv-x="2222" 
d="M2175 1575q80 0 137 -51q53 -56 53 -138q0 -96 -67 -163q-68 -68 -164 -68q-82 0 -135 53q-53 47 -53 133q0 101 65 166q68 68 164 68zM2243 1018l-271 -1018h-364l192 721h-389l-192 -721h-363l193 721h-394l-192 -721h-361l195 721h-188l77 297h187l39 141
q50 183 176 291q127 109 336 109q135 0 200 -41l-73 -281q-52 20 -99 20q-80 0 -127 -39t-69 -120l-25 -80h395l39 141q50 183 176 291q127 109 336 109q136 0 201 -41l-76 -281q-48 20 -96 20q-80 0 -126 -38t-71 -121l-24 -80h758z" />
    <glyph glyph-name="ffl" unicode="ffl" horiz-adv-x="2222" 
d="M2019 1554h367l-416 -1554h-364l192 721h-389l-192 -721h-363l193 721h-392l-192 -721h-361l195 721h-188l77 297h187l39 141q50 183 176 291q127 109 336 109q135 0 200 -41l-73 -281q-52 20 -99 20q-80 0 -127 -39t-69 -120l-25 -80h393l39 141q54 187 178 291
q124 109 334 109q136 0 201 -41l-74 -281q-52 20 -98 20q-80 0 -126 -38t-71 -121l-24 -80h393z" />
    <glyph glyph-name=".notdef" horiz-adv-x="1523" 
d="M1430 1493v-1493h-1258v1493h1258zM319 1337l971 -1181v1181h-971z" />
    <glyph glyph-name=".null" horiz-adv-x="0" 
 />
    <glyph glyph-name="nonmarkingreturn" horiz-adv-x="634" 
 />
    <glyph glyph-name="NULL" horiz-adv-x="0" 
 />
    <glyph glyph-name="NULL" horiz-adv-x="0" 
 />
    <glyph glyph-name="CR" unicode="&#xd;" horiz-adv-x="446" 
 />
    <glyph glyph-name="space" unicode=" " horiz-adv-x="446" 
 />
    <glyph glyph-name="exclam" unicode="!" horiz-adv-x="673" 
d="M236 -23q-84 0 -136 52q-53 53 -53 133q0 93 68 164q64 67 161 67q80 0 136 -53q53 -50 53 -133q0 -94 -68 -162t-161 -68zM410 1493h389l-293 -985h-330z" />
    <glyph glyph-name="quotedbl" unicode="&#x22;" horiz-adv-x="1024" 
d="M633 1171l-199 -383h-143l-15 420q0 120 56 197q59 80 168 80q67 0 123 -41q53 -43 53 -105q3 -83 -43 -168zM1114 1171l-199 -383h-145l-12 420q-3 120 53 197q59 80 168 80q67 0 123 -41q52 -40 55 -105q3 -80 -43 -168z" />
    <glyph glyph-name="numbersign" unicode="#" horiz-adv-x="1536" 
d="M743 889l-100 -279h283l98 279h-281zM1110 305l-111 -305h-299l109 305h-272l-109 -305h-301l109 305h-195l82 309h225l98 271h-215l86 311h236l102 283h301l-100 -283l270 -2l103 285h299l-98 -285h206l-84 -309h-233l-94 -271h219l-82 -309h-252z" />
    <glyph glyph-name="dollar" unicode="$" horiz-adv-x="1345" 
d="M612 -8l-51 -187h-141l55 207q-167 41 -280 148q-119 116 -119 293q0 4 1 19.5t1 25.5l330 57q-2 -12 -2 -35q0 -75 41 -129t112 -78l78 291l-23 8q-165 49 -264 160q-100 109 -100 240q0 117 49 213.5t133 156.5q171 123 395 123h45l54 195h141l-57 -215
q91 -21 163 -67.5t115 -106.5q80 -121 80 -246l-344 -57q0 48 -24.5 95.5t-75.5 74.5l-74 -281l27 -8q94 -29 168.5 -76.5t119.5 -105.5q84 -112 84 -230q0 -234 -157 -358q-164 -129 -428 -129q-5 0 -22 1t-30 1zM870 442q0 82 -110 125l-70 -266q90 9 135 51q45 45 45 90z
M629 1057q0 -83 96 -121l70 262q-86 -6 -125 -51q-41 -47 -41 -90z" />
    <glyph glyph-name="percent" unicode="%" horiz-adv-x="2050" 
d="M285 0h317l1294 1493h-315zM588 782q-161 0 -254 90q-96 93 -96 234q0 104 54.5 196t151.5 150q94 55 213 55q162 0 258 -90q99 -91 99 -231q0 -76 -33 -150t-90 -131q-56 -58 -135.5 -90.5t-167.5 -32.5zM612 1020q59 0 99 43q41 44 41 96q0 48 -32 79.5t-85 31.5
q-58 0 -96 -41q-39 -42 -39 -96q0 -49 30.5 -81t81.5 -32zM1526 -10q-163 0 -256 90q-94 94 -94 231q0 78 31 151.5t87 129.5q57 57 136 90t165 33q163 0 258 -92q97 -91 97 -232q0 -75 -32.5 -148.5t-88.5 -129.5q-58 -58 -137 -90.5t-166 -32.5zM1548 225q61 0 101 43
q41 44 41 97q0 48 -32.5 80t-84.5 32q-58 0 -98 -43q-39 -42 -39 -96q0 -48 30.5 -80.5t81.5 -32.5z" />
    <glyph glyph-name="ampersand" unicode="&#x26;" horiz-adv-x="1423" 
d="M1133 723l239 -119q-86 -167 -239 -305l184 -299h-348l-72 119q-222 -139 -424 -139q-183 0 -301 92q-61 45 -95 117t-34 163q0 185 193 338q98 78 231 135q-102 170 -102 281q0 122 70 218t176.5 145t224.5 49q172 0 293.5 -104t121.5 -273q0 -131 -84 -228
q-83 -96 -215 -153l-78 -33l117 -195q88 91 142 191zM369 399q0 -67 47 -100q50 -35 116 -35q104 0 232 82l-160 266q-82 -33 -149 -80q-86 -58 -86 -133zM717 987l26 -41l103 43q43 20 71.5 54.5t28.5 74.5q0 53 -39 84q-36 33 -90 33q-60 0 -100 -37q-41 -33 -41 -92
q0 -53 41 -119z" />
    <glyph glyph-name="quotesingle" unicode="'" horiz-adv-x="542" 
d="M633 1171l-199 -383h-145l-13 420q-3 120 56 197q56 80 166 80q70 0 123 -41q52 -40 55 -105q0 -89 -43 -168z" />
    <glyph glyph-name="parenleft" unicode="(" horiz-adv-x="919" 
d="M1059 1669l94 -215q-354 -152 -539 -383q-188 -231 -188 -518q0 -167 80 -338q84 -173 242 -301l-177 -182q-215 139 -333 362q-115 219 -115 451q-3 263 109.5 490.5t325.5 392t501 241.5z" />
    <glyph glyph-name="parenright" unicode=")" horiz-adv-x="917" 
d="M-29 -268l-92 215q355 155 539 385q188 232 188 516q0 169 -80 340q-85 174 -243 299l178 182q144 -92 248 -229q103 -132 151 -285q49 -146 49 -299q3 -262 -109.5 -489.5t-326 -392.5t-502.5 -242z" />
    <glyph glyph-name="asterisk" unicode="*" horiz-adv-x="997" 
d="M1047 1214l16 -221l-242 -14l86 -225l-209 -80l-90 227l-190 -153l-142 174l187 151l-203 133l123 187l201 -131l65 237l221 -57l-63 -240z" />
    <glyph glyph-name="plus" unicode="+" horiz-adv-x="1169" 
d="M840 848h352l-82 -303h-352l-96 -361h-318l96 361h-352l80 303l354 2l94 354h318z" />
    <glyph glyph-name="comma" unicode="," horiz-adv-x="632" 
d="M-61 -369l41 152q111 17 184.5 71.5t95.5 135.5q-12 -10 -65 -10q-80 0 -129.5 49.5t-49.5 132.5q0 89 68 151t162 62q107 0 166 -68q57 -69 57 -180q0 -124 -80 -246q-83 -115 -205 -182q-124 -68 -245 -68z" />
    <glyph glyph-name="hyphen" unicode="-" horiz-adv-x="860" 
d="M819 772l-82 -303h-628l79 303h631z" />
    <glyph glyph-name="period" unicode="." horiz-adv-x="604" 
d="M219 -20q-88 0 -143 55q-56 56 -56 141q0 103 70 176q72 72 174 72q88 0 146 -55q55 -55 55 -144q0 -102 -72 -174q-71 -71 -174 -71z" />
    <glyph glyph-name="slash" unicode="/" horiz-adv-x="1155" 
d="M1026 1554h340l-1083 -1564h-340z" />
    <glyph glyph-name="zero" unicode="0" horiz-adv-x="1474" 
d="M920 1518q172 0 299 -80q126 -82 190 -217q61 -134 61 -303q0 -171 -52 -338.5t-150 -298.5q-149 -196 -346 -265q-104 -39 -228 -39q-173 0 -301 78q-128 81 -188 213q-64 140 -64 310q0 168 53.5 335.5t153.5 300.5q103 141 249 222.5t323 81.5zM528 594
q0 -128 52 -198t155 -70q69 0 129 39.5t99 105.5q38 58 67 143q53 146 53 287q0 126 -54 198t-157 72q-86 0 -155.5 -61.5t-108.5 -154t-59.5 -187t-20.5 -174.5z" />
    <glyph glyph-name="one" unicode="1" horiz-adv-x="995" 
d="M799 1493h307l-397 -1493h-377l274 1024l-299 -152l-145 295z" />
    <glyph glyph-name="two" unicode="2" horiz-adv-x="1314" 
d="M541 702l198 86q134 55 191 115q53 59 53 131q0 64 -47 105q-45 45 -131 45q-51 0 -100 -23q-37 -16 -60 -39q-59 -63 -59 -180l-340 35q0 108 35 199.5t96 154.5q60 63 137 105q147 82 324 82q124 0 225 -38t162 -104q123 -132 123 -309q0 -85 -26.5 -162t-68.5 -133
q-41 -54 -100 -98q-58 -46 -105.5 -72t-127.5 -61l-250 -111q-72 -31 -112 -60.5t-50 -47.5l-4 -5h663l-82 -317h-1105q58 488 561 702z" />
    <glyph glyph-name="three" unicode="3" horiz-adv-x="1327" 
d="M584 -23q-143 -3 -264.5 57t-192.5 169.5t-68 242.5q0 38 2 58l355 37q-4 -12 -4 -45q0 -87 55 -142q52 -55 141 -55q106 0 176 61q72 66 72 164q0 76 -47 119t-133 43q-62 0 -123 -27l-107 248l455 271h-618l77 315h1090l-88 -344l-399 -240q130 -38 202 -135
q74 -103 74 -227q0 -128 -53 -237t-146 -181q-192 -152 -456 -152z" />
    <glyph glyph-name="four" unicode="4" horiz-adv-x="1445" 
d="M1403 594l-88 -318h-219l-72 -276h-371l72 276h-727l102 379l879 838h440l-239 -899h223zM422 594h387l129 491z" />
    <glyph glyph-name="five" unicode="5" horiz-adv-x="1304" 
d="M465 625l-289 133l316 735h915l-86 -315h-629l-117 -273l3 -2q119 70 268 70q175 0 280 -111q105 -108 105 -291q0 -171 -90 -311q-90 -136 -240 -211q-148 -74 -319 -74q-232 0 -379 129q-150 132 -150 359l344 61v-26q0 -93 55 -148t150 -55q98 0 170 63t72 166
q0 74 -56 121q-54 45 -135 45q-93 0 -188 -65z" />
    <glyph glyph-name="six" unicode="6" horiz-adv-x="1388" 
d="M1081 1518q259 0 414 -103l-164 -297q-124 74 -289 74q-166 0 -309 -96q-139 -97 -186 -250h2q85 69 165.5 101t174.5 32q176 0 299 -117t123 -291q0 -175 -84 -311q-87 -137 -228 -209q-143 -76 -319 -76q-246 0 -399 156q-150 156 -150 410q0 194 68 374
q74 186 190 314q123 132 301 211q178 78 391 78zM492 463q0 -78 59 -125q57 -45 137 -45q100 0 174 65q74 62 74 160q0 80 -57 125q-58 43 -138 43q-97 0 -172 -63q-77 -68 -77 -160z" />
    <glyph glyph-name="seven" unicode="7" horiz-adv-x="1232" 
d="M1446 1493l-84 -311l-885 -1182h-434l885 1167h-703l86 326h1135z" />
    <glyph glyph-name="eight" unicode="8" horiz-adv-x="1351" 
d="M1358 1108q0 -141 -98 -236q-89 -86 -216 -129v-2q91 -46 148 -127q55 -79 55 -180q0 -90 -36 -167.5t-99 -131.5q-56 -48 -141 -88q-156 -70 -336 -70q-79 0 -156 15.5t-148 49t-125 81.5t-86 119t-32 155q0 155 107 262q98 95 231 140l2 2q-164 118 -164 284
q0 125 70.5 220t185.5 147q147 66 316 66q197 0 354 -99q78 -51 123 -132t45 -179zM979 1063q0 67 -49 104q-50 35 -121 35q-76 0 -127 -45q-53 -44 -53 -121q0 -65 49 -102q50 -35 117 -35q78 0 129 45q55 46 55 119zM885 473q0 71 -62 115q-61 43 -137 43q-84 0 -149 -47
q-66 -51 -66 -133q0 -76 59 -117q56 -39 140 -39q91 0 151 45q64 46 64 133z" />
    <glyph glyph-name="nine" unicode="9" horiz-adv-x="1392" 
d="M455 -25q-128 0 -240 28.5t-182 74.5l164 297q51 -33 141 -53q79 -21 156 -21q172 0 309 98q139 97 186 250h-2q-167 -135 -344 -135q-170 -3 -299.5 120.5t-128.5 293.5q0 166 86 307q86 136 229 209q145 74 318 74q241 0 395 -160t154 -414q0 -193 -66 -373
q-68 -179 -186 -309q-120 -132 -299 -209q-182 -78 -391 -78zM1036 1030q0 77 -57 125q-57 45 -139 45q-99 0 -174 -63q-72 -63 -72 -162q0 -80 55 -123q57 -45 139 -45q93 0 170 65q78 66 78 158z" />
    <glyph glyph-name="colon" unicode=":" horiz-adv-x="641" 
d="M221 -20q-88 0 -143 55q-58 55 -58 141q0 101 72 176q72 72 172 72q88 0 146 -55q57 -54 57 -144q0 -102 -72 -174q-71 -71 -174 -71zM387 596q-89 0 -143 57q-58 52 -58 142q0 103 70 176q74 71 174 71q88 0 145 -57q58 -55 58 -141q0 -102 -72 -174q-74 -74 -174 -74z
" />
    <glyph glyph-name="semicolon" unicode=";" horiz-adv-x="659" 
d="M-66 -369l41 152q111 17 186 71.5t97 135.5q-15 -10 -65 -10q-80 0 -130.5 50t-50.5 132q0 90 70 151q65 62 160 62q109 0 168 -68q55 -70 55 -180q0 -128 -80 -246q-80 -114 -203 -182q-124 -68 -248 -68zM397 596q-89 0 -143 57q-57 51 -57 142q0 104 69 176
q74 71 174 71q89 0 146 -57q57 -54 57 -141q0 -102 -72 -174q-74 -74 -174 -74z" />
    <glyph glyph-name="less" unicode="&#x3c;" horiz-adv-x="1212" 
d="M1288 1278l-90 -338l-715 -254l576 -266l-80 -301l-889 450l68 256z" />
    <glyph glyph-name="equal" unicode="=" horiz-adv-x="1210" 
d="M1249 1092l-80 -301h-968l80 301h968zM1120 602l-80 -297h-970l80 297h970z" />
    <glyph glyph-name="greater" unicode="&#x3e;" horiz-adv-x="1214" 
d="M129 455l717 258l-580 262l82 303l889 -453l-70 -256l-1128 -450z" />
    <glyph glyph-name="question" unicode="?" horiz-adv-x="1167" 
d="M541 -23q-83 0 -135 52q-54 54 -54 133q0 93 68 164q64 67 162 67q79 0 135 -53q53 -50 53 -133q0 -96 -65 -164q-69 -66 -164 -66zM598 788l127 101q76 59 111.5 104t35.5 92q0 53 -38 81t-97 28q-78 0 -127 -64q-49 -61 -49 -141l-338 41q0 108 48 203t130 158
q173 127 390 127q176 0 309 -88q66 -45 103.5 -117.5t37.5 -161.5q0 -108 -49 -190q-47 -81 -117 -142l-133 -108q-75 -59 -119 -111q-33 -42 -45 -102h-338q0 78 45 157q48 83 113 133z" />
    <glyph glyph-name="at" unicode="@" horiz-adv-x="1669" 
d="M1085 881l31 90h225q-153 -463 -153 -525q0 -57 51 -57q57 0 109.5 37.5t87.5 97.5q69 125 69 242q0 136 -78 246q-79 107 -200 162q-126 55 -256 55q-141 0 -273 -60q-140 -65 -225 -157q-94 -99 -149 -232q-58 -138 -58 -274q0 -228 156 -381q156 -150 395 -150
q106 0 221 37q119 38 205 97l64 -119q-85 -68 -234 -117q-149 -45 -266 -45q-141 0 -267 48.5t-221 135.5q-95 88 -149.5 214t-54.5 270q0 176 67 338q70 165 183 278q109 115 274 188q162 72 338 72q146 2 290 -58.5t244 -164.5q68 -73 107 -166.5t39 -196.5
q0 -121 -48 -240t-132 -206q-57 -58 -133.5 -91.5t-161.5 -33.5q-62 0 -121 27q-62 27 -80 80q-48 -51 -111 -78q-65 -33 -131 -33q-114 0 -192 90q-78 87 -78 207q0 119 61 229q59 110 164 174q103 68 219 68q55 0 107 -27q53 -24 65 -71zM1022 653q0 48 -30 77.5t-79 29.5
q-76 0 -141 -68q-61 -70 -61 -149q0 -51 29 -85t77 -34q77 0 141 76q64 73 64 153z" />
    <glyph glyph-name="A" unicode="A" horiz-adv-x="1560" 
d="M1241 1493l232 -1493h-390l-39 274h-595l-173 -274h-405l940 1493h430zM639 594h362l-69 487z" />
    <glyph glyph-name="B" unicode="B" horiz-adv-x="1441" 
d="M778 604h-221l-76 -280h250q95 -2 164.5 40t69.5 121q0 119 -187 119zM895 1171h-188l-72 -270h211q101 0 166 39q65 38 65 117q0 114 -182 114zM674 0h-645l397 1493h496q100 0 186 -14q115 -19 199 -68q155 -93 155 -276q0 -146 -96 -250q-98 -101 -242 -131v-2
q107 -34 167.5 -113t60.5 -184q0 -201 -166 -324q-177 -131 -512 -131z" />
    <glyph glyph-name="C" unicode="C" horiz-adv-x="1648" 
d="M141 645q0 180 70 338q73 165 190 279q125 122 283 186q162 70 340 70q136 0 248 -32t185.5 -83t127.5 -120.5t81.5 -137.5t39.5 -141l-365 -113q-21 104 -94 182q-41 44 -109.5 69t-154.5 25q-90 0 -174.5 -42t-146.5 -113q-60 -72 -95 -160.5t-35 -175.5
q0 -155 95 -250q101 -96 262 -96q180 0 309 133q53 58 94 141l336 -129q-59 -147 -178 -264q-65 -63 -154 -119q-86 -53 -203.5 -84t-244.5 -31q-146 0 -276.5 49t-225.5 138q-97 87 -151 212.5t-54 268.5z" />
    <glyph glyph-name="D" unicode="D" horiz-adv-x="1576" 
d="M549 0h-520l395 1493h407q171 0 306.5 -38t234.5 -114t152 -197t53 -280q0 -162 -68 -327q-68 -160 -200 -283q-272 -254 -760 -254zM1182 834q0 313 -387 313h-84l-213 -799h98q125 0 230.5 32t172.5 85q66 53 107 117q76 117 76 252z" />
    <glyph glyph-name="E" unicode="E" horiz-adv-x="1308" 
d="M1163 336l-88 -336h-1046l397 1493h1040l-88 -334h-665l-66 -244h606l-86 -321h-606l-69 -258h671z" />
    <glyph glyph-name="F" unicode="F" horiz-adv-x="1284" 
d="M426 1493h1038l-92 -342h-659l-74 -270h600l-88 -330h-598l-147 -551h-377z" />
    <glyph glyph-name="G" unicode="G" horiz-adv-x="1665" 
d="M1673 1065l-368 -111q-21 89 -101 154q-81 66 -217 66q-119 0 -229 -72q-109 -74 -172 -189q-64 -122 -64 -239q0 -150 96 -254q94 -101 269 -101q122 0 217 56q92 51 141 145h-430l70 295h792q-6 -197 -85.5 -373.5t-219.5 -294.5q-99 -81 -233 -126.5t-289 -45.5
q-153 -2 -285.5 48t-226 138.5t-145.5 214t-50 269.5q0 179 72 346q69 160 191 279q118 112 282 180q160 66 340 66q119 0 224 -28t178 -75q70 -46 122 -104q98 -112 121 -244z" />
    <glyph glyph-name="H" unicode="H" horiz-adv-x="1619" 
d="M1731 1493l-400 -1493h-377l158 582h-553l-153 -582h-379l399 1493h377l-152 -563h553l150 563h377z" />
    <glyph glyph-name="I" unicode="I" horiz-adv-x="692" 
d="M803 1493l-400 -1493h-374l397 1493h377z" />
    <glyph glyph-name="J" unicode="J" horiz-adv-x="1228" 
d="M489 -20q-190 0 -317 100q-66 51 -103.5 130t-37.5 175q0 40 8 80q0 7 8 47q5 27 10 41q1 2 15 51q2 9 12 49l362 23l-16 -66q-19 -83 -20 -90q-11 -50 -11 -65q0 -125 125 -125q64 0 110 41t64 110l271 1012h383l-279 -1036q-62 -233 -208.5 -355t-375.5 -122z" />
    <glyph glyph-name="K" unicode="K" horiz-adv-x="1454" 
d="M973 737l364 -737h-419l-320 713l-190 -713h-379l397 1493h381l-170 -633h2l600 633h481z" />
    <glyph glyph-name="L" unicode="L" horiz-adv-x="1177" 
d="M498 342h620l-90 -342h-999l397 1493h379z" />
    <glyph glyph-name="M" unicode="M" horiz-adv-x="2013" 
d="M2124 1493l-400 -1493h-370l254 944h-4l-611 -944h-225l-125 938h-4l-250 -938h-360l397 1493h465l123 -915l590 915h520z" />
    <glyph glyph-name="N" unicode="N" horiz-adv-x="1654" 
d="M1765 1493l-399 -1493h-412l-303 926h-2l-248 -926h-372l397 1493h424l295 -911h2l244 911h374z" />
    <glyph glyph-name="O" unicode="O" horiz-adv-x="1738" 
d="M1028 1518q154 0 288 -51t226 -142q93 -90 144 -212t51 -259q0 -177 -72 -344q-71 -164 -192 -279q-119 -116 -283 -184q-162 -70 -338 -70q-138 0 -265 44t-227 126q-99 82 -157 211q-60 126 -60 287q0 182 72 342q71 164 191 281q118 115 280 182q168 68 342 68z
M532 674q0 -163 103 -252q100 -92 250 -92q122 0 231 71q104 68 168 183q62 115 62 239q0 144 -97 246q-94 98 -256 98q-91 0 -176.5 -41.5t-148.5 -111.5q-63 -69 -99.5 -158.5t-36.5 -181.5z" />
    <glyph glyph-name="P" unicode="P" horiz-adv-x="1359" 
d="M788 516h-245l-137 -516h-379l399 1493h465q225 0 356 -70q100 -54 152.5 -145t52.5 -209v-27q-1 -4 -2.5 -20t-3.5 -29q-5 -60 -39 -137q-35 -86 -107 -158q-43 -43 -92 -71q-170 -111 -420 -111zM870 1163h-155l-86 -327h155q104 0 191 41q90 47 90 151q0 56 -37 90
q-48 45 -158 45z" />
    <glyph glyph-name="Q" unicode="Q" horiz-adv-x="1742" 
d="M1028 1518q154 0 288 -51t226 -142q93 -90 144 -212t51 -259q0 -177 -67.5 -333.5t-192.5 -278.5l110 -148l-264 -174l-98 141q-182 -84 -373 -84q-138 0 -265 44t-227 126q-99 82 -157 211q-60 126 -60 287q0 182 72 342q71 164 191 281q118 115 280 182q168 68 342 68z
M530 670q0 -161 103 -254q100 -92 252 -92q67 0 131 24l-174 238l264 176l151 -221q89 134 89 278q0 148 -97 250q-94 98 -256 98q-91 0 -177.5 -41.5t-149.5 -111.5t-99.5 -161t-36.5 -183z" />
    <glyph glyph-name="R" unicode="R" horiz-adv-x="1423" 
d="M1235 0h-381l-154 524h-153l-141 -524h-377l397 1493h465q328 0 475 -141q109 -106 109 -287q0 -172 -99 -301q-98 -131 -309 -193zM889 1167h-172l-86 -321h180q124 0 199 47q77 48 77 139q0 52 -30 86q-46 49 -168 49z" />
    <glyph glyph-name="S" unicode="S" horiz-adv-x="1343" 
d="M877 438q0 91 -136 133l-125 39q-167 52 -268 162q-102 111 -102 244q0 97 33 180t90 142t132.5 100t160 61t172.5 19q232 0 370 -103q69 -52 103 -104q75 -109 75 -242l-350 -57q0 68 -43 125q-49 69 -166 69q-103 0 -149 -53q-43 -46 -43 -92q0 -94 125 -131l127 -39
q200 -62 293 -186q88 -116 88 -234q0 -231 -162 -362q-160 -129 -436 -129q-133 0 -257 41.5t-210 121.5q-60 55 -94.5 134.5t-34.5 171.5q0 10 1 24.5t1 18.5l336 59q-5 -30 -5 -37q0 -103 74 -162q70 -61 176 -61q110 0 166 47q58 46 58 100z" />
    <glyph glyph-name="T" unicode="T" horiz-adv-x="1284" 
d="M1518 1493l-88 -342h-422l-306 -1151h-378l307 1151h-422l92 342h1217z" />
    <glyph glyph-name="U" unicode="U" horiz-adv-x="1525" 
d="M1268 1493h381l-252 -942q-76 -292 -242 -432q-164 -139 -459 -139q-208 0 -336 76.5t-174 211.5q-63 168 -2 394l222 831h380l-229 -858q-37 -141 12 -223q50 -84 176 -84q214 0 287 278z" />
    <glyph glyph-name="V" unicode="V" horiz-adv-x="1499" 
d="M1315 1493h416l-891 -1493h-398l-180 1493h406l92 -979z" />
    <glyph glyph-name="W" unicode="W" horiz-adv-x="2289" 
d="M1720 0h-387l-61 995h-2l-535 -995h-383l-86 1493h385l29 -944h6l510 944h363l71 -946h4l480 946h401z" />
    <glyph glyph-name="X" unicode="X" horiz-adv-x="1472" 
d="M1032 756l334 -756h-414l-198 479l-435 -479h-452l725 782l-316 711h414l180 -438l394 438h450z" />
    <glyph glyph-name="Y" unicode="Y" horiz-adv-x="1449" 
d="M1270 1493h446l-794 -944l-146 -549h-377l156 592l-272 901h401l145 -549z" />
    <glyph glyph-name="Z" unicode="Z" horiz-adv-x="1327" 
d="M1419 1178l-889 -842h668l-92 -336h-1159l84 317l887 844h-631l90 332h1126z" />
    <glyph glyph-name="bracketleft" unicode="[" horiz-adv-x="872" 
d="M686 12l-68 -258h-655l508 1899h655l-71 -260h-353l-368 -1381h352z" />
    <glyph glyph-name="backslash" unicode="\" horiz-adv-x="1116" 
d="M934 -10h-324l-280 1564h321z" />
    <glyph glyph-name="bracketright" unicode="]" horiz-adv-x="874" 
d="M1026 1653l-508 -1899h-653l67 258h355l368 1381h-354l70 260h655z" />
    <glyph glyph-name="asciicircum" unicode="^" horiz-adv-x="1259" 
d="M1053 1493l239 -633h-319l-125 377l-326 -377h-348l582 633h297z" />
    <glyph glyph-name="underscore" unicode="_" horiz-adv-x="1112" 
d="M954 -94l-71 -271h-1110l71 271h1110z" />
    <glyph glyph-name="grave" unicode="`" horiz-adv-x="630" 
d="M799 1188h-256l-285 373h377z" />
    <glyph glyph-name="a" unicode="a" horiz-adv-x="1314" 
d="M731 111h-4q-131 -131 -293 -131q-118 0 -201 59q-88 63 -127 154q-43 90 -43 202q0 122 46 246q48 124 120 207q75 88 179.5 139t216.5 51q198 0 307 -149h2l37 129h362l-223 -832q-22 -84 -25 -151v-35h-364v33q1 11 3 28t3.5 29t3.5 21zM606 299q99 0 172 76
q74 77 74 182q0 76 -47 117q-48 45 -125 45q-101 0 -174 -76q-74 -77 -74 -184q0 -72 47.5 -116t126.5 -44z" />
    <glyph glyph-name="b" unicode="b" horiz-adv-x="1312" 
d="M1257 625q0 -137 -45 -256q-47 -121 -122 -205q-78 -86 -180.5 -135t-209.5 -49q-204 0 -311 157h-4l-37 -137h-358l416 1554h362l-172 -641h4q134 125 289 125q140 0 252 -98q54 -48 85 -131t31 -184zM645 301q99 0 172 76q74 77 74 184q0 72 -47.5 116t-124.5 44
q-98 0 -176 -78q-74 -77 -74 -182q0 -72 49 -115q48 -45 127 -45z" />
    <glyph glyph-name="c" unicode="c" horiz-adv-x="1189" 
d="M580 -23q-238 0 -373 132q-135 129 -135 346q0 121 49 231q51 111 135 186q85 79 197 124.5t231 45.5q107 0 198 -31.5t152 -86.5q123 -111 144 -258l-334 -95q-13 67 -58.5 107.5t-119.5 40.5q-104 0 -174 -76q-68 -77 -68 -178q0 -75 48 -120.5t132 -45.5
q67 0 122.5 37t82.5 96l303 -115q-60 -144 -207 -243q-148 -97 -325 -97z" />
    <glyph glyph-name="d" unicode="d" horiz-adv-x="1314" 
d="M1112 1554h363l-365 -1368q-22 -77 -25 -151v-35h-364v33q4 48 10 78h-4q-134 -131 -293 -131q-118 0 -201 59q-85 59 -129 154q-41 93 -41 202q0 122 46 246q48 124 120 207q75 88 179.5 139t216.5 51q198 0 307 -149h2zM604 299q101 0 174 76q74 77 74 182
q0 76 -47 117q-48 45 -125 45q-104 0 -174 -76q-74 -77 -74 -184q0 -72 47 -116t125 -44z" />
    <glyph glyph-name="e" unicode="e" horiz-adv-x="1204" 
d="M1110 418h-700q0 -71 59 -115q58 -43 125 -43q66 0 120.5 25.5t82.5 76.5l282 -126q-88 -164 -284 -226q-103 -33 -211 -33q-225 0 -369 129q-145 130 -145 345q0 117 49 227q55 114 135 188q84 81 197 127q118 47 237 47q189 0 322 -108q66 -54 103.5 -134t37.5 -173
q0 -104 -41 -207zM674 764q-71 0 -133 -39q-69 -44 -92 -107h360q8 20 8 31q0 56 -39 85.5t-104 29.5z" />
    <glyph glyph-name="f" unicode="f" horiz-adv-x="866" 
d="M1124 1518l-73 -281q-52 20 -99 20q-80 0 -125.5 -38t-70.5 -121l-25 -80h250l-80 -297h-246l-192 -721h-361l195 721h-188l77 297h187l39 141q50 183 176 291q127 109 336 109q135 0 200 -41z" />
    <glyph glyph-name="g" unicode="g" horiz-adv-x="1306" 
d="M434 -203q98 0 167.5 66t103.5 188l20 80q-79 -60 -137 -84q-62 -27 -150 -27q-156 0 -262 115q-108 114 -108 277q0 127 45 237q44 118 116 199q75 84 174 135q105 51 211 51q208 0 316 -153h2l37 137h358l-258 -971q-39 -148 -80 -221q-87 -163 -227.5 -249.5
t-325.5 -86.5q-159 0 -273.5 53t-176.5 142q-80 111 -80 237l327 66q0 -81 54 -138q56 -53 147 -53zM602 317q95 0 166 74q72 75 72 174q0 69 -47 113q-46 43 -119 43q-97 0 -168 -74q-70 -73 -70 -176q0 -69 45.5 -111.5t120.5 -42.5z" />
    <glyph glyph-name="h" unicode="h" horiz-adv-x="1241" 
d="M1151 551l-147 -551h-363l143 537q9 37 9 61q0 52 -28.5 80.5t-80.5 28.5q-143 0 -186 -166l-146 -541h-362l416 1554h358l-172 -649h4q136 133 293 133q145 0 217 -84q74 -83 74 -217q0 -73 -29 -186z" />
    <glyph glyph-name="i" unicode="i" horiz-adv-x="606" 
d="M262 1018h365l-271 -1018h-366zM518 1155q-81 0 -137 53q-53 50 -53 133q0 99 67 166q68 68 164 68q78 0 135 -51q54 -54 54 -138q0 -97 -66 -163q-71 -68 -164 -68z" />
    <glyph glyph-name="j" unicode="j" horiz-adv-x="622" 
d="M276 1018h367l-305 -1143q-52 -191 -166.5 -284t-306.5 -93q-41 0 -109 15q-63 15 -98 36l72 273q48 -23 92 -23q132 0 162 121zM532 1155q-80 0 -133 53q-55 49 -55 133q0 98 68 166t161 68q84 0 138 -51q55 -55 55 -138q0 -95 -68 -163t-166 -68z" />
    <glyph glyph-name="k" unicode="k" horiz-adv-x="1216" 
d="M694 0l-209 502l-133 -502h-362l416 1554h362l-256 -952h6l383 416h451l-492 -506l227 -512h-393z" />
    <glyph glyph-name="l" unicode="l" horiz-adv-x="606" 
d="M770 1554l-414 -1554h-366l416 1554h364z" />
    <glyph glyph-name="m" unicode="m" horiz-adv-x="1867" 
d="M1137 541l-144 -541h-362l143 539q8 33 8 61q0 107 -102 107q-69 0 -115 -43.5t-67 -120.5l-146 -543h-362l272 1018h361l-31 -113h2q139 133 291 133q199 0 260 -168q155 168 368 168q141 0 218 -79t77 -220q0 -74 -28 -186l-150 -553h-358l141 539q10 42 10 61
q0 107 -104 107q-136 0 -182 -166z" />
    <glyph glyph-name="n" unicode="n" horiz-adv-x="1241" 
d="M1151 551l-147 -551h-363l143 537q9 37 9 61q0 52 -28.5 80.5t-80.5 28.5q-143 0 -186 -166l-146 -541h-362l272 1018h361l-31 -113h4q136 133 293 133q145 0 217 -84q74 -83 74 -217q0 -73 -29 -186z" />
    <glyph glyph-name="o" unicode="o" horiz-adv-x="1247" 
d="M594 299q99 0 170 74q67 73 67 178q0 75 -47.5 121.5t-124.5 46.5q-100 0 -167 -76q-70 -73 -70 -176q0 -74 45.5 -121t126.5 -47zM575 -23q-236 0 -370 134q-135 132 -135 340q0 112 45.5 219t126.5 190q80 83 194 131q113 49 242 49q117 0 214 -35.5t163 -99.5
q133 -136 133 -336q0 -114 -45.5 -221t-128.5 -190q-74 -80 -195 -131q-115 -50 -244 -50z" />
    <glyph glyph-name="p" unicode="p" horiz-adv-x="1312" 
d="M1257 625q0 -137 -45 -256q-47 -121 -122 -205q-78 -86 -180.5 -135t-209.5 -49q-204 0 -311 157h-4l-170 -639h-358l405 1520h363l-29 -105h4q134 125 289 125q140 0 252 -98q54 -48 85 -131t31 -184zM645 301q99 0 172 76q74 77 74 184q0 72 -47.5 116t-124.5 44
q-98 0 -176 -78q-74 -77 -74 -182q0 -72 49 -115q48 -45 127 -45z" />
    <glyph glyph-name="q" unicode="q" horiz-adv-x="1310" 
d="M434 -20q-118 0 -201 59q-88 63 -127 154q-43 90 -43 202q0 122 46 246q48 124 120 207q75 88 179.5 139t216.5 51q198 0 307 -149h2l35 129h362l-405 -1520h-359l164 613h-4q-134 -131 -293 -131zM604 299q101 0 174 76q74 77 74 182q0 76 -47 117q-48 45 -125 45
q-104 0 -174 -76q-74 -77 -74 -184q0 -72 47 -116t125 -44z" />
    <glyph glyph-name="r" unicode="r" horiz-adv-x="880" 
d="M979 1012l-94 -350q-53 18 -115 18q-101 0 -176 -45q-83 -51 -123 -189l-119 -446h-362l272 1018h359l-35 -127h4q124 139 297 139q55 0 92 -18z" />
    <glyph glyph-name="s" unicode="s" horiz-adv-x="1024" 
d="M578 1040q98 0 180 -29.5t131 -78.5q96 -93 96 -201v-6l-303 -35q0 50 -35 74t-74 24q-42 0 -67 -21t-25 -46q0 -39 60 -57l100 -33q145 -46 215 -131q55 -72 55 -181q0 -132 -116 -235q-59 -49 -148.5 -78t-193.5 -29q-97 0 -178 21.5t-130 56.5q-48 35 -77 78
q-58 80 -58 160v14l295 49q0 -55 43 -90q42 -33 103 -33q52 0 80 21.5t28 50.5q0 47 -76 74l-71 22q-105 40 -156 76q-35 22 -61 55q-54 68 -54 162q0 150 125 248q122 98 312 98z" />
    <glyph glyph-name="t" unicode="t" horiz-adv-x="894" 
d="M758 297l-76 -287q-77 -26 -197 -26q-141 0 -225 75q-86 74 -86 211q0 56 19 127l83 320h-190l80 301h201l88 330h354l-88 -330h235l-79 -301h-236l-82 -307q-6 -14 -6 -41q0 -82 111 -82q53 0 94 10z" />
    <glyph glyph-name="u" unicode="u" 
d="M659 113h-4q-136 -133 -293 -133q-140 0 -217 86q-73 85 -73 215q0 68 28 186l148 551h362l-143 -537q-8 -31 -8 -61q0 -54 27.5 -82.5t80.5 -28.5q143 0 187 168l145 541h363l-222 -832q-20 -68 -26 -151v-35h-365v37q9 73 10 76z" />
    <glyph glyph-name="v" unicode="v" horiz-adv-x="1202" 
d="M522 1018l58 -588l362 588h389l-680 -1018h-360l-137 1018h368z" />
    <glyph glyph-name="w" unicode="w" horiz-adv-x="1732" 
d="M883 545h-2l-324 -545h-344l-53 1018h356l12 -547h2l324 547h295l37 -551h2l315 551h350l-596 -1018h-344z" />
    <glyph glyph-name="x" unicode="x" horiz-adv-x="1200" 
d="M813 502l262 -502h-395l-121 268l-242 -268h-432l516 526l-258 492h398l116 -266l236 266h426z" />
    <glyph glyph-name="y" unicode="y" horiz-adv-x="1191" 
d="M936 1018h383l-965 -1520h-379l314 500l-133 1020h356l63 -604h3z" />
    <glyph glyph-name="z" unicode="z" horiz-adv-x="1060" 
d="M926 297l-78 -297h-901l80 287l536 432h-405l78 299h878l-72 -268l-561 -453h445z" />
    <glyph glyph-name="braceleft" unicode="{" horiz-adv-x="892" 
d="M528 416l-47 -125q-35 -96 -45 -139q-12 -52 4 -91q17 -49 142 -49h125l-70 -258h-137q-251 0 -340 125t0 361l59 159q35 96 -3 130t-150 34l75 287q117 0 170 33q57 31 72 129l31 196q26 156 85 250.5t158 138.5q123 56 324 56h164l-70 -260h-123q-86 -1 -135 -25
t-78 -78q-34 -67 -53 -180l-29 -149q-18 -106 -73 -166q-65 -71 -207 -86v-7q87 -19 130.5 -62.5t44 -100t-23.5 -123.5z" />
    <glyph glyph-name="bar" unicode="|" horiz-adv-x="614" 
d="M778 1700l-512 -1921h-297l512 1921h297z" />
    <glyph glyph-name="braceright" unicode="}" horiz-adv-x="892" 
d="M479 993l47 123q33 90 43 125q12 49 6 88q-9 66 -147 66h-125l70 258h137q249 0 338 -125t2 -361l-62 -159q-35 -96 3.5 -128.5t152.5 -35.5l-76 -285q-109 -3 -172 -35q-55 -34 -69 -129l-33 -194q-43 -261 -182 -357q-71 -50 -161.5 -70t-223.5 -20h-162l69 258h121
q88 3 136 26t77 77q33 59 56 182l26 149q17 102 76 166q62 68 205 86v7q-239 52 -152 288z" />
    <glyph glyph-name="asciitilde" unicode="~" horiz-adv-x="1261" 
d="M834 387q-106 -2 -232 96q-76 54 -121 54q-101 0 -192 -117l-189 178q88 126 182 191t207 65q56 0 117 -25q49 -18 99 -51q101 -76 143 -76q97 0 182 113l193 -174q-58 -81 -111 -132.5t-123 -86.5q-75 -35 -155 -35z" />
    <glyph glyph-name="uni00A0" unicode="&#xa0;" horiz-adv-x="446" 
 />
    <glyph glyph-name="exclamdown" unicode="&#xa1;" horiz-adv-x="638" 
d="M430 1042q81 0 135 -51q51 -51 51 -135q0 -97 -65 -162q-66 -69 -162 -69q-82 0 -135 53q-53 50 -53 133q0 96 65 164q67 67 164 67zM160 510h329l-233 -985h-391z" />
    <glyph glyph-name="cent" unicode="&#xa2;" horiz-adv-x="1241" 
d="M594 -20h-27l-45 -175h-135l49 191q-165 40 -258 162q-92 124 -92 297q0 123 51 231q50 109 133 186q84 79 195.5 123.5t230.5 44.5h15l47 174h135l-49 -190q149 -35 237 -133q92 -106 109 -225l-332 -93q-18 99 -102 134l-107 -406q57 7 102.5 42.5t71.5 86.5l301 -113
q-61 -146 -206 -241q-140 -96 -324 -96zM524 317l105 398q-87 -18 -137 -90q-54 -72 -54 -160q0 -104 86 -148z" />
    <glyph glyph-name="sterling" unicode="&#xa3;" horiz-adv-x="1380" 
d="M758 0h-783l80 303q119 21 211 123q92 100 107 217h-215l63 244h141v18q0 282 146 447q147 166 403 166q127 0 232 -47t170 -138q67 -94 67 -215q0 -14 -6 -69l-358 -39q0 4 1 18t1 23q0 64 -36 104.5t-101 40.5q-61 0 -101.5 -35t-55.5 -82t-15 -104q0 -39 6 -88h360
l-65 -244h-291q-35 -212 -217 -319h231q216 0 258 196l312 -53q-35 -201 -170 -330q-67 -65 -164 -101t-211 -36z" />
    <glyph glyph-name="currency" unicode="&#xa4;" horiz-adv-x="1443" 
d="M268 516q0 116 54 213l-158 162l192 192l164 -168q100 50 207 50q118 0 207 -50l166 166l190 -190l-157 -162q55 -91 55 -213q0 -113 -55 -217l159 -158l-190 -192l-166 166q-94 -47 -209 -47q-113 0 -207 47l-166 -166l-190 194l160 160q-56 92 -56 213zM547 514
q0 -77 51 -125q49 -49 129 -49q78 0 127 49q51 48 51 125q0 81 -51 129q-47 47 -127 47q-82 0 -129 -47q-51 -48 -51 -129z" />
    <glyph glyph-name="yen" unicode="&#xa5;" horiz-adv-x="1519" 
d="M977 612l-29 -112h410l-58 -219h-411l-74 -281h-379l76 281h-410l60 219h407l31 112h-407l57 217h317l-239 664h413l140 -479l395 479h442l-594 -664h322l-57 -217h-412z" />
    <glyph glyph-name="brokenbar" unicode="&#xa6;" horiz-adv-x="610" 
d="M281 954l198 746h297l-198 -746h-297zM-33 -221l199 743h295l-197 -743h-297z" />
    <glyph glyph-name="section" unicode="&#xa7;" horiz-adv-x="1308" 
d="M739 311q0 30 -33.5 51.5t-123.5 49.5l-117 34q-318 99 -318 289q0 209 283 277q-82 88 -82 180q0 140 133 233q134 93 359 93q322 0 487 -213l-217 -170q-114 120 -279 120q-57 0 -89.5 -18t-32.5 -53q0 -30 33 -52t116 -47l115 -36q327 -99 327 -291q0 -206 -282 -277
q82 -88 82 -178q0 -141 -133 -233q-134 -93 -361 -93q-158 0 -279.5 55.5t-195.5 160.5l209 167q107 -122 274 -122q58 0 91.5 18.5t33.5 54.5zM823 819l-51 17q-137 47 -199 47q-52 0 -86 -24t-34 -64q0 -35 35 -61t116 -54l45 -14q148 -56 225 -56q49 0 84 24.5t35 61.5
q0 38 -38 64.5t-132 58.5z" />
    <glyph glyph-name="dieresis" unicode="&#xa8;" horiz-adv-x="1019" 
d="M481 1176q-79 0 -123 47q-49 46 -49 120q0 88 62 150q58 61 147 61q73 0 123 -47q49 -49 49 -123q0 -89 -61 -147q-61 -61 -148 -61zM975 1176q-77 0 -121 47q-49 46 -49 120q0 89 61 150q58 61 148 61q76 0 123 -47q49 -49 49 -123q0 -85 -62 -147q-61 -61 -149 -61z
" />
    <glyph glyph-name="copyright" unicode="&#xa9;" horiz-adv-x="1734" 
d="M1233 41q-139 -60 -295 -60t-297 60q-145 60 -244 162q-106 103 -166 243q-61 143 -61 302t61 299q61 143 166 245q97 100 244 164q142 62 297 62q154 0 299 -62q140 -58 244 -162q103 -103 164 -243q59 -145 59 -299q0 -157 -62 -299q-62 -145 -163 -246
q-104 -104 -246 -166zM936 1389q-126 0 -242 -49.5t-202 -137.5q-83 -83 -134 -203q-49 -119 -49 -247q0 -129 49 -248q51 -117 136 -205q89 -89 202 -137q111 -51 240 -51q126 0 241 48t201 134q87 87 137 206.5t50 248.5q0 171 -84 321q-83 148 -228 234t-317 86z
M1114 680l283 -86q-41 -151 -162 -234q-122 -84 -281 -84q-136 0 -249 60.5t-181 169.5q-65 112 -65 246t67 241q68 104 183 168q113 58 245 58q159 0 281 -82q123 -84 158 -232l-285 -86q-17 52 -58.5 82.5t-95.5 30.5q-73 0 -123 -53q-49 -55 -49 -129q0 -75 52 -127
q48 -54 122 -54q52 0 94 30t64 81z" />
    <glyph glyph-name="ordfeminine" unicode="&#xaa;" horiz-adv-x="1044" 
d="M737 815h-8q-90 -90 -201 -90q-122 0 -188 84q-70 89 -70 205q0 183 117 315q115 133 275 133q137 0 210 -104h7l22 90h254l-154 -580q-15 -56 -18 -104v-27h-254v25q0 29 8 53zM647 946q71 0 121 53q53 53 53 127q0 51 -34 82t-87 31q-73 0 -120 -53q-52 -55 -52 -127
q0 -51 32 -82t87 -31zM98 350l60 223h764l-60 -223h-764z" />
    <glyph glyph-name="guillemotleft" unicode="&#xab;" horiz-adv-x="1333" 
d="M420 541l190 -252l-209 -160l-329 444l561 441l149 -193zM983 541l191 -252l-209 -160l-330 444l561 441l150 -193z" />
    <glyph glyph-name="logicalnot" unicode="&#xac;" horiz-adv-x="1378" 
d="M901 440l92 348h-839l79 297h1178l-172 -645h-338z" />
    <glyph glyph-name="uni00AD" unicode="&#xad;" horiz-adv-x="860" 
d="M819 772l-82 -303h-628l79 303h631z" />
    <glyph glyph-name="registered" unicode="&#xae;" horiz-adv-x="1251" 
d="M1214 1260q70 -122 70 -265t-70 -262q-72 -122 -190 -190q-123 -72 -262 -72t-262 72q-123 70 -193 190q-69 123 -69 262t69 265q70 120 193 190q124 70 262 70t262 -70q118 -68 190 -190zM1049 705q118 124 118 292q0 169 -118 293q-121 121 -289 121q-166 0 -287 -121
q-119 -122 -119 -293q0 -170 119 -292q121 -121 287 -121q168 0 289 121zM907 932l119 -236h-160l-106 211h-62v-211h-151v600h246q105 0 165 -50t60 -142q0 -126 -111 -172zM780 1165h-82v-131h82q86 0 86 64q0 67 -86 67z" />
    <glyph glyph-name="degree" unicode="&#xb0;" horiz-adv-x="890" 
d="M575 752q-147 0 -245 94q-94 91 -94 241q0 177 120 297q121 121 293 121q146 0 246 -92q96 -96 96 -244q2 -111 -55 -208.5t-153.5 -154t-207.5 -54.5zM598 983q69 0 115 49q45 45 45 113q0 56 -37 92.5t-94 36.5q-66 0 -113 -47q-45 -45 -45 -115q0 -57 36 -93t93 -36z
" />
    <glyph glyph-name="plusminus" unicode="&#xb1;" horiz-adv-x="1257" 
d="M854 727l-82 -301h-315l80 301h-355l82 303h352l80 299h318l-80 -299h354l-82 -303h-352zM-18 -29l81 308h1024l-81 -308h-1024z" />
    <glyph glyph-name="uni00B2" unicode="&#xb2;" horiz-adv-x="919" 
d="M903 811h-713l13 63q25 128 109.5 214t228.5 145l125 51q48 19 86 51q39 29 39 70q0 27 -24 43t-54 16q-57 0 -95 -41q-34 -39 -34 -98l-250 29q21 150 139 245q118 97 277 97q121 0 218 -66t97 -178q0 -211 -295 -340q-129 -54 -176 -78h369z" />
    <glyph glyph-name="uni00B3" unicode="&#xb3;" horiz-adv-x="890" 
d="M569 1020q38 0 84 27q37 27 37 63q0 32 -22 49t-54 17t-90 -21l-59 156l219 133h-344l61 233h701l-53 -204l-230 -142q57 -17 103 -82q41 -62 41 -125q0 -77 -33.5 -142t-91.5 -105q-124 -84 -271 -84q-202 0 -293 108q-49 58 -49 141v23l246 72v-7q0 -47 27.5 -78.5
t70.5 -31.5z" />
    <glyph glyph-name="acute" unicode="&#xb4;" horiz-adv-x="768" 
d="M535 1188h-293l315 373h404z" />
    <glyph glyph-name="uni00B5" unicode="&#xb5;" horiz-adv-x="1300" 
d="M-76 -326l359 1344h362l-143 -537q-10 -42 -10 -61q0 -54 28.5 -82.5t81.5 -28.5q142 0 186 168l144 541h364l-221 -832q-23 -75 -26 -151v-35h-365v37q2 38 10 76h-2q-68 -64 -126 -95.5t-120 -31.5q-23 0 -48.5 7.5t-37.5 18.5l-90 -338h-346z" />
    <glyph glyph-name="paragraph" unicode="&#xb6;" horiz-adv-x="1142" 
d="M221 1018q0 193 135 328q70 69 190.5 108t274.5 39h412l-397 -1493h-365l176 659q-214 18 -320 104.5t-106 254.5z" />
    <glyph glyph-name="middot" unicode="&#xb7;" horiz-adv-x="614" 
d="M313 381q-89 0 -143 57q-57 51 -57 142q0 102 71 176q71 71 172 71q89 0 146 -57q57 -54 57 -141q0 -102 -72 -174q-71 -74 -174 -74z" />
    <glyph glyph-name="uni00B9" unicode="&#xb9;" horiz-adv-x="759" 
d="M948 1675l-227 -864h-301l143 553l-205 -98l-96 196l434 213h252z" />
    <glyph glyph-name="ordmasculine" unicode="&#xba;" horiz-adv-x="1003" 
d="M631 725q-164 0 -256 92q-94 91 -94 236q0 107 54.5 200.5t151.5 149.5q100 59 215 59q164 0 259 -92q94 -94 94 -235q0 -77 -32.5 -152t-88.5 -133q-57 -58 -136 -91.5t-167 -33.5zM645 948q67 0 115 51q49 52 49 123q0 52 -33 84.5t-86 32.5q-69 0 -117 -51
q-49 -55 -49 -123q0 -52 32.5 -84.5t88.5 -32.5zM848 350l59 223h-755l-60 -223h756z" />
    <glyph glyph-name="guillemotright" unicode="&#xbb;" horiz-adv-x="1333" 
d="M395 608l-190 252l207 160l331 -447l-561 -438l-149 193zM958 608l-190 252l207 160l332 -447l-562 -438l-149 193z" />
    <glyph glyph-name="onequarter" unicode="&#xbc;" horiz-adv-x="2295" 
d="M948 1493l-227 -864h-301l143 551l-205 -99l-96 199l434 213h252zM1841 1493l-979 -1493h-321l979 1493h321zM2118 137h-125l-37 -137h-287l37 137h-463l76 281l512 446h356l-135 -506h125zM1763 358l70 254l-287 -254h217z" />
    <glyph glyph-name="onehalf" unicode="&#xbd;" horiz-adv-x="2258" 
d="M948 1493l-227 -864h-301l143 553l-205 -101l-96 199l434 213h252zM1839 1493l-977 -1493h-323l979 1493h321zM2030 0h-713l14 63q24 126 108.5 212t229.5 147l123 51q45 19 88 51q37 30 37 70q0 26 -23.5 42.5t-54.5 16.5q-54 0 -92 -41q-37 -43 -37 -98l-250 29
q21 150 142 245q120 97 276 97q172 0 264 -111q49 -55 49 -133q0 -213 -293 -342q-138 -53 -176 -76h367z" />
    <glyph glyph-name="threequarters" unicode="&#xbe;" horiz-adv-x="2295" 
d="M522 838q43 0 82 26q39 25 39 64q0 32 -23.5 48.5t-56.5 16.5q-30 0 -88 -20l-59 153l219 136h-344l63 231h701l-56 -203l-229 -141q55 -19 102 -82q41 -58 41 -125q0 -77 -33.5 -142.5t-91.5 -105.5q-119 -86 -270 -86q-201 0 -293 109q-49 61 -49 143v23l246 71v-8
q0 -45 27.5 -76.5t72.5 -31.5zM1860 1493l-979 -1493h-322l979 1493h322zM2134 137h-123l-37 -137h-286l34 137h-460l75 281l510 446h359l-135 -506h122zM1782 358l67 254l-282 -254h215z" />
    <glyph glyph-name="questiondown" unicode="&#xbf;" horiz-adv-x="1150" 
d="M629 1042q79 0 135 -53q53 -53 53 -133q0 -98 -67 -162q-63 -69 -162 -69q-79 0 -135 53q-54 54 -54 133q0 96 68 164q67 67 162 67zM571 229l-127 -98q-77 -61 -112 -106t-35 -93q0 -53 37.5 -80.5t99.5 -27.5q77 0 125 63q48 59 51 142l336 -41q0 -110 -48 -203.5
t-130 -155.5q-171 -129 -389 -129q-179 0 -307 90q-67 44 -105.5 116t-38.5 161q0 107 49 192q52 86 117 140l133 108q79 65 119 111q36 45 47 102h334q0 -81 -43 -160q-46 -79 -113 -131z" />
    <glyph glyph-name="Agrave" unicode="&#xc0;" horiz-adv-x="1560" 
d="M633 1999h375l163 -375h-253zM1241 1493l232 -1493h-390l-39 274h-595l-173 -274h-405l940 1493h430zM639 594h362l-69 487z" />
    <glyph glyph-name="Aacute" unicode="&#xc1;" horiz-adv-x="1560" 
d="M1192 1624h-291l313 375h404zM1083 0l-39 274h-595l-173 -274h-405l940 1493h430l232 -1493h-390zM932 1081l-293 -487h362z" />
    <glyph glyph-name="Acircumflex" unicode="&#xc2;" horiz-adv-x="1560" 
d="M1454 1628h-278l-66 193l-168 -193h-301l336 361h328zM1241 1493l232 -1493h-390l-39 274h-595l-173 -274h-405l940 1493h430zM639 594h362l-69 487z" />
    <glyph glyph-name="Atilde" unicode="&#xc3;" horiz-adv-x="1560" 
d="M1227 1628q-44 0 -86 14.5t-68 36.5q-73 52 -119 52q-40 0 -61 -35q-18 -30 -29 -66h-200l16 66q31 124 106 196q77 74 189 74q85 0 151 -51q65 -49 117 -49q26 0 47 15t31 34q5 13 20 47h193q-12 -57 -18 -74q-30 -117 -107 -188q-72 -72 -182 -72zM1083 0l-39 274h-595
l-173 -274h-405l940 1493h430l232 -1493h-390zM932 1081l-293 -487h362z" />
    <glyph glyph-name="Adieresis" unicode="&#xc4;" horiz-adv-x="1560" 
d="M993 1839q0 -82 -53 -135q-55 -55 -135 -55q-83 0 -135 55q-56 56 -56 135q0 81 56 137q57 54 135 54t135 -54q53 -53 53 -137zM1546 1839q0 -80 -55 -135t-135 -55q-83 0 -135 55q-54 54 -54 135q0 83 54 137q57 54 135 54t135 -54q55 -55 55 -137zM1083 0l-39 274h-595
l-173 -274h-405l940 1493h430l232 -1493h-390zM932 1081l-293 -487h362z" />
    <glyph glyph-name="Aring" unicode="&#xc5;" horiz-adv-x="1560" 
d="M1253 1405l220 -1405h-390l-39 274h-595l-173 -274h-405l903 1432q-26 57 -26 116q0 132 92 224q91 94 223 94q111 0 188 -74q74 -74 74 -184q0 -113 -72 -203zM1049 1688q-52 0 -86 -37q-35 -35 -35 -88q0 -43 26.5 -69t69.5 -26q51 0 88 37q35 35 35 88q0 41 -27.5 68
t-70.5 27zM639 594h362l-69 487z" />
    <glyph glyph-name="AE" unicode="&#xc6;" horiz-adv-x="2082" 
d="M457 236l-170 -236h-430l1091 1493h1295l-89 -334h-661l-66 -244h601l-86 -321h-601l-69 -258h667l-90 -336h-1030l64 236h-426zM1133 1169h-21l-434 -614h291z" />
    <glyph glyph-name="Ccedilla" unicode="&#xc7;" horiz-adv-x="1648" 
d="M735 -14q-126 17 -236 72.5t-190 140.5q-79 86 -123.5 201.5t-44.5 244.5q0 180 70 338q73 165 190 279q125 122 283 186q162 70 340 70q136 0 248 -32t185.5 -83t127.5 -120.5t81.5 -137.5t39.5 -141l-365 -113q-21 104 -94 182q-41 44 -109.5 69t-154.5 25
q-90 0 -174.5 -42t-146.5 -113q-60 -72 -95 -160.5t-35 -175.5q0 -155 95 -250q101 -96 262 -96q180 0 309 133q53 58 94 141l336 -129q-50 -128 -155 -239q-54 -60 -130 -113q-154 -111 -376 -139q16 -39 16 -117q0 -186 -118.5 -280.5t-309.5 -94.5q-89 0 -156 23l54 202
q53 -6 86 -6q92 0 147 64q53 65 53 157q0 18 -4 54z" />
    <glyph glyph-name="Egrave" unicode="&#xc8;" horiz-adv-x="1308" 
d="M559 1999h377l164 -375h-256zM1163 336l-88 -336h-1046l397 1493h1040l-88 -334h-665l-66 -244h606l-86 -321h-606l-69 -258h671z" />
    <glyph glyph-name="Eacute" unicode="&#xc9;" horiz-adv-x="1308" 
d="M1102 1624h-293l315 375h404zM29 0l397 1493h1040l-88 -334h-665l-66 -244h606l-86 -321h-606l-69 -258h671l-88 -336h-1046z" />
    <glyph glyph-name="Ecircumflex" unicode="&#xca;" horiz-adv-x="1308" 
d="M1372 1628h-278l-66 193l-168 -193h-301l336 361h328zM1163 336l-88 -336h-1046l397 1493h1040l-88 -334h-665l-66 -244h606l-86 -321h-606l-69 -258h671z" />
    <glyph glyph-name="Edieresis" unicode="&#xcb;" horiz-adv-x="1308" 
d="M754 1649q-77 0 -123 49q-49 46 -49 121q0 85 61 149q62 62 148 62q71 0 122 -48q50 -50 50 -122q0 -88 -62 -150q-61 -61 -147 -61zM1268 1649q-77 0 -123 49q-49 46 -49 121q0 85 61 149q62 62 148 62q71 0 122 -48q50 -50 50 -122q0 -88 -62 -150q-61 -61 -147 -61z
M29 0l397 1493h1040l-88 -334h-665l-66 -244h606l-86 -321h-606l-69 -258h671l-88 -336h-1046z" />
    <glyph glyph-name="Igrave" unicode="&#xcc;" horiz-adv-x="692" 
d="M246 1999h377l163 -375h-256zM803 1493l-400 -1493h-374l397 1493h377z" />
    <glyph glyph-name="Iacute" unicode="&#xcd;" horiz-adv-x="692" 
d="M795 1626h-293l315 375h404zM29 0l397 1493h377l-400 -1493h-374z" />
    <glyph glyph-name="Icircumflex" unicode="&#xce;" horiz-adv-x="692" 
d="M1044 1628h-278l-66 193l-168 -193h-301l336 361h328zM803 1493l-400 -1493h-374l397 1493h377z" />
    <glyph glyph-name="Idieresis" unicode="&#xcf;" horiz-adv-x="692" 
d="M430 1649q-74 0 -123 49q-47 47 -47 121q0 84 62 149q59 62 147 62q72 0 123 -48q49 -49 49 -122q0 -89 -61 -150t-150 -61zM938 1649q-77 0 -123 49q-49 46 -49 121q0 85 61 149q62 62 148 62q72 0 123 -48q49 -49 49 -122q0 -88 -62 -150q-61 -61 -147 -61zM29 0
l397 1493h377l-400 -1493h-374z" />
    <glyph glyph-name="Eth" unicode="&#xd0;" horiz-adv-x="1638" 
d="M90 0l156 594h-174l86 317h174l153 582h408q170 0 305 -38t234 -114t152.5 -197t53.5 -280q0 -169 -67 -327t-201 -283q-272 -254 -760 -254h-520zM1243 834q0 211 -172 278q-89 37 -213 37h-86l-65 -238h268l-84 -317h-268l-66 -246h100q125 0 230 32t172 85
q58 45 108 117q76 122 76 252z" />
    <glyph glyph-name="Ntilde" unicode="&#xd1;" horiz-adv-x="1654" 
d="M1300 1628q-44 0 -85.5 14.5t-67.5 36.5q-73 52 -119 52q-40 0 -61 -35q-18 -30 -29 -66h-201l17 66q31 124 106 196q77 74 189 74q41 0 82 -15t67 -36q69 -49 119 -49q26 0 47 15t29 34q9 14 20 47h195q-10 -48 -19 -74q-30 -118 -106 -188q-72 -72 -183 -72zM954 0
l-303 926h-2l-248 -926h-372l397 1493h424l295 -911h2l244 911h374l-399 -1493h-412z" />
    <glyph glyph-name="Ograve" unicode="&#xd2;" horiz-adv-x="1738" 
d="M651 1999h375l164 -375h-254zM1028 1518q154 0 288 -51t226 -142q93 -90 144 -212t51 -259q0 -177 -72 -344q-71 -164 -192 -279q-119 -116 -283 -184q-162 -70 -338 -70q-138 0 -265 44t-227 126q-99 82 -157 211q-60 126 -60 287q0 182 72 342q71 164 191 281
q118 115 280 182q168 68 342 68zM532 674q0 -163 103 -252q100 -92 250 -92q122 0 231 71q104 68 168 183q62 115 62 239q0 144 -97 246q-94 98 -256 98q-91 0 -176.5 -41.5t-148.5 -111.5q-63 -69 -99.5 -158.5t-36.5 -181.5z" />
    <glyph glyph-name="Oacute" unicode="&#xd3;" horiz-adv-x="1738" 
d="M1188 1624h-293l315 375h404zM1028 1518q154 0 288 -51t226 -142q93 -90 144 -212t51 -259q0 -177 -72 -344q-71 -164 -192 -279q-119 -116 -283 -184q-162 -70 -338 -70q-138 0 -265 44t-227 126q-99 82 -157 211q-60 126 -60 287q0 182 72 342q71 164 191 281
q118 115 280 182q168 68 342 68zM532 674q0 -163 103 -252q100 -92 250 -92q122 0 231 71q104 68 168 183q62 115 62 239q0 144 -97 246q-94 98 -256 98q-91 0 -176.5 -41.5t-148.5 -111.5q-63 -69 -99.5 -158.5t-36.5 -181.5z" />
    <glyph glyph-name="Ocircumflex" unicode="&#xd4;" horiz-adv-x="1738" 
d="M1473 1628h-281l-66 193l-165 -193h-304l336 361h328zM1028 1518q154 0 288 -51t226 -142q93 -90 144 -212t51 -259q0 -177 -72 -344q-71 -164 -192 -279q-119 -116 -283 -184q-162 -70 -338 -70q-138 0 -265 44t-227 126q-99 82 -157 211q-60 126 -60 287q0 182 72 342
q71 164 191 281q118 115 280 182q168 68 342 68zM532 674q0 -163 103 -252q100 -92 250 -92q122 0 231 71q104 68 168 183q62 115 62 239q0 144 -97 246q-94 98 -256 98q-91 0 -176.5 -41.5t-148.5 -111.5q-63 -69 -99.5 -158.5t-36.5 -181.5z" />
    <glyph glyph-name="Otilde" unicode="&#xd5;" horiz-adv-x="1738" 
d="M1255 1628q-44 0 -85.5 14.5t-67.5 36.5q-73 52 -119 52q-40 0 -61 -35q-18 -30 -29 -66h-201l17 66q31 124 106 196q77 74 189 74q85 0 151 -51q65 -49 117 -49q26 0 47 15t31 34q0 1 7.5 17t12.5 30h193q-3 -15 -7 -31.5t-6.5 -27t-3.5 -15.5q-36 -121 -108 -188
q-72 -72 -183 -72zM1028 1518q154 0 288 -51t226 -142q93 -90 144 -212t51 -259q0 -177 -72 -344q-71 -164 -192 -279q-119 -116 -283 -184q-162 -70 -338 -70q-138 0 -265 44t-227 126q-99 82 -157 211q-60 126 -60 287q0 182 72 342q71 164 191 281q118 115 280 182
q168 68 342 68zM532 674q0 -163 103 -252q100 -92 250 -92q122 0 231 71q104 68 168 183q62 115 62 239q0 144 -97 246q-94 98 -256 98q-91 0 -176.5 -41.5t-148.5 -111.5q-63 -69 -99.5 -158.5t-36.5 -181.5z" />
    <glyph glyph-name="Odieresis" unicode="&#xd6;" horiz-adv-x="1738" 
d="M834 1649q-74 0 -123 49q-47 44 -47 121q0 85 61 149q59 62 145 62q74 0 125 -48q49 -49 49 -122q0 -89 -61 -150t-149 -61zM1348 1649q-74 0 -123 49q-47 44 -47 121q0 85 61 149q59 62 145 62q74 0 125 -48q47 -47 47 -122q0 -88 -59 -150q-61 -61 -149 -61zM1028 1518
q154 0 288 -51t226 -142q93 -90 144 -212t51 -259q0 -177 -72 -344q-71 -164 -192 -279q-119 -116 -283 -184q-162 -70 -338 -70q-138 0 -265 44t-227 126q-99 82 -157 211q-60 126 -60 287q0 182 72 342q71 164 191 281q118 115 280 182q168 68 342 68zM532 674
q0 -163 103 -252q100 -92 250 -92q122 0 231 71q104 68 168 183q62 115 62 239q0 144 -97 246q-94 98 -256 98q-91 0 -176.5 -41.5t-148.5 -111.5q-63 -69 -99.5 -158.5t-36.5 -181.5z" />
    <glyph glyph-name="multiply" unicode="&#xd7;" horiz-adv-x="1208" 
d="M831 45l-245 334l-426 -336l-152 207l426 338l-246 338l232 182l246 -338l430 338l151 -207l-428 -338l246 -336z" />
    <glyph glyph-name="Oslash" unicode="&#xd8;" horiz-adv-x="1738" 
d="M852 -23q-240 0 -428 125l-182 -174l-156 164l172 166q-115 168 -115 385q0 184 72 344q71 164 191 281q117 114 282 182t340 68q248 0 430 -123l178 172l156 -164l-174 -168q119 -165 119 -381q0 -144 -46 -278.5t-130 -241.5q-84 -111 -191 -189q-110 -81 -244 -124.5
t-274 -43.5zM1329 965l-629 -605q79 -43 183 -43q94 0 182.5 43t153.5 115q63 70 99 162.5t36 187.5q0 73 -25 140zM995 1178q-93 0 -181 -42t-152 -114q-64 -70 -101 -163t-37 -187q0 -77 25 -144l635 605q-80 45 -189 45z" />
    <glyph glyph-name="Ugrave" unicode="&#xd9;" horiz-adv-x="1525" 
d="M651 1999h375l164 -375h-254zM1268 1493h381l-252 -942q-53 -196 -141 -318.5t-226 -187.5q-133 -65 -336 -65q-207 0 -335.5 77t-174.5 211q-62 173 -2 394l221 831h381l-229 -858q-37 -141 12 -223q50 -84 178 -84q212 0 285 278z" />
    <glyph glyph-name="Uacute" unicode="&#xda;" horiz-adv-x="1525" 
d="M1190 1624h-293l315 375h404zM1649 1493l-252 -942q-80 -293 -244 -432t-459 -139q-207 0 -335.5 77t-174.5 211q-62 173 -2 394l221 831h381l-229 -858q-37 -141 12 -223q50 -84 178 -84q212 0 285 278l238 887h381z" />
    <glyph glyph-name="Ucircumflex" unicode="&#xdb;" horiz-adv-x="1525" 
d="M1454 1628h-278l-66 193l-168 -193h-301l336 361h328zM1268 1493h381l-252 -942q-80 -293 -244 -432t-459 -139q-207 0 -335.5 77t-174.5 211q-62 173 -2 394l221 831h381l-229 -858q-37 -141 12 -223q50 -84 178 -84q212 0 285 278z" />
    <glyph glyph-name="Udieresis" unicode="&#xdc;" horiz-adv-x="1525" 
d="M829 1649q-73 0 -122 49q-48 48 -48 121q0 84 62 149q59 62 147 62q72 0 123 -48q49 -49 49 -122q0 -89 -61 -150t-150 -61zM1343 1649q-73 0 -122 49q-47 44 -47 121q0 85 61 149q59 62 147 62q72 0 123 -48q49 -49 49 -122q0 -89 -61 -150t-150 -61zM1649 1493
l-252 -942q-53 -196 -141 -318.5t-226 -187.5q-133 -65 -336 -65q-207 0 -335.5 77t-174.5 211q-62 173 -2 394l221 831h381l-229 -858q-37 -141 12 -223q50 -84 178 -84q212 0 285 278l238 887h381z" />
    <glyph glyph-name="Yacute" unicode="&#xdd;" horiz-adv-x="1449" 
d="M1145 1624h-293l315 375h404zM922 549l-146 -549h-377l156 592l-272 901h401l145 -549l441 549h446z" />
    <glyph glyph-name="Thorn" unicode="&#xde;" horiz-adv-x="1351" 
d="M735 1245h86q222 0 357 -69q100 -55 152 -146.5t52 -208.5v-28q-1 -4 -2.5 -20t-3.5 -28q-5 -56 -37 -139q-39 -88 -108 -155q-44 -44 -90 -72q-173 -108 -420 -111h-248l-72 -268h-374l399 1493h375zM645 915l-86 -327h156q193 4 258 100q24 40 24 92q0 51 -39 90
q-48 45 -155 45h-158z" />
    <glyph glyph-name="germandbls" unicode="&#xdf;" horiz-adv-x="1361" 
d="M926 315q3 17 -9.5 35.5t-25.5 28.5q-1 1 -4 2.5t-8.5 5t-10.5 6.5q-14 7 -20 13l-55 34q-150 96 -150 226q0 171 201 286l47 29q121 69 121 149q0 56 -43 85.5t-111 29.5q-87 0 -149.5 -60t-90.5 -167l-272 -1018h-356l284 1067q65 245 228.5 367t410.5 122
q185 0 316 -90q64 -47 100.5 -124t36.5 -175t-66 -192q-59 -87 -159 -154l-72 -43q-38 -25 -50.5 -38t-12.5 -31q0 -15 8.5 -26.5t34.5 -31.5l38 -35q67 -53 107 -98q23 -25 39 -55q33 -72 33 -135q0 -82 -40 -151t-104 -112t-140.5 -66.5t-154.5 -23.5q-189 0 -284 115
q-49 61 -49 152q0 39 8 75l254 15q-4 -12 -4 -23q0 -34 23.5 -52.5t60.5 -18.5q36 0 63 24t27 53z" />
    <glyph glyph-name="agrave" unicode="&#xe0;" horiz-adv-x="1314" 
d="M289 1561h377l163 -373h-256zM731 111h-4q-131 -131 -293 -131q-118 0 -201 59q-85 59 -129 154q-41 93 -41 202q0 122 46 246q48 124 120 207q75 88 179.5 139t216.5 51q198 0 307 -149h2l37 129h362l-223 -832q-22 -84 -25 -151v-35h-364v33q1 11 3 28t3.5 29t3.5 21z
M606 299q99 0 172 76q74 77 74 182q0 76 -47 117q-48 45 -125 45q-101 0 -174 -76q-74 -77 -74 -184q0 -72 47.5 -116t126.5 -44z" />
    <glyph glyph-name="aacute" unicode="&#xe1;" horiz-adv-x="1314" 
d="M838 1188h-293l315 373h404zM731 111h-4q-131 -131 -293 -131q-118 0 -201 59q-85 59 -129 154q-41 93 -41 202q0 122 46 246q48 124 120 207q75 88 179.5 139t216.5 51q198 0 307 -149h2l37 129h362l-223 -832q-22 -84 -25 -151v-35h-364v33q1 11 3 28t3.5 29t3.5 21z
M606 299q99 0 172 76q74 77 74 182q0 76 -47 117q-48 45 -125 45q-101 0 -174 -76q-74 -77 -74 -184q0 -72 47.5 -116t126.5 -44z" />
    <glyph glyph-name="acircumflex" unicode="&#xe2;" horiz-adv-x="1314" 
d="M1155 1190h-278l-66 192l-168 -192h-301l336 360h326zM731 111h-4q-131 -131 -293 -131q-118 0 -201 59q-85 59 -129 154q-41 93 -41 202q0 122 46 246q48 124 120 207q75 88 179.5 139t216.5 51q198 0 307 -149h2l37 129h362l-223 -832q-22 -84 -25 -151v-35h-364v33
q1 11 3 28t3.5 29t3.5 21zM606 299q99 0 172 76q74 77 74 182q0 76 -47 117q-48 45 -125 45q-101 0 -174 -76q-74 -77 -74 -184q0 -72 47.5 -116t126.5 -44z" />
    <glyph glyph-name="atilde" unicode="&#xe3;" horiz-adv-x="1314" 
d="M973 1190q-87 0 -154 51q-66 51 -119 51q-38 0 -59 -35q-20 -29 -31 -65h-200l16 65q30 124 106 197q77 74 191 74q80 0 149 -49q73 -52 117 -52q26 0 47 15t31 35q4 6 20 47h193l-16 -74q-35 -119 -107 -188q-78 -72 -184 -72zM731 111h-4q-131 -131 -293 -131
q-118 0 -201 59q-85 59 -129 154q-41 93 -41 202q0 122 46 246q48 124 120 207q75 88 179.5 139t216.5 51q198 0 307 -149h2l37 129h362l-223 -832q-22 -84 -25 -151v-35h-364v33q1 11 3 28t3.5 29t3.5 21zM606 299q99 0 172 76q74 77 74 182q0 76 -47 117q-48 45 -125 45
q-101 0 -174 -76q-74 -77 -74 -184q0 -72 47.5 -116t126.5 -44z" />
    <glyph glyph-name="adieresis" unicode="&#xe4;" horiz-adv-x="1314" 
d="M596 1176q-76 0 -123 47q-49 46 -49 120q0 89 61 150t148 61q75 0 125 -47q47 -50 47 -123q0 -87 -60 -147q-61 -61 -149 -61zM1092 1176q-76 0 -123 47q-47 44 -47 120q0 88 59 150q61 61 147 61q75 0 125 -47q47 -47 47 -123q0 -86 -61 -147t-147 -61zM731 111h-4
q-131 -131 -293 -131q-118 0 -201 59q-85 59 -129 154q-41 93 -41 202q0 122 46 246q48 124 120 207q75 88 179.5 139t216.5 51q198 0 307 -149h2l37 129h362l-223 -832q-22 -84 -25 -151v-35h-364v33q1 11 3 28t3.5 29t3.5 21zM606 299q99 0 172 76q74 77 74 182
q0 76 -47 117q-48 45 -125 45q-101 0 -174 -76q-74 -77 -74 -184q0 -72 47.5 -116t126.5 -44z" />
    <glyph glyph-name="aring" unicode="&#xe5;" horiz-adv-x="1314" 
d="M825 1157q-114 0 -188 74q-74 71 -74 184q0 130 92 225q90 93 222 93q116 0 188 -72q76 -73 76 -186q0 -134 -92 -226t-224 -92zM864 1556q-53 0 -86 -36q-37 -37 -37 -88q0 -43 27 -70t70 -27q51 0 88 37q37 34 37 88q0 41 -28 68.5t-71 27.5zM731 111h-4
q-131 -131 -293 -131q-118 0 -201 59q-85 59 -129 154q-41 93 -41 202q0 122 46 246q48 124 120 207q75 88 179.5 139t216.5 51q198 0 307 -149h2l37 129h362l-223 -832q-22 -84 -25 -151v-35h-364v33q1 11 3 28t3.5 29t3.5 21zM606 299q99 0 172 76q74 77 74 182
q0 76 -47 117q-48 45 -125 45q-101 0 -174 -76q-74 -77 -74 -184q0 -72 47.5 -116t126.5 -44z" />
    <glyph glyph-name="ae" unicode="&#xe6;" horiz-adv-x="1800" 
d="M1268 764q-69 0 -131 -39q-69 -41 -95 -107h363q8 24 8 31q0 56 -39.5 85.5t-105.5 29.5zM676 1042q84 0 163 -25.5t134 -72.5q155 96 311 96q189 0 322 -108q65 -54 103 -134t38 -173q0 -103 -43 -207h-698q0 -73 59 -115q55 -43 123 -43q67 0 122 25.5t83 76.5
l280 -126q-88 -164 -284 -226q-103 -33 -209 -33q-129 0 -235 44t-177 126q-88 -93 -195 -133q-101 -37 -243 -37h-8q-127 0 -213 74q-89 74 -89 197q0 186 191 276q100 45 213 54l211 16q42 3 72 29t30 63q0 38 -32.5 60t-79.5 22q-66 0 -115 -36t-70 -93l-307 98
q47 127 189 216t354 89zM471 231q70 0 120.5 39.5t63.5 106.5l9 39l-127 -15q-49 -3 -97 -20q-51 -19 -51 -74q0 -31 23.5 -53.5t58.5 -22.5z" />
    <glyph glyph-name="ccedilla" unicode="&#xe7;" horiz-adv-x="1189" 
d="M604 299q67 0 122.5 37t82.5 96l301 -115q-52 -128 -174 -221t-274 -114q16 -50 16 -115q0 -186 -119.5 -280.5t-310.5 -94.5q-89 0 -156 23l53 202q52 -6 86 -6q93 0 148 64t55 157q0 35 -6 62q-171 41 -264 162q-92 121 -92 299q0 121 49 231q51 111 135 186
q85 79 197 124.5t231 45.5q107 0 198 -31.5t152 -86.5q123 -111 144 -258l-334 -95q-13 67 -58.5 107.5t-119.5 40.5q-107 0 -174 -76q-68 -77 -68 -178q0 -75 48 -120.5t132 -45.5z" />
    <glyph glyph-name="egrave" unicode="&#xe8;" horiz-adv-x="1204" 
d="M307 1561h377l164 -373h-256zM1110 418h-700q0 -71 59 -115q58 -43 125 -43q66 0 120.5 25.5t82.5 76.5l282 -126q-88 -164 -284 -226q-103 -33 -211 -33q-225 0 -369 129q-145 130 -145 345q0 117 49 227q55 114 135 188q84 81 197 127q118 47 237 47q189 0 322 -108
q66 -54 103.5 -134t37.5 -173q0 -104 -41 -207zM674 764q-71 0 -133 -39q-69 -44 -92 -107h360q8 20 8 31q0 56 -39 85.5t-104 29.5z" />
    <glyph glyph-name="eacute" unicode="&#xe9;" horiz-adv-x="1204" 
d="M864 1188h-291l314 373h403zM1110 418h-700q0 -71 59 -115q58 -43 125 -43q66 0 120.5 25.5t82.5 76.5l282 -126q-88 -164 -284 -226q-103 -33 -211 -33q-225 0 -369 129q-145 130 -145 345q0 117 49 227q55 114 135 188q84 81 197 127q118 47 237 47q189 0 322 -108
q66 -54 103.5 -134t37.5 -173q0 -104 -41 -207zM674 764q-71 0 -133 -39q-69 -44 -92 -107h360q8 20 8 31q0 56 -39 85.5t-104 29.5z" />
    <glyph glyph-name="ecircumflex" unicode="&#xea;" horiz-adv-x="1204" 
d="M1120 1190h-280l-64 192l-168 -192h-301l336 360h326zM1110 418h-700q0 -71 59 -115q58 -43 125 -43q66 0 120.5 25.5t82.5 76.5l282 -126q-88 -164 -284 -226q-103 -33 -211 -33q-225 0 -369 129q-145 130 -145 345q0 117 49 227q55 114 135 188q84 81 197 127
q118 47 237 47q189 0 322 -108q66 -54 103.5 -134t37.5 -173q0 -104 -41 -207zM674 764q-71 0 -133 -39q-69 -44 -92 -107h360q8 20 8 31q0 56 -39 85.5t-104 29.5z" />
    <glyph glyph-name="edieresis" unicode="&#xeb;" horiz-adv-x="1204" 
d="M487 1176q-75 0 -122 47q-50 47 -50 120q0 88 62 150q61 61 147 61q73 0 123 -47q49 -49 49 -123q0 -89 -61 -147q-61 -61 -148 -61zM983 1176q-79 0 -123 47q-49 46 -49 120q0 89 61 150q58 61 148 61q75 0 125 -47q47 -47 47 -123q0 -85 -59 -147q-61 -61 -150 -61z
M1110 418h-700q0 -71 59 -115q58 -43 125 -43q66 0 120.5 25.5t82.5 76.5l282 -126q-88 -164 -284 -226q-103 -33 -211 -33q-225 0 -369 129q-145 130 -145 345q0 117 49 227q55 114 135 188q84 81 197 127q118 47 237 47q189 0 322 -108q66 -54 103.5 -134t37.5 -173
q0 -104 -41 -207zM674 764q-71 0 -133 -39q-69 -44 -92 -107h360q8 20 8 31q0 56 -39 85.5t-104 29.5z" />
    <glyph glyph-name="igrave" unicode="&#xec;" horiz-adv-x="606" 
d="M72 1561h377l163 -373h-256zM354 0h-364l272 1018h365z" />
    <glyph glyph-name="iacute" unicode="&#xed;" horiz-adv-x="606" 
d="M623 1188h-293l315 373h404zM354 0h-364l272 1018h365z" />
    <glyph glyph-name="icircumflex" unicode="&#xee;" horiz-adv-x="606" 
d="M883 1190h-279l-65 192l-168 -192h-301l336 360h325zM354 0h-364l272 1018h365z" />
    <glyph glyph-name="idieresis" unicode="&#xef;" horiz-adv-x="610" 
d="M266 1176q-79 0 -123 47q-49 46 -49 120q0 88 62 150q58 61 147 61q73 0 123 -47q49 -49 49 -123q0 -89 -61 -147q-61 -61 -148 -61zM760 1176q-77 0 -121 47q-49 46 -49 120q0 89 61 150q58 61 148 61q76 0 123 -47q49 -49 49 -123q0 -84 -60 -147q-61 -61 -151 -61z
M358 0h-368l272 1018h369z" />
    <glyph glyph-name="eth" unicode="&#xf0;" horiz-adv-x="1245" 
d="M586 956q74 0 153 -24q83 -27 142 -68l4 4q-21 140 -156 260l-297 -131l-80 170l209 88v2q-76 47 -225 97l117 245q229 -80 393 -213l221 99l84 -174q-117 -48 -162 -70q201 -251 201 -590q0 -161 -53 -300.5t-158 -233.5q-150 -137 -399 -137q-104 0 -195 30t-161.5 87
t-111 148t-40.5 206q0 103 38.5 196.5t106.5 161.5q69 69 165.5 108t203.5 39zM594 293q99 0 168 78q69 75 69 180q0 75 -47 125q-50 47 -122 47q-101 0 -170 -78q-70 -76 -70 -178q0 -75 45 -123q45 -51 127 -51z" />
    <glyph glyph-name="ntilde" unicode="&#xf1;" horiz-adv-x="1241" 
d="M987 1190q-86 0 -153 51q-66 51 -119 51q-42 0 -60 -35q-19 -27 -30 -65h-201l16 65q30 123 107 197t190 74q81 0 150 -49q73 -52 117 -52q26 0 46.5 15t30.5 35q1 4 8.5 20t12.5 27h192q-3 -14 -7 -31.5t-6 -27.5l-3 -15q-35 -120 -109 -188q-75 -72 -182 -72zM641 0
l143 537q9 30 9 61q0 52 -28.5 80.5t-80.5 28.5q-143 0 -186 -166l-146 -541h-362l272 1018h361l-31 -113h4q136 133 293 133q145 0 217 -84q74 -83 74 -217q0 -67 -29 -186l-147 -551h-363z" />
    <glyph glyph-name="ograve" unicode="&#xf2;" horiz-adv-x="1247" 
d="M307 1561h377l164 -373h-254zM575 -23q-236 0 -370 134q-135 132 -135 340q0 112 45.5 219t126.5 190q80 83 194 131q113 49 242 49q117 0 214 -35.5t163 -99.5q133 -136 133 -336q0 -114 -45.5 -221t-128.5 -190q-74 -80 -195 -131q-115 -50 -244 -50zM594 299
q99 0 170 74q67 73 67 178q0 75 -47.5 121.5t-124.5 46.5q-100 0 -167 -76q-70 -73 -70 -176q0 -74 45.5 -121t126.5 -47z" />
    <glyph glyph-name="oacute" unicode="&#xf3;" horiz-adv-x="1247" 
d="M858 1188h-293l316 373h403zM575 -23q-236 0 -370 134q-135 132 -135 340q0 112 45.5 219t126.5 190q80 83 194 131q113 49 242 49q117 0 214 -35.5t163 -99.5q133 -136 133 -336q0 -114 -45.5 -221t-128.5 -190q-74 -80 -195 -131q-115 -50 -244 -50zM594 299
q99 0 170 74q67 73 67 178q0 75 -47.5 121.5t-124.5 46.5q-100 0 -167 -76q-70 -73 -70 -176q0 -74 45.5 -121t126.5 -47z" />
    <glyph glyph-name="ocircumflex" unicode="&#xf4;" horiz-adv-x="1247" 
d="M1112 1190h-281l-63 192l-168 -192h-303l338 360h326zM575 -23q-236 0 -370 134q-135 132 -135 340q0 112 45.5 219t126.5 190q80 83 194 131q113 49 242 49q117 0 214 -35.5t163 -99.5q133 -136 133 -336q0 -114 -45.5 -221t-128.5 -190q-74 -80 -195 -131
q-115 -50 -244 -50zM594 299q99 0 170 74q67 73 67 178q0 75 -47.5 121.5t-124.5 46.5q-100 0 -167 -76q-70 -73 -70 -176q0 -74 45.5 -121t126.5 -47z" />
    <glyph glyph-name="otilde" unicode="&#xf5;" horiz-adv-x="1247" 
d="M932 1190q-83 0 -154 51q-62 51 -116 51q-41 0 -62 -35q-19 -31 -29 -65h-202l18 65q30 123 107 197q74 74 188 74q39 0 81 -14.5t68 -34.5q73 -52 119 -52q23 0 47 17q19 14 29 30.5t21 49.5h194q-12 -57 -18 -74q-30 -117 -107 -188q-78 -72 -184 -72zM575 -23
q-236 0 -370 134q-135 132 -135 340q0 112 45.5 219t126.5 190q80 83 194 131q113 49 242 49q117 0 214 -35.5t163 -99.5q133 -136 133 -336q0 -114 -45.5 -221t-128.5 -190q-74 -80 -195 -131q-115 -50 -244 -50zM594 299q99 0 170 74q67 73 67 178q0 75 -47.5 121.5
t-124.5 46.5q-100 0 -167 -76q-70 -73 -70 -176q0 -74 45.5 -121t126.5 -47z" />
    <glyph glyph-name="odieresis" unicode="&#xf6;" horiz-adv-x="1247" 
d="M518 1176q-76 0 -123 47q-49 46 -49 120q0 88 62 150q61 61 147 61q73 0 123 -47q49 -49 49 -123q0 -89 -61 -147q-61 -61 -148 -61zM1014 1176q-79 0 -123 47q-49 46 -49 120q0 89 61 150q58 61 148 61q75 0 125 -47q47 -47 47 -123q0 -85 -62 -147q-61 -61 -147 -61z
M575 -23q-236 0 -370 134q-135 132 -135 340q0 112 45.5 219t126.5 190q80 83 194 131q113 49 242 49q117 0 214 -35.5t163 -99.5q133 -136 133 -336q0 -114 -45.5 -221t-128.5 -190q-74 -80 -195 -131q-115 -50 -244 -50zM594 299q99 0 170 74q67 73 67 178
q0 75 -47.5 121.5t-124.5 46.5q-100 0 -167 -76q-70 -73 -70 -176q0 -74 45.5 -121t126.5 -47z" />
    <glyph glyph-name="divide" unicode="&#xf7;" horiz-adv-x="1155" 
d="M737 973q-84 0 -133 49t-49 119q0 84 66 147q61 64 155 64q84 0 133 -49q49 -46 49 -119q0 -85 -63 -148q-66 -63 -158 -63zM1178 850l-80 -301h-1008l80 301h1008zM492 49q-84 0 -134 47q-51 51 -51 121q0 82 66 148q61 61 155 61q84 0 134 -47q49 -46 49 -121
q0 -84 -64 -145q-67 -64 -155 -64z" />
    <glyph glyph-name="oslash" unicode="&#xf8;" horiz-adv-x="1247" 
d="M575 -20q-188 0 -313 88l-141 -134l-101 107l136 127q-84 118 -84 285q0 112 45.5 218t126.5 189q80 83 194 131q113 49 244 49q189 0 317 -88l140 131l100 -106l-135 -129q84 -122 84 -283q0 -111 -46 -218t-126 -187q-79 -82 -195 -131t-246 -49zM840 612l-330 -311
q40 -16 84 -16q106 0 180 80t74 188q0 35 -8 59zM664 733q-108 0 -181 -82t-73 -186q0 -32 10 -62l330 312q-34 18 -86 18z" />
    <glyph glyph-name="ugrave" unicode="&#xf9;" 
d="M358 1561h377l164 -373h-254zM659 113h-4q-136 -133 -293 -133q-143 0 -217 83q-73 85 -73 218q0 68 28 186l148 551h362l-143 -537q-8 -31 -8 -61q0 -54 27.5 -82.5t80.5 -28.5q143 0 187 168l145 541h363l-222 -832q-26 -102 -26 -151v-35h-365v37q9 73 10 76z" />
    <glyph glyph-name="uacute" unicode="&#xfa;" 
d="M905 1188h-291l314 373h403zM659 113h-4q-136 -133 -293 -133q-143 0 -217 83q-73 85 -73 218q0 68 28 186l148 551h362l-143 -537q-8 -31 -8 -61q0 -54 27.5 -82.5t80.5 -28.5q143 0 187 168l145 541h363l-222 -832q-26 -102 -26 -151v-35h-365v37q9 73 10 76z" />
    <glyph glyph-name="ucircumflex" unicode="&#xfb;" 
d="M1196 1190h-278l-66 192l-168 -192h-301l336 360h325zM659 113h-4q-136 -133 -293 -133q-143 0 -217 83q-73 85 -73 218q0 68 28 186l148 551h362l-143 -537q-8 -31 -8 -61q0 -54 27.5 -82.5t80.5 -28.5q143 0 187 168l145 541h363l-222 -832q-26 -102 -26 -151v-35h-365
v37q9 73 10 76z" />
    <glyph glyph-name="udieresis" unicode="&#xfc;" 
d="M573 1176q-78 0 -122 47q-50 47 -50 120q0 88 62 150q58 61 147 61q73 0 123 -47q49 -49 49 -123q0 -89 -61 -147q-61 -61 -148 -61zM1067 1176q-77 0 -121 47q-49 46 -49 120q0 89 61 150q58 61 148 61q76 0 123 -47q49 -49 49 -123q0 -85 -59 -147q-61 -61 -152 -61z
M659 113h-4q-136 -133 -293 -133q-143 0 -217 83q-73 85 -73 218q0 68 28 186l148 551h362l-143 -537q-8 -31 -8 -61q0 -54 27.5 -82.5t80.5 -28.5q143 0 187 168l145 541h363l-222 -832q-26 -102 -26 -151v-35h-365v37q9 73 10 76z" />
    <glyph glyph-name="yacute" unicode="&#xfd;" horiz-adv-x="1191" 
d="M911 1188h-290l313 373h405zM354 -502h-379l314 500l-133 1020h356l63 -604h3l358 604h383z" />
    <glyph glyph-name="thorn" unicode="&#xfe;" horiz-adv-x="1312" 
d="M1257 625q0 -137 -45 -256q-47 -121 -122 -205q-78 -86 -180.5 -135t-209.5 -49q-204 0 -311 157h-4l-170 -639h-358l549 2056h362l-172 -641h4q134 125 289 125q140 0 252 -98q54 -48 85 -131t31 -184zM645 301q99 0 172 76q74 77 74 184q0 72 -47.5 116t-124.5 44
q-98 0 -176 -78q-74 -77 -74 -182q0 -72 49 -115q48 -45 127 -45z" />
    <glyph glyph-name="ydieresis" unicode="&#xff;" horiz-adv-x="1191" 
d="M545 1176q-76 0 -123 47q-49 46 -49 120q0 89 61 150t148 61q75 0 125 -47q47 -50 47 -123q0 -87 -60 -147q-61 -61 -149 -61zM1040 1176q-75 0 -122 47q-48 45 -48 120q0 87 60 150q61 61 147 61q75 0 125 -47q47 -47 47 -123q0 -85 -59 -147q-61 -61 -150 -61z
M354 -502h-379l314 500l-133 1020h356l63 -604h3l358 604h383z" />
    <glyph glyph-name="Amacron" unicode="&#x100;" horiz-adv-x="1560" 
d="M694 1655l70 260h735l-69 -260h-736zM1083 0l-39 274h-595l-173 -274h-405l940 1493h430l232 -1493h-390zM932 1081l-293 -487h362z" />
    <glyph glyph-name="amacron" unicode="&#x101;" horiz-adv-x="1314" 
d="M453 1198l69 260h735l-69 -260h-735zM731 111h-4q-131 -131 -293 -131q-118 0 -201 59q-85 59 -129 154q-41 93 -41 202q0 122 46 246q48 124 120 207q75 88 179.5 139t216.5 51q198 0 307 -149h2l37 129h362l-223 -832q-22 -84 -25 -151v-35h-364v33q1 11 3 28t3.5 29
t3.5 21zM606 299q99 0 172 76q74 77 74 182q0 76 -47 117q-48 45 -125 45q-101 0 -174 -76q-74 -77 -74 -184q0 -72 47.5 -116t126.5 -44z" />
    <glyph glyph-name="Abreve" unicode="&#x102;" horiz-adv-x="1560" 
d="M1257 2005h252q-49 -162 -166 -264q-115 -103 -278 -103q-148 0 -246 88q-102 86 -102 230q0 17 4 49h244q-5 -63 27.5 -104t92.5 -41q59 0 103.5 39.5t68.5 105.5zM1241 1493l232 -1493h-390l-39 274h-595l-173 -274h-405l940 1493h430zM639 594h362l-69 487z" />
    <glyph glyph-name="abreve" unicode="&#x103;" horiz-adv-x="1314" 
d="M1010 1548h252q-49 -162 -166 -264t-279 -102q-148 0 -246 88q-100 87 -100 231q0 33 2 47h244q-5 -63 28 -104t93 -41q118 0 172 145zM731 111h-4q-131 -131 -293 -131q-118 0 -201 59q-85 59 -129 154q-41 93 -41 202q0 122 46 246q48 124 120 207q75 88 179.5 139
t216.5 51q198 0 307 -149h2l37 129h362l-223 -832q-22 -84 -25 -151v-35h-364v33q1 11 3 28t3.5 29t3.5 21zM606 299q99 0 172 76q74 77 74 182q0 76 -47 117q-48 45 -125 45q-101 0 -174 -76q-74 -77 -74 -184q0 -72 47.5 -116t126.5 -44z" />
    <glyph glyph-name="Aogonek" unicode="&#x104;" horiz-adv-x="1560" 
d="M1473 0h-3q-60 -28 -149 -92q-98 -73 -98 -133q0 -37 37 -58q34 -18 73 -18q3 0 14 1t19 1l-53 -199q-41 -8 -113 -8q-97 0 -176 43q-41 22 -65.5 61t-24.5 87q0 166 248 315h-99l-39 274h-595l-173 -274h-405l940 1493h430zM639 594h362l-69 487z" />
    <glyph glyph-name="aogonek" unicode="&#x105;" horiz-adv-x="1314" 
d="M971 1018h362l-223 -832q-22 -84 -25 -151v-35q-66 -32 -149 -92q-96 -72 -96 -133q0 -39 34 -58q34 -18 74 -18q2 0 13.5 1t19.5 1l-53 -199q-41 -8 -113 -8q-37 0 -73 6.5t-71.5 21t-62.5 36t-43.5 54.5t-15.5 73q0 166 248 315h-76v33q1 11 3 28t3.5 29t3.5 21h-4
q-131 -131 -293 -131q-118 0 -201 59q-88 63 -127 154q-43 90 -43 202q0 122 46 246q48 124 120 207q75 88 179.5 139t216.5 51q198 0 307 -149h2zM606 299q99 0 172 76q74 77 74 182q0 76 -47 117q-48 45 -125 45q-101 0 -174 -76q-74 -77 -74 -184q0 -72 47.5 -116
t126.5 -44z" />
    <glyph glyph-name="Cacute" unicode="&#x106;" horiz-adv-x="1648" 
d="M1192 1624h-291l313 375h404zM141 645q0 180 70 338q73 165 190 279q125 122 283 186q162 70 340 70q136 0 248 -32t185.5 -83t127.5 -120.5t81.5 -137.5t39.5 -141l-365 -113q-21 104 -94 182q-41 44 -109.5 69t-154.5 25q-90 0 -174.5 -42t-146.5 -113
q-60 -72 -95 -160.5t-35 -175.5q0 -155 95 -250q101 -96 262 -96q180 0 309 133q53 58 94 141l336 -129q-59 -147 -178 -264q-65 -63 -154 -119q-86 -53 -203.5 -84t-244.5 -31q-146 0 -276.5 49t-225.5 138q-97 87 -151 212.5t-54 268.5z" />
    <glyph glyph-name="cacute" unicode="&#x107;" horiz-adv-x="1189" 
d="M856 1188h-293l316 373h403zM580 -23q-238 0 -373 132q-135 129 -135 346q0 121 49 231q51 111 135 186q85 79 197 124.5t231 45.5q107 0 198 -31.5t152 -86.5q123 -111 144 -258l-334 -95q-13 67 -58.5 107.5t-119.5 40.5q-104 0 -174 -76q-68 -77 -68 -178
q0 -75 48 -120.5t132 -45.5q67 0 122.5 37t82.5 96l303 -115q-60 -144 -207 -243q-148 -97 -325 -97z" />
    <glyph glyph-name="Ccircumflex" unicode="&#x108;" horiz-adv-x="1648" 
d="M1448 1628h-279l-65 193l-168 -193h-301l336 361h327zM141 645q0 180 70 338q73 165 190 279q125 122 283 186q162 70 340 70q136 0 248 -32t185.5 -83t127.5 -120.5t81.5 -137.5t39.5 -141l-365 -113q-21 104 -94 182q-41 44 -109.5 69t-154.5 25q-90 0 -174.5 -42
t-146.5 -113q-60 -72 -95 -160.5t-35 -175.5q0 -155 95 -250q101 -96 262 -96q180 0 309 133q53 58 94 141l336 -129q-59 -147 -178 -264q-65 -63 -154 -119q-86 -53 -203.5 -84t-244.5 -31q-146 0 -276.5 49t-225.5 138q-97 87 -151 212.5t-54 268.5z" />
    <glyph glyph-name="ccircumflex" unicode="&#x109;" horiz-adv-x="1189" 
d="M1118 1190h-278l-66 192l-168 -192h-301l336 360h328zM578 -23q-235 0 -373 132q-135 129 -135 346q0 123 51 231q50 109 133 186q84 79 197 124.5t231 45.5q108 0 199.5 -31.5t152.5 -86.5q120 -111 144 -258l-336 -95q-11 67 -56.5 107.5t-119.5 40.5q-107 0 -174 -76
q-70 -76 -70 -178q0 -74 49 -120t131 -46q68 0 123 37t82 96l303 -115q-56 -141 -205 -243q-148 -97 -327 -97z" />
    <glyph glyph-name="Cdotaccent" unicode="&#x10a;" horiz-adv-x="1648" 
d="M1053 1630q-81 0 -135 51t-54 136q0 94 68 165q65 68 162 68q81 0 137 -53q53 -50 53 -135q0 -96 -65 -164q-71 -68 -166 -68zM141 645q0 180 70 338q73 165 190 279q125 122 283 186q162 70 340 70q136 0 248 -32t185.5 -83t127.5 -120.5t81.5 -137.5t39.5 -141
l-365 -113q-21 104 -94 182q-41 44 -109.5 69t-154.5 25q-90 0 -174.5 -42t-146.5 -113q-60 -72 -95 -160.5t-35 -175.5q0 -155 95 -250q101 -96 262 -96q180 0 309 133q53 58 94 141l336 -129q-59 -147 -178 -264q-65 -63 -154 -119q-86 -53 -203.5 -84t-244.5 -31
q-146 0 -276.5 49t-225.5 138q-97 87 -151 212.5t-54 268.5z" />
    <glyph glyph-name="cdotaccent" unicode="&#x10b;" horiz-adv-x="1189" 
d="M717 1155q-80 0 -133 53q-56 50 -56 133q0 98 68 166t162 68q83 0 137 -51q55 -55 55 -138q0 -96 -67 -163q-68 -68 -166 -68zM578 -23q-235 0 -373 132q-135 129 -135 346q0 123 51 231q50 109 133 186q84 79 197 124.5t231 45.5q108 0 199.5 -31.5t152.5 -86.5
q120 -111 144 -258l-336 -95q-11 67 -56.5 107.5t-119.5 40.5q-107 0 -174 -76q-70 -76 -70 -178q0 -74 49 -120t131 -46q68 0 123 37t82 96l303 -115q-56 -141 -205 -243q-148 -97 -327 -97z" />
    <glyph glyph-name="Ccaron" unicode="&#x10c;" horiz-adv-x="1648" 
d="M754 1989h280l64 -193l168 193h301l-336 -361h-326zM141 645q0 180 70 338q73 165 190 279q125 122 283 186q162 70 340 70q136 0 248 -32t185.5 -83t127.5 -120.5t81.5 -137.5t39.5 -141l-365 -113q-21 104 -94 182q-41 44 -109.5 69t-154.5 25q-90 0 -174.5 -42
t-146.5 -113q-60 -72 -95 -160.5t-35 -175.5q0 -155 95 -250q101 -96 262 -96q180 0 309 133q53 58 94 141l336 -129q-59 -147 -178 -264q-65 -63 -154 -119q-86 -53 -203.5 -84t-244.5 -31q-146 0 -276.5 49t-225.5 138q-97 87 -151 212.5t-54 268.5z" />
    <glyph glyph-name="ccaron" unicode="&#x10d;" horiz-adv-x="1189" 
d="M424 1550h281l63 -192l168 192h303l-338 -360h-326zM578 -23q-235 0 -373 132q-135 129 -135 346q0 123 51 231q50 109 133 186q84 79 197 124.5t231 45.5q108 0 199.5 -31.5t152.5 -86.5q120 -111 144 -258l-336 -95q-11 67 -56.5 107.5t-119.5 40.5q-107 0 -174 -76
q-70 -76 -70 -178q0 -74 49 -120t131 -46q68 0 123 37t82 96l303 -115q-56 -141 -205 -243q-148 -97 -327 -97z" />
    <glyph glyph-name="Dcaron" unicode="&#x10e;" horiz-adv-x="1576" 
d="M606 1989h279l65 -193l168 193h301l-336 -361h-325zM549 0h-520l395 1493h407q171 0 306.5 -38t234.5 -114t152 -197t53 -280q0 -162 -68 -327q-68 -160 -200 -283q-272 -254 -760 -254zM1182 834q0 313 -387 313h-84l-213 -799h98q125 0 230.5 32t172.5 85
q66 53 107 117q76 117 76 252z" />
    <glyph glyph-name="dcaron" unicode="&#x10f;" horiz-adv-x="1351" 
d="M1112 1554h363l-365 -1368q-22 -84 -25 -151v-35h-364v33q0 23 10 78h-4q-134 -131 -293 -131q-118 0 -201 59q-85 59 -129 154q-41 93 -41 202q0 122 46 246q48 124 120 207q75 88 179.5 139t216.5 51q198 0 307 -149h2zM1458 1108h273l221 446h-375zM604 299
q101 0 174 76q74 77 74 182q0 76 -47 117q-48 45 -125 45q-104 0 -174 -76q-74 -77 -74 -184q0 -72 47 -116t125 -44z" />
    <glyph glyph-name="Dcroat" unicode="&#x110;" horiz-adv-x="1638" 
d="M90 0l156 594h-174l86 317h174l153 582h408q170 0 305 -38t234 -114t152.5 -197t53.5 -280q0 -169 -67 -327t-201 -283q-272 -254 -760 -254h-520zM1243 834q0 211 -172 278q-89 37 -213 37h-86l-65 -238h268l-84 -317h-268l-66 -246h100q125 0 230 32t172 85
q58 45 108 117q76 122 76 252z" />
    <glyph glyph-name="dslash" unicode="&#x111;" horiz-adv-x="1314" 
d="M1573 1401l-64 -242h-139l-260 -973q-25 -98 -25 -151v-35h-364v33q3 41 10 78h-4q-134 -131 -293 -131q-118 0 -201 59q-85 59 -129 154q-41 93 -41 202q0 122 46 246q48 124 120 207q76 88 179 137q106 53 217 53q198 0 307 -149h2l74 270h-291l63 242h291l41 153h363
l-41 -153h139zM604 299q101 0 174 76q74 77 74 182q0 76 -47 117q-48 45 -125 45q-104 0 -174 -76q-74 -77 -74 -184q0 -72 47 -116t125 -44z" />
    <glyph glyph-name="Emacron" unicode="&#x112;" horiz-adv-x="1308" 
d="M612 1655l68 260h735l-67 -260h-736zM29 0l397 1493h1040l-88 -334h-665l-66 -244h606l-86 -321h-606l-69 -258h671l-88 -336h-1046z" />
    <glyph glyph-name="emacron" unicode="&#x113;" horiz-adv-x="1204" 
d="M371 1198l69 260h736l-70 -260h-735zM1110 418h-700q0 -71 59 -115q58 -43 125 -43q66 0 120.5 25.5t82.5 76.5l282 -126q-88 -164 -284 -226q-103 -33 -211 -33q-225 0 -369 129q-145 130 -145 345q0 117 49 227q55 114 135 188q84 81 197 127q118 47 237 47
q189 0 322 -108q66 -54 103.5 -134t37.5 -173q0 -104 -41 -207zM674 764q-71 0 -133 -39q-69 -44 -92 -107h360q8 20 8 31q0 56 -39 85.5t-104 29.5z" />
    <glyph glyph-name="Edotaccent" unicode="&#x116;" horiz-adv-x="1308" 
d="M973 1630q-79 0 -133 51q-56 53 -56 136q0 94 68 165q68 68 162 68q84 0 137 -53q55 -52 55 -135q0 -97 -67 -164q-68 -68 -166 -68zM29 0l397 1493h1040l-88 -334h-665l-66 -244h606l-86 -321h-606l-69 -258h671l-88 -336h-1046z" />
    <glyph glyph-name="edotaccent" unicode="&#x117;" horiz-adv-x="1204" 
d="M719 1155q-79 0 -135 53q-54 51 -54 133q0 98 68 166t162 68q80 0 137 -51q55 -55 55 -138q0 -96 -67 -163q-68 -68 -166 -68zM1110 418h-700q0 -71 59 -115q58 -43 125 -43q66 0 120.5 25.5t82.5 76.5l282 -126q-88 -164 -284 -226q-103 -33 -211 -33q-225 0 -369 129
q-145 130 -145 345q0 117 49 227q55 114 135 188q84 81 197 127q118 47 237 47q189 0 322 -108q66 -54 103.5 -134t37.5 -173q0 -104 -41 -207zM674 764q-71 0 -133 -39q-69 -44 -92 -107h360q8 20 8 31q0 56 -39 85.5t-104 29.5z" />
    <glyph glyph-name="Eogonek" unicode="&#x118;" horiz-adv-x="1306" 
d="M1378 1159h-665l-66 -244h606l-86 -321h-606l-69 -258h671l-90 -336q-66 -32 -149 -92q-43 -32 -70 -67.5t-27 -65.5q0 -37 35 -58q34 -18 74 -18q2 0 13.5 1t19.5 1l-54 -199q-41 -8 -112 -8q-37 0 -73 6.5t-71.5 21t-62.5 36t-43.5 54.5t-15.5 73q0 166 247 315h-755
l397 1493h1040z" />
    <glyph glyph-name="eogonek" unicode="&#x119;" horiz-adv-x="1204" 
d="M1151 625q0 -104 -41 -207h-700q0 -71 59 -115q58 -43 125 -43q66 0 120.5 25.5t82.5 76.5l282 -126q-100 -183 -327 -238q-87 -47 -148 -92q-42 -31 -68 -66.5t-26 -64.5q0 -37 35 -58q35 -18 76 -18q2 0 12 1t18 1l-53 -199q-41 -8 -113 -8q-94 0 -176 43
q-41 22 -65.5 61t-24.5 87q0 161 234 305q-174 37 -279 157q-104 122 -104 304q0 117 49 227q55 114 135 188q84 81 197 127q118 47 237 47q189 0 322 -108q66 -54 103.5 -134t37.5 -173zM449 618h360q8 20 8 31q0 56 -39 85.5t-104 29.5q-71 0 -133 -39q-69 -44 -92 -107z
" />
    <glyph glyph-name="Ecaron" unicode="&#x11a;" horiz-adv-x="1308" 
d="M678 1989h278l66 -193l168 193h301l-336 -361h-326zM1163 336l-88 -336h-1046l397 1493h1040l-88 -334h-665l-66 -244h606l-86 -321h-606l-69 -258h671z" />
    <glyph glyph-name="ecaron" unicode="&#x11b;" horiz-adv-x="1204" 
d="M430 1550h279l65 -192l168 192h301l-336 -360h-327zM1110 418h-700q0 -71 59 -115q58 -43 125 -43q66 0 120.5 25.5t82.5 76.5l282 -126q-88 -164 -284 -226q-103 -33 -211 -33q-225 0 -369 129q-145 130 -145 345q0 117 49 227q55 114 135 188q84 81 197 127
q118 47 237 47q189 0 322 -108q66 -54 103.5 -134t37.5 -173q0 -104 -41 -207zM674 764q-71 0 -133 -39q-69 -44 -92 -107h360q8 20 8 31q0 56 -39 85.5t-104 29.5z" />
    <glyph glyph-name="Gcircumflex" unicode="&#x11c;" horiz-adv-x="1665" 
d="M1448 1628h-279l-65 193l-168 -193h-301l336 361h327zM1673 1065l-368 -111q-21 89 -101 154q-81 66 -217 66q-119 0 -229 -72q-109 -74 -172 -189q-64 -122 -64 -239q0 -150 96 -254q94 -101 269 -101q122 0 217 56q92 51 141 145h-430l70 295h792q-6 -197 -85.5 -373.5
t-219.5 -294.5q-99 -81 -233 -126.5t-289 -45.5q-153 -2 -285.5 48t-226 138.5t-145.5 214t-50 269.5q0 179 72 346q69 160 191 279q118 112 282 180q160 66 340 66q119 0 224 -28t178 -75q70 -46 122 -104q98 -112 121 -244z" />
    <glyph glyph-name="gcircumflex" unicode="&#x11d;" horiz-adv-x="1306" 
d="M1214 1190h-278l-66 192l-168 -192h-301l336 360h328zM434 -203q98 0 167.5 66t103.5 188l20 80q-75 -57 -137 -84q-64 -27 -150 -27q-150 -4 -261.5 114.5t-108.5 277.5q0 127 45 237q44 118 116 199q75 84 174 135q105 51 211 51q208 0 316 -153h2l37 137h358
l-258 -971q-42 -152 -80 -221q-183 -336 -553 -336q-159 0 -273.5 53t-176.5 142q-80 111 -80 237l327 66q0 -81 54 -138q56 -53 147 -53zM602 317q95 0 166 74q72 75 72 174q0 69 -47 113q-46 43 -119 43q-97 0 -168 -74q-70 -73 -70 -176q0 -69 45.5 -111.5t120.5 -42.5z
" />
    <glyph glyph-name="Gbreve" unicode="&#x11e;" horiz-adv-x="1665" 
d="M1249 2005h252q-49 -162 -166 -264q-112 -103 -278 -103q-145 0 -246 88q-100 84 -100 230q0 33 2 49h243q-5 -63 28 -104t93 -41q118 0 172 145zM1673 1065l-368 -111q-21 89 -101 154q-81 66 -217 66q-119 0 -229 -72q-109 -74 -172 -189q-64 -122 -64 -239
q0 -150 96 -254q94 -101 269 -101q122 0 217 56q92 51 141 145h-430l70 295h792q-6 -197 -85.5 -373.5t-219.5 -294.5q-99 -81 -233 -126.5t-289 -45.5q-153 -2 -285.5 48t-226 138.5t-145.5 214t-50 269.5q0 179 72 346q69 160 191 279q118 112 282 180q160 66 340 66
q119 0 224 -28t178 -75q70 -46 122 -104q98 -112 121 -244z" />
    <glyph glyph-name="gbreve" unicode="&#x11f;" horiz-adv-x="1306" 
d="M1006 1548h254q-48 -158 -166 -264q-117 -102 -281 -102q-145 0 -246 88q-100 89 -100 231q0 19 4 47h244q-6 -63 26.5 -104t94.5 -41q59 0 103 39.5t67 105.5zM434 -203q98 0 167.5 66t103.5 188l20 80q-75 -57 -137 -84q-64 -27 -150 -27q-150 -4 -261.5 114.5
t-108.5 277.5q0 127 45 237q44 118 116 199q75 84 174 135q105 51 211 51q208 0 316 -153h2l37 137h358l-258 -971q-42 -152 -80 -221q-183 -336 -553 -336q-159 0 -273.5 53t-176.5 142q-80 111 -80 237l327 66q0 -81 54 -138q56 -53 147 -53zM602 317q95 0 166 74
q72 75 72 174q0 69 -47 113q-46 43 -119 43q-97 0 -168 -74q-70 -73 -70 -176q0 -69 45.5 -111.5t120.5 -42.5z" />
    <glyph glyph-name="Gdotaccent" unicode="&#x120;" horiz-adv-x="1665" 
d="M1053 1630q-81 0 -135 51t-54 136q0 94 68 165q65 68 162 68q81 0 137 -53q53 -50 53 -135q0 -96 -65 -164q-71 -68 -166 -68zM1673 1065l-368 -111q-21 89 -101 154q-81 66 -217 66q-119 0 -229 -72q-109 -74 -172 -189q-64 -122 -64 -239q0 -150 96 -254
q94 -101 269 -101q122 0 217 56q92 51 141 145h-430l70 295h792q-6 -197 -85.5 -373.5t-219.5 -294.5q-99 -81 -233 -126.5t-289 -45.5q-153 -2 -285.5 48t-226 138.5t-145.5 214t-50 269.5q0 179 72 346q69 160 191 279q118 112 282 180q160 66 340 66q119 0 224 -28
t178 -75q70 -46 122 -104q98 -112 121 -244z" />
    <glyph glyph-name="gdotaccent" unicode="&#x121;" horiz-adv-x="1306" 
d="M836 1155q-83 0 -136 53q-55 49 -55 133q0 98 68 166t164 68q80 0 137 -51q53 -56 53 -138q0 -95 -68 -163t-163 -68zM434 -203q98 0 167.5 66t103.5 188l20 80q-75 -57 -137 -84q-64 -27 -150 -27q-150 -4 -261.5 114.5t-108.5 277.5q0 127 45 237q44 118 116 199
q75 84 174 135q105 51 211 51q208 0 316 -153h2l37 137h358l-258 -971q-42 -152 -80 -221q-183 -336 -553 -336q-159 0 -273.5 53t-176.5 142q-80 111 -80 237l327 66q0 -81 54 -138q56 -53 147 -53zM602 317q95 0 166 74q72 75 72 174q0 69 -47 113q-46 43 -119 43
q-97 0 -168 -74q-70 -73 -70 -176q0 -69 45.5 -111.5t120.5 -42.5z" />
    <glyph glyph-name="Gcommaaccent" unicode="&#x122;" horiz-adv-x="1665" 
d="M1673 1065l-368 -111q-21 89 -101 154q-81 66 -217 66q-119 0 -229 -72q-109 -74 -172 -189q-64 -122 -64 -239q0 -150 96 -254q94 -101 269 -101q122 0 217 56q92 51 141 145h-430l70 295h792q-6 -197 -85.5 -373.5t-219.5 -294.5q-99 -81 -233 -126.5t-289 -45.5
q-153 -2 -285.5 48t-226 138.5t-145.5 214t-50 269.5q0 179 72 346q69 160 191 279q118 112 282 180q160 66 340 66q119 0 224 -28t178 -75q70 -46 122 -104q98 -112 121 -244zM506 -750l29 119q31 0 65 8t71 24.5t68 49t47 76.5q-32 -19 -73 -19q-68 0 -110 42.5t-42 111.5
q0 78 57 129t138 51q90 0 139 -56.5t49 -152.5q0 -106 -52.5 -189t-143.5 -132q-118 -68 -242 -62z" />
    <glyph glyph-name="gcommaaccent" unicode="&#x123;" horiz-adv-x="1306" 
d="M434 -203q98 0 167.5 66t103.5 188l20 80q-75 -57 -137 -84q-64 -27 -150 -27q-150 -4 -261.5 114.5t-108.5 277.5q0 127 45 237q44 118 116 199q75 84 174 135q105 51 211 51q208 0 316 -153h2l37 137h358l-258 -971q-42 -152 -80 -221q-183 -336 -553 -336
q-159 0 -273.5 53t-176.5 142q-80 111 -80 237l327 66q0 -81 54 -138q56 -53 147 -53zM602 317q95 0 166 74q72 75 72 174q0 69 -47 113q-46 43 -119 43q-97 0 -168 -74q-70 -73 -70 -176q0 -69 45.5 -111.5t120.5 -42.5zM1087 1765l-26 -116q-105 0 -182 -62
q-53 -40 -70 -96q37 18 74 18q69 0 110 -42t41 -111q0 -78 -57 -129t-137 -51q-91 0 -140 56t-49 152q0 104 52.5 186.5t142.5 135.5q119 68 241 59z" />
    <glyph glyph-name="Hbar" unicode="&#x126;" horiz-adv-x="1697" 
d="M1896 1341l-65 -251h-170l-289 -1090h-377l152 573h-553l-154 -573h-374l290 1090h-166l66 251h166l41 152h377l-41 -152h555l41 152h374l-40 -152h167zM1241 920l45 170h-553l-47 -170h555z" />
    <glyph glyph-name="hbar" unicode="&#x127;" horiz-adv-x="1241" 
d="M889 1038q145 0 217 -84q76 -85 76 -217q0 -71 -31 -186l-147 -551h-361l141 537q11 42 11 61q0 52 -28.5 80.5t-80.5 28.5q-145 0 -188 -166l-146 -541h-362l309 1159h-137l63 242h140l41 153h360l-41 -153h293l-66 -242h-293l-65 -254h2q136 133 293 133z" />
    <glyph glyph-name="Itilde" unicode="&#x128;" horiz-adv-x="692" 
d="M819 1628q-44 0 -85.5 14.5t-67.5 36.5q-73 52 -119 52q-41 0 -62 -35q-16 -27 -28 -66h-201l16 66q31 123 107 196q77 74 188 74q41 0 82.5 -15t67.5 -36q69 -49 119 -49q26 0 46.5 15t28.5 34q11 18 21 47h194q-12 -57 -18 -74q-30 -117 -107 -188q-72 -72 -182 -72z
M29 0l397 1493h377l-400 -1493h-374z" />
    <glyph glyph-name="itilde" unicode="&#x129;" horiz-adv-x="610" 
d="M651 1190q-82 0 -153 51q-66 51 -119 51q-39 0 -60 -35q-21 -34 -30 -65h-201l16 65q29 121 109 197q74 74 188 74q81 0 150 -49q73 -52 117 -52q27 0 47.5 15t29.5 35q7 11 21 47h195q-4 -21 -11 -45t-8 -29q-29 -114 -106 -188q-78 -72 -185 -72zM358 0h-368l272 1018
h369z" />
    <glyph glyph-name="Imacron" unicode="&#x12a;" horiz-adv-x="692" 
d="M315 1655l68 260h680l-70 -260h-678zM29 0l397 1493h377l-400 -1493h-374z" />
    <glyph glyph-name="imacron" unicode="&#x12b;" horiz-adv-x="606" 
d="M162 1198l69 260h652l-70 -260h-651zM356 0h-366l272 1018h365z" />
    <glyph glyph-name="Ibreve" unicode="&#x12c;" horiz-adv-x="692" 
d="M881 2005h252q-49 -162 -166 -264q-115 -103 -281 -103q-145 0 -246 88q-100 86 -100 230q0 17 4 49h244q-5 -63 27.5 -104t93.5 -41q59 0 103.5 39.5t68.5 105.5zM803 1493l-400 -1493h-374l397 1493h377z" />
    <glyph glyph-name="ibreve" unicode="&#x12d;" horiz-adv-x="610" 
d="M725 1548h252q-49 -162 -166 -264t-281 -102q-144 0 -245 88t-101 231q0 33 2 47h244q-5 -63 28 -104t95 -41q59 0 103.5 39.5t68.5 105.5zM262 1018h369l-273 -1018h-368z" />
    <glyph glyph-name="Iogonek" unicode="&#x12e;" horiz-adv-x="692" 
d="M403 0h3q-71 -33 -150 -92q-44 -32 -71 -67.5t-27 -65.5q0 -37 35 -58q35 -18 75 -18q2 0 13.5 1t19.5 1l-53 -199q-41 -8 -113 -8q-47 0 -92 10.5t-85.5 32.5t-65.5 60t-25 88q0 164 248 315h-86l397 1493h377z" />
    <glyph glyph-name="iogonek" unicode="&#x12f;" horiz-adv-x="606" 
d="M559 1575q78 0 135 -51q54 -54 54 -138q0 -97 -66 -163q-71 -68 -166 -68q-79 0 -135 53q-53 50 -53 133q0 99 67 166q68 68 164 68zM262 1018h365l-273 -1018h2q-68 -32 -149 -92q-44 -32 -71 -67.5t-27 -65.5q0 -37 34 -58q35 -18 76 -18q23 0 47 4l-51 -199
q-62 -10 -131 -10q-97 0 -176 43q-41 22 -65.5 61t-24.5 87q0 164 248 315h-76z" />
    <glyph glyph-name="Idot" unicode="&#x130;" horiz-adv-x="692" 
d="M649 1630q-81 0 -135 51q-53 50 -53 136q0 97 65 165q68 68 164 68q81 0 137 -53q54 -54 54 -135q0 -96 -68 -164t-164 -68zM29 0l397 1493h377l-400 -1493h-374z" />
    <glyph glyph-name="dotlessi" unicode="&#x131;" horiz-adv-x="606" 
d="M354 0h-364l272 1018h365z" />
    <glyph glyph-name="IJ" unicode="&#x132;" horiz-adv-x="1343" 
d="M150 545l385 14q-17 -67 -17 -104q0 -125 121 -125q64 0 110 41t64 110l270 1012h383l-278 -1036q-129 -477 -592 -477q-109 0 -200 32t-150 88q-119 116 -119 283q0 80 23 162zM784 1493h-378l-199 -739h381z" />
    <glyph glyph-name="Kcommaaccent" unicode="&#x136;" horiz-adv-x="1454" 
d="M918 0l-320 713l-190 -713h-379l397 1493h381l-170 -633h2l600 633h481l-747 -756l364 -737h-419zM332 -750l30 119q43 0 88.5 12.5t93.5 50.5t68 95q-28 -19 -71 -19q-68 0 -111 42.5t-43 111.5q0 76 59 129q54 51 136 51q90 0 139 -56.5t49 -152.5q0 -106 -53 -189
t-144 -132q-115 -68 -241 -62z" />
    <glyph glyph-name="kcommaaccent" unicode="&#x137;" horiz-adv-x="1216" 
d="M352 0h-362l416 1554h362l-256 -952h6l383 416h451l-492 -506l227 -512h-393l-209 502zM158 -750l30 119q43 0 88.5 12.5t93.5 50.5t68 95q-28 -19 -71 -19q-68 0 -111 42.5t-43 111.5q0 76 59 129q54 51 136 51q90 0 139 -56.5t49 -152.5q0 -106 -53 -189t-144 -132
q-115 -68 -241 -62z" />
    <glyph glyph-name="Lacute" unicode="&#x139;" horiz-adv-x="1177" 
d="M807 1624h-293l315 375h404zM1028 0h-999l397 1493h379l-307 -1151h620z" />
    <glyph glyph-name="lacute" unicode="&#x13a;" horiz-adv-x="606" 
d="M770 1681h-293l316 375h403zM-10 0l416 1554h364l-414 -1554h-366z" />
    <glyph glyph-name="Lcommaaccent" unicode="&#x13b;" horiz-adv-x="1177" 
d="M1028 0h-999l397 1493h379l-307 -1151h620zM193 -750l28 119q43 0 88.5 12.5t93.5 50.5t68 95q-29 -19 -72 -19q-68 0 -110.5 42.5t-42.5 111.5q0 76 59 129q57 51 135 51q91 0 141 -56.5t50 -152.5q0 -106 -53 -189t-144 -132q-118 -68 -241 -62z" />
    <glyph glyph-name="lcommaaccent" unicode="&#x13c;" horiz-adv-x="606" 
d="M-10 0l416 1554h364l-414 -1554h-366zM-186 -750l30 119q43 0 88.5 12.5t93.5 50.5t68 95q-32 -19 -74 -19q-68 0 -109.5 42.5t-41.5 111.5q0 78 57 129t137 51q90 0 139.5 -56.5t49.5 -152.5q0 -106 -53 -189t-144 -132q-115 -68 -241 -62z" />
    <glyph glyph-name="Lcaron" unicode="&#x13d;" horiz-adv-x="1208" 
d="M1214 1090h-272l119 446h375zM1028 0h-999l397 1493h379l-307 -1151h620z" />
    <glyph glyph-name="lcaron" unicode="&#x13e;" horiz-adv-x="645" 
d="M-10 0l416 1554h364l-414 -1554h-366zM1026 1108h-272l118 446h375z" />
    <glyph glyph-name="Ldot" unicode="&#x13f;" horiz-adv-x="1196" 
d="M1028 0h-999l397 1493h379l-307 -1151h620zM1004 565q-83 0 -136 53q-53 50 -53 136q0 95 66 164q67 67 163 67q85 0 136 -51q55 -52 55 -135q0 -99 -68 -164q-67 -70 -163 -70z" />
    <glyph glyph-name="ldot" unicode="&#x140;" horiz-adv-x="960" 
d="M-10 0l416 1554h364l-414 -1554h-366zM791 389q-82 0 -136 51q-53 53 -53 135q0 98 68 166q65 68 161 68q81 0 138 -51q53 -56 53 -137q0 -96 -68 -164t-163 -68z" />
    <glyph glyph-name="Lslash" unicode="&#x141;" horiz-adv-x="1275" 
d="M592 342h629l-93 -342h-1003l135 508l-219 -88l88 332l221 88l174 653h375l-129 -483l438 176l-90 -334l-436 -176z" />
    <glyph glyph-name="lslash" unicode="&#x142;" horiz-adv-x="884" 
d="M969 1036l-88 -329l-219 -97l-164 -610h-367l115 430l-219 -96l88 332l219 94l213 794h364l-163 -614z" />
    <glyph glyph-name="Nacute" unicode="&#x143;" horiz-adv-x="1654" 
d="M1272 1624h-293l315 375h404zM954 0l-303 926h-2l-248 -926h-372l397 1493h424l295 -911h2l244 911h374l-399 -1493h-412z" />
    <glyph glyph-name="nacute" unicode="&#x144;" horiz-adv-x="1241" 
d="M942 1188h-291l314 373h405zM641 0l143 537q9 30 9 61q0 52 -28.5 80.5t-80.5 28.5q-143 0 -186 -166l-146 -541h-362l272 1018h361l-31 -113h4q136 133 293 133q145 0 217 -84q74 -83 74 -217q0 -67 -29 -186l-147 -551h-363z" />
    <glyph glyph-name="Ncommaaccent" unicode="&#x145;" horiz-adv-x="1654" 
d="M954 0l-303 926h-2l-248 -926h-372l397 1493h424l295 -911h2l244 911h374l-399 -1493h-412zM371 -750l30 119q43 0 88.5 12.5t93.5 50.5t68 95q-29 -19 -71 -19q-68 0 -111 42.5t-43 111.5q0 76 59 129q54 51 136 51q90 0 139 -56.5t49 -152.5q0 -105 -53 -188.5
t-142 -132.5q-118 -68 -243 -62z" />
    <glyph glyph-name="ncommaaccent" unicode="&#x146;" horiz-adv-x="1241" 
d="M641 0l143 537q9 30 9 61q0 52 -28.5 80.5t-80.5 28.5q-143 0 -186 -166l-146 -541h-362l272 1018h361l-31 -113h4q136 133 293 133q145 0 217 -84q74 -83 74 -217q0 -67 -29 -186l-147 -551h-363zM137 -750l31 119q43 0 88.5 12.5t93.5 50.5t68 95q-29 -19 -72 -19
q-68 0 -110.5 42.5t-42.5 111.5q0 76 59 129q54 51 135 51q90 0 139 -56.5t49 -152.5q0 -106 -52.5 -189t-143.5 -132q-115 -68 -242 -62z" />
    <glyph glyph-name="Ncaron" unicode="&#x147;" horiz-adv-x="1654" 
d="M829 1989h279l66 -193l167 193h301l-335 -361h-326zM1765 1493l-399 -1493h-412l-303 926h-2l-248 -926h-372l397 1493h424l295 -911h2l244 911h374z" />
    <glyph glyph-name="ncaron" unicode="&#x148;" horiz-adv-x="1241" 
d="M504 1550h280l66 -192l166 192h303l-336 -360h-328zM1151 551l-147 -551h-363l143 537q9 30 9 61q0 52 -28.5 80.5t-80.5 28.5q-143 0 -186 -166l-146 -541h-362l272 1018h361l-31 -113h4q136 133 293 133q145 0 217 -84q74 -83 74 -217q0 -67 -29 -186z" />
    <glyph glyph-name="Eng" unicode="&#x14a;" horiz-adv-x="1652" 
d="M981 -12l-328 942h-2l-250 -930h-372l397 1493h424l299 -893h2l240 893h374l-428 -1595q-47 -176 -170 -285q-134 -115 -362 -115q-140 0 -201 41l74 281q51 -23 98 -23q87 0 131.5 38t65.5 122z" />
    <glyph glyph-name="eng" unicode="&#x14b;" horiz-adv-x="1241" 
d="M629 -43l155 580q9 30 9 61q0 52 -28.5 80.5t-80.5 28.5q-143 0 -186 -166l-146 -541h-362l272 1018h361l-31 -113h4q136 133 293 133q145 0 217 -84q74 -83 74 -217q0 -67 -29 -186l-176 -653q-24 -87 -65 -157.5t-102.5 -126t-150 -86t-196.5 -30.5q-137 0 -201 41
l76 281q51 -23 96 -23q81 0 128 39.5t69 120.5z" />
    <glyph glyph-name="Omacron" unicode="&#x14c;" horiz-adv-x="1738" 
d="M692 1655l68 260h735l-68 -260h-735zM1028 1518q154 0 288 -51t226 -142q93 -90 144 -212t51 -259q0 -177 -72 -344q-71 -164 -192 -279q-119 -116 -283 -184q-162 -70 -338 -70q-138 0 -265 44t-227 126q-99 82 -157 211q-60 126 -60 287q0 182 72 342q71 164 191 281
q118 115 280 182q168 68 342 68zM532 674q0 -163 103 -252q100 -92 250 -92q122 0 231 71q104 68 168 183q62 115 62 239q0 144 -97 246q-94 98 -256 98q-91 0 -176.5 -41.5t-148.5 -111.5q-63 -69 -99.5 -158.5t-36.5 -181.5z" />
    <glyph glyph-name="omacron" unicode="&#x14d;" horiz-adv-x="1247" 
d="M410 1198l69 260h735l-69 -260h-735zM575 -23q-236 0 -370 134q-135 132 -135 340q0 112 45.5 219t126.5 190q80 83 194 131q113 49 242 49q117 0 214 -35.5t163 -99.5q133 -136 133 -336q0 -114 -45.5 -221t-128.5 -190q-74 -80 -195 -131q-115 -50 -244 -50zM594 299
q99 0 170 74q67 73 67 178q0 75 -47.5 121.5t-124.5 46.5q-100 0 -167 -76q-70 -73 -70 -176q0 -74 45.5 -121t126.5 -47z" />
    <glyph glyph-name="Ohungarumlaut" unicode="&#x150;" horiz-adv-x="1738" 
d="M944 1624h-291l314 375h405zM1434 1624h-291l313 375h406zM1028 1518q154 0 288 -51t226 -142q93 -90 144 -212t51 -259q0 -177 -72 -344q-71 -164 -192 -279q-119 -116 -283 -184q-162 -70 -338 -70q-138 0 -265 44t-227 126q-99 82 -157 211q-60 126 -60 287
q0 182 72 342q71 164 191 281q118 115 280 182q168 68 342 68zM532 674q0 -163 103 -252q100 -92 250 -92q122 0 231 71q104 68 168 183q62 115 62 239q0 144 -97 246q-94 98 -256 98q-91 0 -176.5 -41.5t-148.5 -111.5q-63 -69 -99.5 -158.5t-36.5 -181.5z" />
    <glyph glyph-name="ohungarumlaut" unicode="&#x151;" horiz-adv-x="1247" 
d="M616 1188h-292l315 373h403zM1106 1188h-293l315 373h404zM575 -23q-233 0 -370 134q-135 132 -135 340q0 112 46.5 219t127.5 190q79 82 192 131t244 49q117 0 214 -35.5t161 -99.5q133 -133 133 -336q0 -114 -45.5 -221t-126.5 -190q-77 -80 -195 -131
q-118 -50 -246 -50zM596 299q97 0 168 74q70 76 70 178q0 75 -48.5 121.5t-123.5 46.5q-103 0 -170 -76q-68 -74 -68 -176q0 -74 45.5 -121t126.5 -47z" />
    <glyph glyph-name="OE" unicode="&#x152;" horiz-adv-x="2420" 
d="M1141 0l24 86q-168 -109 -342 -109q-159 0 -301 63.5t-239 182.5q-67 79 -103.5 188t-36.5 234q0 182 72 342q71 164 191 281q118 115 280 182q168 68 342 68q163 0 281.5 -60t177.5 -164l53 199h1040l-90 -334h-665l-66 -244h606l-84 -321h-608l-69 -258h673l-90 -336
h-1046zM532 674q0 -162 101 -252q100 -92 252 -92q122 0 231 71q109 74 170 187q62 115 62 239q0 142 -97 244q-96 96 -258 96q-91 0 -176.5 -41.5t-148.5 -111.5q-63 -69 -99.5 -158.5t-36.5 -181.5z" />
    <glyph glyph-name="oe" unicode="&#x153;" horiz-adv-x="1955" 
d="M1905 625q0 -103 -43 -207h-699q0 -72 58 -115t125 -43t121.5 25.5t82.5 76.5l281 -126q-88 -164 -285 -226q-103 -33 -209 -33q-238 0 -372 152q-152 -152 -387 -152q-234 0 -371 134q-137 131 -137 340q0 113 45 219t125 190q79 82 192 131q116 49 244 49
q248 0 368 -153q166 153 398 153q189 0 319 -108q66 -54 105 -134t39 -173zM1200 618h363q6 18 6 31q0 56 -39 85.5t-105 29.5q-68 0 -133 -39q-66 -41 -92 -107zM594 299q100 0 170 70q70 76 70 178q0 75 -50 125q-50 47 -120 47q-106 0 -172 -72q-68 -71 -68 -176
q0 -70 45 -121t125 -51z" />
    <glyph glyph-name="Racute" unicode="&#x154;" horiz-adv-x="1423" 
d="M1470 1999l-426 -375h-292l313 375h405zM1475 1065q0 -164 -93 -295q-98 -134 -317 -197l170 -573h-381l-154 524h-153l-141 -524h-377l397 1493h465q328 0 475 -141q109 -106 109 -287zM631 846h180q124 0 199 47q77 48 77 139q0 52 -30 86q-46 49 -168 49h-172z" />
    <glyph glyph-name="racute" unicode="&#x155;" horiz-adv-x="880" 
d="M788 1188h-290l313 373h406zM979 1012l-94 -350q-53 18 -115 18q-101 0 -176 -45q-83 -51 -123 -189l-119 -446h-362l272 1018h359l-35 -127h4q124 139 297 139q55 0 92 -18z" />
    <glyph glyph-name="Rcommaaccent" unicode="&#x156;" horiz-adv-x="1423" 
d="M1475 1065q0 -164 -93 -295q-98 -134 -317 -197l170 -573h-381l-154 524h-153l-141 -524h-377l397 1493h465q328 0 475 -141q109 -106 109 -287zM631 846h180q124 0 199 47q77 48 77 139q0 52 -30 86q-46 49 -168 49h-172zM297 -750l31 119q43 0 88.5 12.5t93.5 50.5
t68 95q-29 -19 -72 -19q-68 0 -111 42.5t-43 111.5q0 75 60 129q57 51 135 51q91 0 140.5 -56.5t49.5 -152.5q0 -105 -53 -188.5t-143 -132.5q-118 -68 -244 -62z" />
    <glyph glyph-name="rcommaaccent" unicode="&#x157;" horiz-adv-x="880" 
d="M979 1012l-94 -350q-53 18 -115 18q-101 0 -176 -45q-83 -51 -123 -189l-119 -446h-362l272 1018h359l-35 -127h4q124 139 297 139q55 0 92 -18zM-150 -750l29 119q31 0 65 8t71 24.5t68.5 49t47.5 76.5q-32 -19 -74 -19q-68 0 -109.5 42.5t-41.5 111.5q0 78 57 129
t137 51q90 0 139.5 -56.5t49.5 -152.5q0 -106 -53 -189t-144 -132q-118 -68 -242 -62z" />
    <glyph glyph-name="Rcaron" unicode="&#x158;" horiz-adv-x="1423" 
d="M1436 1989l-336 -361h-326l-151 361h278l66 -193l168 193h301zM1475 1065q0 -164 -93 -295q-98 -134 -317 -197l170 -573h-381l-154 524h-153l-141 -524h-377l397 1493h465q328 0 475 -141q109 -106 109 -287zM631 846h180q124 0 199 47q77 48 77 139q0 52 -30 86
q-46 49 -168 49h-172z" />
    <glyph glyph-name="rcaron" unicode="&#x159;" horiz-adv-x="880" 
d="M338 1550h278l66 -192l168 192h301l-336 -360h-328zM979 1012l-94 -350q-53 18 -115 18q-101 0 -176 -45q-83 -51 -123 -189l-119 -446h-362l272 1018h359l-35 -127h4q124 139 297 139q55 0 92 -18z" />
    <glyph glyph-name="Sacute" unicode="&#x15a;" horiz-adv-x="1343" 
d="M1008 1624h-291l313 375h404zM877 438q0 91 -136 133l-125 39q-167 52 -268 162q-102 111 -102 244q0 97 33 180t90 142t132.5 100t160 61t172.5 19q232 0 370 -103q69 -52 103 -104q75 -109 75 -242l-350 -57q0 68 -43 125q-49 69 -166 69q-103 0 -149 -53
q-43 -46 -43 -92q0 -94 125 -131l127 -39q98 -29 173.5 -78.5t119.5 -107.5t66 -117.5t22 -116.5q0 -231 -162 -362q-160 -129 -436 -129q-133 0 -257 41.5t-210 121.5q-60 55 -94.5 134.5t-34.5 171.5q0 10 1 24.5t1 18.5l336 59q-5 -30 -5 -37q0 -103 74 -162
q70 -61 176 -61q110 0 166 47q58 46 58 100z" />
    <glyph glyph-name="sacute" unicode="&#x15b;" horiz-adv-x="1024" 
d="M737 1188h-293l314 373h405zM578 1040q98 0 180 -29.5t131 -78.5q96 -93 96 -201v-6l-303 -35q0 50 -35 74t-74 24q-42 0 -67 -21t-25 -46q0 -39 60 -57l100 -33q145 -46 215 -131q55 -72 55 -181q0 -132 -116 -235q-59 -49 -148.5 -78t-193.5 -29q-97 0 -178 21.5
t-130 56.5q-48 35 -77 78q-58 80 -58 160v14l295 49q0 -55 43 -90q42 -33 103 -33q52 0 80 21.5t28 50.5q0 47 -76 74l-71 22q-105 40 -156 76q-35 22 -61 55q-54 68 -54 162q0 150 125 248q122 98 312 98z" />
    <glyph glyph-name="Scircumflex" unicode="&#x15c;" horiz-adv-x="1343" 
d="M1260 1628h-281l-66 193l-165 -193h-304l336 361h328zM877 438q0 91 -136 133l-125 39q-167 52 -268 162q-102 111 -102 244q0 97 33 180t90 142t132.5 100t160 61t172.5 19q232 0 370 -103q69 -52 103 -104q75 -109 75 -242l-350 -57q0 68 -43 125q-49 69 -166 69
q-103 0 -149 -53q-43 -46 -43 -92q0 -94 125 -131l127 -39q98 -29 173.5 -78.5t119.5 -107.5t66 -117.5t22 -116.5q0 -231 -162 -362q-160 -129 -436 -129q-133 0 -257 41.5t-210 121.5q-60 55 -94.5 134.5t-34.5 171.5q0 10 1 24.5t1 18.5l336 59q-5 -30 -5 -37
q0 -103 74 -162q70 -61 176 -61q110 0 166 47q58 46 58 100z" />
    <glyph glyph-name="scircumflex" unicode="&#x15d;" horiz-adv-x="1024" 
d="M1001 1190h-280l-66 192l-166 -192h-303l336 360h328zM578 1040q98 0 180 -29.5t131 -78.5q96 -93 96 -201v-6l-303 -35q0 50 -35 74t-74 24q-42 0 -67 -21t-25 -46q0 -39 60 -57l100 -33q145 -46 215 -131q55 -72 55 -181q0 -132 -116 -235q-59 -49 -148.5 -78
t-193.5 -29q-97 0 -178 21.5t-130 56.5q-48 35 -77 78q-58 80 -58 160v14l295 49q0 -55 43 -90q42 -33 103 -33q52 0 80 21.5t28 50.5q0 47 -76 74l-71 22q-105 40 -156 76q-35 22 -61 55q-54 68 -54 162q0 150 125 248q122 98 312 98z" />
    <glyph glyph-name="Scedilla" unicode="&#x15e;" horiz-adv-x="1345" 
d="M756 930l129 -39q201 -64 293 -186q88 -116 88 -234q0 -213 -136 -340q-135 -126 -370 -147q18 -50 18 -117q0 -183 -114 -277q-116 -98 -316 -98q-91 0 -155 23l53 202q77 -6 86 -6q106 -1 163 87.5t33 191.5q-193 36 -317 143q-65 55 -102 137t-37 179v43l336 59
q-2 -12 -2 -37q0 -104 73 -162q70 -61 176 -61q110 0 166 47t56 100q0 91 -136 133l-123 39q-169 52 -270 162q-100 109 -100 244q0 97 33 180t90 142t132.5 100t160 61t172.5 19q113 0 208.5 -28t159.5 -75q68 -51 105 -104q75 -113 75 -242l-350 -57q0 64 -43 125
q-52 69 -168 69q-99 0 -149 -53q-41 -44 -41 -92q0 -93 123 -131z" />
    <glyph glyph-name="scedilla" unicode="&#x15f;" horiz-adv-x="1024" 
d="M573 788q-42 0 -66 -21t-24 -46q0 -39 58 -57l100 -33q145 -46 215 -131q55 -72 55 -181q0 -118 -94 -215q-96 -96 -262 -120q18 -46 18 -117q0 -186 -119.5 -280.5t-310.5 -94.5q-91 0 -155 23l53 202q53 -6 86 -6q92 0 147 64q54 66 54 157q0 38 -4 56
q-196 33 -273 168q-41 67 -41 137v14l295 49q0 -55 43 -90q42 -33 103 -33q52 0 80 21.5t28 50.5q0 47 -76 74l-71 22q-105 40 -156 76q-35 22 -61 55q-54 68 -54 162q0 150 125 248q122 98 312 98q121 0 209.5 -40.5t136.5 -104.5q63 -77 63 -164v-6l-305 -35q0 50 -35 74
t-74 24z" />
    <glyph glyph-name="Scaron" unicode="&#x160;" horiz-adv-x="1343" 
d="M553 1997h281l65 -195l166 195h303l-336 -361h-327zM877 438q0 91 -136 133l-125 39q-167 52 -268 162q-102 111 -102 244q0 97 33 180t90 142t132.5 100t160 61t172.5 19q232 0 370 -103q69 -52 103 -104q75 -109 75 -242l-350 -57q0 68 -43 125q-49 69 -166 69
q-103 0 -149 -53q-43 -46 -43 -92q0 -94 125 -131l127 -39q98 -29 173.5 -78.5t119.5 -107.5t66 -117.5t22 -116.5q0 -231 -162 -362q-160 -129 -436 -129q-133 0 -257 41.5t-210 121.5q-60 55 -94.5 134.5t-34.5 171.5q0 10 1 24.5t1 18.5l336 59q-5 -30 -5 -37
q0 -103 74 -162q70 -61 176 -61q110 0 166 47q58 46 58 100z" />
    <glyph glyph-name="scaron" unicode="&#x161;" horiz-adv-x="1024" 
d="M293 1550h278l66 -192l168 192h301l-336 -360h-328zM578 1040q98 0 180 -29.5t131 -78.5q96 -93 96 -201v-6l-303 -35q0 50 -35 74t-74 24q-42 0 -67 -21t-25 -46q0 -39 60 -57l100 -33q145 -46 215 -131q55 -72 55 -181q0 -132 -116 -235q-59 -49 -148.5 -78t-193.5 -29
q-97 0 -178 21.5t-130 56.5q-48 35 -77 78q-58 80 -58 160v14l295 49q0 -55 43 -90q42 -33 103 -33q52 0 80 21.5t28 50.5q0 47 -76 74l-71 22q-105 40 -156 76q-35 22 -61 55q-54 68 -54 162q0 150 125 248q122 98 312 98z" />
    <glyph glyph-name="uni0162" unicode="&#x162;" horiz-adv-x="1284" 
d="M301 1493h1217l-88 -342h-422l-306 -1151h-14q27 -46 27 -133q0 -183 -117 -277q-113 -98 -313 -98q-92 0 -156 23l53 202q76 -6 86 -6q55 -1 100 25t68.5 68t32.5 94t-8 102h-137l307 1151h-422z" />
    <glyph glyph-name="uni0163" unicode="&#x163;" horiz-adv-x="894" 
d="M641 717l-82 -307q-6 -14 -6 -41q0 -82 111 -82q53 0 94 10l-76 -287q-64 -23 -160 -26q17 -53 17 -117q0 -184 -115 -277q-116 -98 -315 -98q-92 0 -156 23l55 202q38 -6 84 -6q76 0 127.5 44.5t68 110.5t-0.5 136q-12 40 -13 45q-100 75 -100 223q0 56 19 127l83 320
h-190l80 301h201l88 330h354l-88 -330h235l-79 -301h-236z" />
    <glyph glyph-name="Tcaron" unicode="&#x164;" horiz-adv-x="1284" 
d="M643 1989h279l65 -193l168 193h301l-336 -361h-325zM1518 1493l-88 -342h-422l-306 -1151h-378l307 1151h-422l92 342h1217z" />
    <glyph glyph-name="tcaron" unicode="&#x165;" horiz-adv-x="894" 
d="M1147 1116h-273l119 447h375zM758 297l-76 -287q-77 -26 -197 -26q-141 0 -225 75q-86 74 -86 211q0 56 19 127l83 320h-190l80 301h201l88 330h354l-88 -330h235l-79 -301h-236l-82 -307q-6 -14 -6 -41q0 -82 111 -82q53 0 94 10z" />
    <glyph glyph-name="Tbar" unicode="&#x166;" horiz-adv-x="1316" 
d="M1534 1493l-90 -342h-422l-107 -397h224l-68 -254h-223l-133 -500h-377l133 500h-223l67 254h224l106 397h-422l90 342h1221z" />
    <glyph glyph-name="tbar" unicode="&#x167;" horiz-adv-x="901" 
d="M29 406l53 198h170l31 113h-191l80 301h201l88 330h354l-88 -330h236l-82 -301h-236l-31 -113h172l-53 -198h-170q-6 -21 -6 -37q0 -82 113 -82q53 0 94 10l-76 -287q-77 -26 -196 -26q-142 0 -226 75q-86 74 -86 211q0 52 17 127l2 9h-170z" />
    <glyph glyph-name="Utilde" unicode="&#x168;" horiz-adv-x="1525" 
d="M1649 1493l-252 -942q-53 -196 -140 -318.5t-225 -187.5q-136 -65 -336 -65q-208 0 -336 76.5t-174 211.5q-63 168 -2 394l222 831h380l-229 -858q-37 -141 12 -223q50 -84 176 -84q211 0 287 278l236 887h381zM1229 1628q-44 0 -86 14.5t-68 36.5q-73 52 -119 52
q-38 0 -59 -35q-20 -29 -31 -66h-200l16 66q36 126 109 196q74 74 188 74q83 0 149 -51q69 -49 117 -49q26 0 47 15t31 34q9 14 20 47h193l-16 -74q-27 -116 -105 -188q-75 -72 -186 -72z" />
    <glyph glyph-name="utilde" unicode="&#x169;" 
d="M956 1190q-82 0 -153 51q-66 51 -117 51q-40 0 -61 -35q-18 -29 -31 -65h-201l17 65q30 122 108 197q74 74 189 74q80 0 149 -49q73 -52 117 -52q27 0 48.5 15.5t29.5 34.5q4 6 20 47h195q-4 -21 -11 -45t-8 -29q-29 -114 -106 -188q-78 -72 -185 -72zM659 113h-4
q-136 -133 -293 -133q-143 0 -217 83q-73 85 -73 218q0 68 28 186l148 551h362l-143 -537q-8 -31 -8 -61q0 -54 27.5 -82.5t80.5 -28.5q143 0 187 168l145 541h363l-222 -832q-26 -102 -26 -151v-35h-365v37q9 73 10 76z" />
    <glyph glyph-name="Umacron" unicode="&#x16a;" horiz-adv-x="1525" 
d="M698 1655l70 260h735l-69 -260h-736zM1649 1493l-252 -942q-80 -293 -244 -432t-459 -139q-207 0 -335.5 77t-174.5 211q-62 173 -2 394l221 831h381l-229 -858q-37 -141 12 -223q50 -84 178 -84q212 0 285 278l238 887h381z" />
    <glyph glyph-name="umacron" unicode="&#x16b;" 
d="M426 1198l70 260h735l-70 -260h-735zM659 113h-4q-136 -133 -293 -133q-143 0 -217 83q-73 85 -73 218q0 68 28 186l148 551h362l-143 -537q-8 -31 -8 -61q0 -54 27.5 -82.5t80.5 -28.5q143 0 187 168l145 541h363l-222 -832q-26 -102 -26 -151v-35h-365v37q9 73 10 76z
" />
    <glyph glyph-name="Uring" unicode="&#x16e;" horiz-adv-x="1525" 
d="M1047 1614q-113 0 -187 74q-76 70 -76 184q0 129 93 225q89 92 221 92q113 0 190 -71q74 -74 74 -187q0 -133 -92 -225t-223 -92zM1085 2011q-48 0 -86 -35q-36 -36 -36 -90q0 -41 27.5 -67.5t68.5 -26.5q54 0 88 37q37 34 37 86q0 42 -28 69t-71 27zM1649 1493
l-252 -942q-53 -196 -141 -318.5t-226 -187.5q-133 -65 -336 -65q-207 0 -335.5 77t-174.5 211q-62 173 -2 394l221 831h381l-229 -858q-37 -141 12 -223q50 -84 178 -84q212 0 285 278l238 887h381z" />
    <glyph glyph-name="uring" unicode="&#x16f;" 
d="M823 1157q-112 0 -186 74q-74 71 -74 184q0 129 90 225q93 93 224 93q113 0 188 -72q74 -74 74 -186q0 -133 -90 -226q-92 -92 -226 -92zM864 1556q-53 0 -86 -36q-37 -37 -37 -88q0 -43 27 -70t70 -27q52 0 86 37q37 34 37 88q0 42 -27.5 69t-69.5 27zM659 113h-4
q-136 -133 -293 -133q-143 0 -217 83q-73 85 -73 218q0 68 28 186l148 551h362l-143 -537q-8 -31 -8 -61q0 -54 27.5 -82.5t80.5 -28.5q143 0 187 168l145 541h363l-222 -832q-26 -102 -26 -151v-35h-365v37q9 73 10 76z" />
    <glyph glyph-name="Uhungarumlaut" unicode="&#x170;" horiz-adv-x="1525" 
d="M940 1624h-293l316 375h403zM1430 1624h-293l315 375h403zM1649 1493l-252 -942q-53 -196 -141 -318.5t-226 -187.5q-133 -65 -336 -65q-207 0 -335.5 77t-174.5 211q-62 173 -2 394l221 831h381l-229 -858q-37 -141 12 -223q50 -84 178 -84q212 0 285 278l238 887h381z
" />
    <glyph glyph-name="uhungarumlaut" unicode="&#x171;" 
d="M694 1188h-293l316 373h403zM1184 1188h-293l315 373h404zM659 113h-4q-136 -133 -293 -133q-143 0 -217 83q-73 85 -73 218q0 68 28 186l148 551h362l-143 -537q-8 -31 -8 -61q0 -54 27.5 -82.5t80.5 -28.5q143 0 187 168l145 541h363l-222 -832q-26 -102 -26 -151v-35
h-365v37q9 73 10 76z" />
    <glyph glyph-name="Uogonek" unicode="&#x172;" horiz-adv-x="1525" 
d="M1268 1493h381l-252 -942q-65 -245 -190.5 -381.5t-329.5 -175.5q-122 -64 -191 -135q-45 -45 -45 -84q0 -37 35 -58q38 -18 76 -18q3 0 13.5 1t18.5 1l-53 -199q-41 -8 -113 -8q-97 0 -176 43q-41 22 -65.5 61t-24.5 87q0 153 226 301q-111 15 -195 59t-134 108t-74 146
t-21.5 173t28.5 190l224 831h380l-229 -858q-38 -143 10 -223q50 -84 178 -84q211 0 287 278z" />
    <glyph glyph-name="uogonek" unicode="&#x173;" 
d="M899 1018h363l-222 -832q-19 -73 -26 -151v-35q-71 -35 -148 -92q-44 -32 -71 -67.5t-27 -65.5q0 -38 35 -58q35 -18 76 -18q2 0 12.5 1t19.5 1l-53 -199q-41 -8 -115 -8q-94 0 -176 43q-41 22 -65.5 61t-24.5 87q0 164 248 315h-74v37q4 55 8 76h-4q-136 -133 -293 -133
q-142 0 -217.5 85t-72.5 216q0 68 28 186l148 551h362l-143 -537q-8 -27 -8 -61q0 -54 27.5 -82.5t80.5 -28.5q141 0 189 168z" />
    <glyph glyph-name="Wcircumflex" unicode="&#x174;" horiz-adv-x="2289" 
d="M1790 1628h-279l-65 193l-168 -193h-301l336 361h325zM1272 995h-2l-535 -995h-383l-86 1493h385l29 -944h6l510 944h363l71 -946h4l480 946h401l-795 -1493h-387z" />
    <glyph glyph-name="wcircumflex" unicode="&#x175;" horiz-adv-x="1732" 
d="M1450 1190h-279l-65 192l-168 -192h-301l336 360h327zM557 0h-344l-53 1018h356l12 -547h2l324 547h295l37 -551h2l315 551h350l-596 -1018h-344l-30 545h-2z" />
    <glyph glyph-name="Ycircumflex" unicode="&#x176;" horiz-adv-x="1449" 
d="M1405 1628h-279l-65 193l-168 -193h-301l336 361h327zM922 549l-146 -549h-377l156 592l-272 901h401l145 -549l441 549h446z" />
    <glyph glyph-name="ycircumflex" unicode="&#x177;" horiz-adv-x="1191" 
d="M1178 1190h-281l-66 192l-165 -192h-304l336 360h328zM354 -502h-379l314 500l-133 1020h356l63 -604h3l358 604h383z" />
    <glyph glyph-name="Ydieresis" unicode="&#x178;" horiz-adv-x="1449" 
d="M737 1649q-77 0 -123 49q-49 46 -49 121q0 84 62 149q62 62 147 62q74 0 125 -48q47 -47 47 -122q0 -88 -59 -150q-61 -61 -150 -61zM1251 1649q-77 0 -123 49q-49 46 -49 121q0 84 62 149q62 62 147 62q74 0 125 -48q47 -50 47 -122q0 -88 -59 -150q-61 -61 -150 -61z
M922 549l-146 -549h-377l156 592l-272 901h401l145 -549l441 549h446z" />
    <glyph glyph-name="Zacute" unicode="&#x179;" horiz-adv-x="1327" 
d="M1090 1624h-293l315 375h404zM1198 336l-92 -336h-1159l84 317l887 844h-631l90 332h1126l-84 -315l-889 -842h668z" />
    <glyph glyph-name="zacute" unicode="&#x17a;" horiz-adv-x="1060" 
d="M840 1188h-293l315 373h404zM-53 0l80 287l536 432h-405l78 299h878l-72 -268l-561 -453h445l-78 -297h-901z" />
    <glyph glyph-name="Zdotaccent" unicode="&#x17b;" horiz-adv-x="1327" 
d="M965 1630q-82 0 -136 51q-53 50 -53 136q0 93 66 165q68 68 164 68q81 0 137 -53q53 -53 53 -135q0 -96 -68 -164t-163 -68zM1198 336l-92 -336h-1159l84 317l887 844h-631l90 332h1126l-84 -315l-889 -842h668z" />
    <glyph glyph-name="zdotaccent" unicode="&#x17c;" horiz-adv-x="1060" 
d="M727 1155q-82 0 -135 53q-55 49 -55 133q0 99 67 166q68 68 164 68q81 0 135 -51q55 -55 55 -138q0 -96 -67 -163q-68 -68 -164 -68zM-53 0l80 287l536 432h-405l78 299h878l-72 -268l-561 -453h445l-78 -297h-901z" />
    <glyph glyph-name="Zcaron" unicode="&#x17d;" horiz-adv-x="1327" 
d="M678 1987h280l66 -193l166 193h303l-336 -361h-328zM1419 1178l-889 -842h668l-92 -336h-1159l84 317l887 844h-631l90 332h1126z" />
    <glyph glyph-name="zcaron" unicode="&#x17e;" horiz-adv-x="1060" 
d="M401 1550h281l66 -192l165 192h304l-336 -360h-328zM926 297l-78 -297h-901l80 287l536 432h-405l78 299h878l-72 -268l-561 -453h445z" />
    <glyph glyph-name="florin" unicode="&#x192;" horiz-adv-x="1208" 
d="M874 723l-169 -375q-169 -371 -551 -371q-105 0 -193 27l78 293q44 -19 57 -21q24 -6 70 -6q67 0 117.5 36t76.5 95l148 322h-180l75 295h240l49 108q173 373 549 373q108 0 193 -31l-78 -290q-74 26 -137 26q-60 0 -109.5 -36.5t-75.5 -94.5l-26 -55h225l-76 -295h-283z
" />
    <glyph glyph-name="uni01B5" unicode="&#x1b5;" horiz-adv-x="1329" 
d="M532 336h668l-92 -336h-1159l80 311l356 338h-250l55 207h410l320 305h-631l90 332h1126l-82 -307l-348 -330h262l-55 -207h-422z" />
    <glyph glyph-name="uni01B6" unicode="&#x1b6;" horiz-adv-x="1058" 
d="M72 446l32 125h273l188 160h-403l74 287h878l-63 -246l-242 -201h192l-32 -125h-303l-189 -159h447l-76 -287h-901l76 270l210 176h-161z" />
    <glyph glyph-name="uni01CD" unicode="&#x1cd;" horiz-adv-x="1560" 
d="M760 1997h280l66 -195l166 195h303l-336 -361h-328zM1241 1493l232 -1493h-390l-39 274h-595l-173 -274h-405l940 1493h430zM639 594h362l-69 487z" />
    <glyph glyph-name="uni01CE" unicode="&#x1ce;" horiz-adv-x="1314" 
d="M516 1550h279l65 -192l168 192h301l-336 -360h-327zM731 111h-4q-131 -131 -293 -131q-118 0 -201 59q-85 59 -129 154q-41 93 -41 202q0 122 46 246q48 124 120 207q75 88 179.5 139t216.5 51q198 0 307 -149h2l37 129h362l-223 -832q-22 -84 -25 -151v-35h-364v33
q1 11 3 28t3.5 29t3.5 21zM606 299q99 0 172 76q74 77 74 182q0 76 -47 117q-48 45 -125 45q-101 0 -174 -76q-74 -77 -74 -184q0 -72 47.5 -116t126.5 -44z" />
    <glyph glyph-name="uni01CF" unicode="&#x1cf;" horiz-adv-x="692" 
d="M334 1989h280l64 -193l168 193h301l-336 -361h-326zM803 1493l-400 -1493h-374l397 1493h377z" />
    <glyph glyph-name="uni01D0" unicode="&#x1d0;" horiz-adv-x="610" 
d="M123 1550h278l66 -192l168 192h301l-336 -360h-328zM262 1018h369l-273 -1018h-368z" />
    <glyph glyph-name="uni01D1" unicode="&#x1d1;" horiz-adv-x="1738" 
d="M748 1989h280l66 -193l166 193h303l-336 -361h-328zM1028 1518q154 0 288 -51t226 -142q93 -90 144 -212t51 -259q0 -177 -72 -344q-71 -164 -192 -279q-119 -116 -283 -184q-162 -70 -338 -70q-138 0 -265 44t-227 126q-99 82 -157 211q-60 126 -60 287q0 182 72 342
q71 164 191 281q118 115 280 182q168 68 342 68zM532 674q0 -163 103 -252q100 -92 250 -92q122 0 231 71q104 68 168 183q62 115 62 239q0 144 -97 246q-94 98 -256 98q-91 0 -176.5 -41.5t-148.5 -111.5q-63 -69 -99.5 -158.5t-36.5 -181.5z" />
    <glyph glyph-name="uni01D2" unicode="&#x1d2;" horiz-adv-x="1247" 
d="M418 1550h278l66 -192l168 192h301l-336 -360h-326zM575 -23q-233 0 -370 134q-135 132 -135 340q0 112 46.5 219t127.5 190q79 82 192 131t244 49q117 0 214 -35.5t161 -99.5q133 -133 133 -336q0 -114 -45.5 -221t-126.5 -190q-77 -80 -195 -131q-118 -50 -246 -50z
M596 299q97 0 168 74q70 76 70 178q0 75 -48.5 121.5t-123.5 46.5q-103 0 -170 -76q-68 -74 -68 -176q0 -74 45.5 -121t126.5 -47z" />
    <glyph glyph-name="uni01D3" unicode="&#x1d3;" horiz-adv-x="1525" 
d="M752 1989h280l64 -193l168 193h303l-338 -361h-326zM1649 1493l-252 -942q-53 -196 -140 -318.5t-225 -187.5q-136 -65 -336 -65q-208 0 -336 76.5t-174 211.5q-63 168 -2 394l222 831h380l-229 -858q-37 -141 12 -223q50 -84 176 -84q211 0 287 278l236 887h381z" />
    <glyph glyph-name="uni01D4" unicode="&#x1d4;" 
d="M492 1550h280l66 -192l166 192h303l-336 -360h-328zM659 113h-4q-136 -133 -293 -133q-143 0 -217 83q-73 85 -73 218q0 68 28 186l148 551h362l-143 -537q-8 -31 -8 -61q0 -54 27.5 -82.5t80.5 -28.5q143 0 187 168l145 541h363l-222 -832q-26 -102 -26 -151v-35h-365
v37q9 73 10 76z" />
    <glyph glyph-name="uni01D5" unicode="&#x1d5;" horiz-adv-x="1525" 
d="M1649 1493l-252 -942q-53 -196 -141 -318.5t-226 -187.5q-133 -65 -336 -65q-207 0 -335.5 77t-174.5 211q-62 173 -2 394l221 831h381l-229 -858q-37 -141 12 -223q50 -84 178 -84q212 0 285 278l238 887h381zM801 2015l69 258h736l-70 -258h-735zM821 1565
q-71 0 -121 47q-49 46 -49 121q0 86 62 151q62 62 147 62q73 0 123 -50q49 -49 49 -120q0 -89 -61 -150q-58 -61 -150 -61zM1337 1565q-73 0 -123 47q-47 44 -47 121q0 85 60 151q62 62 147 62q73 0 123 -50q49 -49 49 -120q0 -89 -61 -150q-58 -61 -148 -61z" />
    <glyph glyph-name="uni01D6" unicode="&#x1d6;" 
d="M659 113h-4q-136 -133 -293 -133q-143 0 -217 83q-73 85 -73 218q0 68 28 186l148 551h362l-143 -537q-8 -31 -8 -61q0 -54 27.5 -82.5t80.5 -28.5q143 0 187 168l145 541h363l-222 -832q-26 -102 -26 -151v-35h-365v37q9 73 10 76zM543 1579l67 258h736l-68 -258h-735z
M557 1110q-73 0 -123 47q-49 46 -49 121q0 85 61 149q62 62 148 62q76 0 123 -47q49 -46 49 -123q0 -89 -59 -148q-61 -61 -150 -61zM1053 1110q-73 0 -123 47q-49 46 -49 121q0 85 61 149q59 62 145 62q77 0 127 -47q48 -45 48 -123q0 -89 -62 -148q-61 -61 -147 -61z" />
    <glyph glyph-name="uni01D7" unicode="&#x1d7;" horiz-adv-x="1525" 
d="M1649 1493l-252 -942q-53 -196 -141 -318.5t-226 -187.5q-133 -65 -336 -65q-207 0 -335.5 77t-174.5 211q-62 173 -2 394l221 831h381l-229 -858q-37 -141 12 -223q50 -84 178 -84q212 0 285 278l238 887h381zM1264 1976h-291l291 348h397zM821 1565q-71 0 -121 47
q-49 46 -49 121q0 86 62 151q62 62 147 62q73 0 123 -50q49 -49 49 -120q0 -89 -61 -150q-58 -61 -150 -61zM1337 1565q-73 0 -123 47q-47 44 -47 121q0 85 60 151q62 62 147 62q73 0 123 -50q49 -49 49 -120q0 -89 -61 -150q-58 -61 -148 -61z" />
    <glyph glyph-name="uni01D8" unicode="&#x1d8;" 
d="M659 113h-4q-136 -133 -293 -133q-143 0 -217 83q-73 85 -73 218q0 68 28 186l148 551h362l-143 -537q-8 -31 -8 -61q0 -54 27.5 -82.5t80.5 -28.5q143 0 187 168l145 541h363l-222 -832q-26 -102 -26 -151v-35h-365v37q9 73 10 76zM1001 1542h-292l315 373h403z
M557 1110q-73 0 -123 47q-49 46 -49 121q0 85 61 149q62 62 148 62q76 0 123 -47q49 -46 49 -123q0 -89 -59 -148q-61 -61 -150 -61zM1053 1110q-73 0 -123 47q-49 46 -49 121q0 85 61 149q59 62 145 62q77 0 127 -47q48 -45 48 -123q0 -89 -62 -148q-61 -61 -147 -61z" />
    <glyph glyph-name="uni01D9" unicode="&#x1d9;" horiz-adv-x="1525" 
d="M1649 1493l-252 -942q-53 -196 -141 -318.5t-226 -187.5q-133 -65 -336 -65q-207 0 -335.5 77t-174.5 211q-62 173 -2 394l221 831h381l-229 -858q-37 -141 12 -223q50 -84 178 -84q212 0 285 278l238 887h381zM850 2324h266l68 -161l143 161h289l-305 -309h-314z
M821 1565q-71 0 -121 47q-49 46 -49 121q0 86 62 151q62 62 147 62q73 0 123 -50q49 -49 49 -120q0 -89 -61 -150q-58 -61 -150 -61zM1337 1565q-73 0 -123 47q-47 44 -47 121q0 85 60 151q62 62 147 62q73 0 123 -50q49 -49 49 -120q0 -89 -61 -150q-58 -61 -148 -61z" />
    <glyph glyph-name="uni01DA" unicode="&#x1da;" 
d="M659 113h-4q-136 -133 -293 -133q-143 0 -217 83q-73 85 -73 218q0 68 28 186l148 551h362l-143 -537q-8 -31 -8 -61q0 -54 27.5 -82.5t80.5 -28.5q143 0 187 168l145 541h363l-222 -832q-26 -102 -26 -151v-35h-365v37q0 24 10 76zM569 1903h279l67 -193l166 193h303
l-337 -361h-326zM557 1110q-73 0 -123 47q-49 46 -49 121q0 85 61 149q62 62 148 62q76 0 123 -47q49 -46 49 -123q0 -89 -59 -148q-61 -61 -150 -61zM1053 1110q-73 0 -123 47q-49 46 -49 121q0 85 61 149q59 62 145 62q77 0 127 -47q48 -45 48 -123q0 -89 -62 -148
q-61 -61 -147 -61z" />
    <glyph glyph-name="uni01DB" unicode="&#x1db;" horiz-adv-x="1525" 
d="M1649 1493l-252 -942q-53 -196 -141 -318.5t-226 -187.5q-133 -65 -336 -65q-207 0 -335.5 77t-174.5 211q-62 173 -2 394l221 831h381l-229 -858q-37 -141 12 -223q50 -84 178 -84q212 0 285 278l238 887h381zM739 2327h369l152 -351h-256zM821 1565q-71 0 -121 47
q-49 46 -49 121q0 86 62 151q62 62 147 62q73 0 123 -50q49 -49 49 -120q0 -89 -61 -150q-58 -61 -150 -61zM1337 1565q-73 0 -123 47q-47 44 -47 121q0 85 60 151q62 62 147 62q73 0 123 -50q49 -49 49 -120q0 -89 -61 -150q-58 -61 -148 -61z" />
    <glyph glyph-name="uni01DC" unicode="&#x1dc;" 
d="M659 113h-4q-136 -133 -293 -133q-143 0 -217 83q-73 85 -73 218q0 68 28 186l148 551h362l-143 -537q-8 -31 -8 -61q0 -54 27.5 -82.5t80.5 -28.5q143 0 187 168l145 541h363l-222 -832q-26 -102 -26 -151v-35h-365v37q9 73 10 76zM461 1915h377l163 -373h-256z
M557 1110q-73 0 -123 47q-49 46 -49 121q0 85 61 149q62 62 148 62q76 0 123 -47q49 -46 49 -123q0 -89 -59 -148q-61 -61 -150 -61zM1053 1110q-73 0 -123 47q-49 46 -49 121q0 85 61 149q59 62 145 62q77 0 127 -47q48 -45 48 -123q0 -89 -62 -148q-61 -61 -147 -61z" />
    <glyph glyph-name="Gcaron" unicode="&#x1e6;" horiz-adv-x="1665" 
d="M758 1989h280l66 -193l166 193h303l-336 -361h-328zM1673 1065l-368 -111q-21 89 -101 154q-81 66 -217 66q-119 0 -229 -72q-109 -74 -172 -189q-64 -122 -64 -239q0 -150 96 -254q94 -101 269 -101q122 0 217 56q92 51 141 145h-430l70 295h792q-6 -197 -85.5 -373.5
t-219.5 -294.5q-99 -81 -233 -126.5t-289 -45.5q-153 -2 -285.5 48t-226 138.5t-145.5 214t-50 269.5q0 179 72 346q69 160 191 279q118 112 282 180q160 66 340 66q119 0 224 -28t178 -75q70 -46 122 -104q98 -112 121 -244z" />
    <glyph glyph-name="gcaron" unicode="&#x1e7;" horiz-adv-x="1306" 
d="M498 1550h280l64 -192l168 192h301l-336 -360h-326zM434 -203q98 0 167.5 66t103.5 188l20 80q-75 -57 -137 -84q-64 -27 -150 -27q-150 -4 -261.5 114.5t-108.5 277.5q0 127 45 237q44 118 116 199q75 84 174 135q105 51 211 51q208 0 316 -153h2l37 137h358l-258 -971
q-42 -152 -80 -221q-183 -336 -553 -336q-159 0 -273.5 53t-176.5 142q-80 111 -80 237l327 66q0 -81 54 -138q56 -53 147 -53zM602 317q95 0 166 74q72 75 72 174q0 69 -47 113q-46 43 -119 43q-97 0 -168 -74q-70 -73 -70 -176q0 -69 45.5 -111.5t120.5 -42.5z" />
    <glyph glyph-name="uni01E8" unicode="&#x1e8;" horiz-adv-x="1454" 
d="M713 1989h278l66 -193l168 193h301l-336 -361h-328zM973 737l364 -737h-419l-320 713l-190 -713h-379l397 1493h381l-170 -633h2l600 633h481z" />
    <glyph glyph-name="uni01E9" unicode="&#x1e9;" horiz-adv-x="1216" 
d="M352 0h-362l416 1554h362l-256 -952h6l383 416h451l-492 -506l227 -512h-393l-209 502zM993 1190h326l336 360h-301l-168 -192l-66 192h-278z" />
    <glyph glyph-name="uni01F4" unicode="&#x1f4;" horiz-adv-x="1665" 
d="M1188 1624h-291l313 375h406zM1673 1065l-368 -111q-21 89 -101 154q-81 66 -217 66q-119 0 -229 -72q-109 -74 -172 -189q-64 -122 -64 -239q0 -150 96 -254q94 -101 269 -101q122 0 217 56q92 51 141 145h-430l70 295h792q-6 -197 -85.5 -373.5t-219.5 -294.5
q-99 -81 -233 -126.5t-289 -45.5q-153 -2 -285.5 48t-226 138.5t-145.5 214t-50 269.5q0 179 72 346q69 160 191 279q118 112 282 180q160 66 340 66q119 0 224 -28t178 -75q70 -46 122 -104q98 -112 121 -244z" />
    <glyph glyph-name="uni01F5" unicode="&#x1f5;" horiz-adv-x="1306" 
d="M827 1188h-292l315 373h403zM434 -203q98 0 167.5 66t103.5 188l20 80q-75 -57 -137 -84q-64 -27 -150 -27q-150 -4 -261.5 114.5t-108.5 277.5q0 127 45 237q44 118 116 199q75 84 174 135q105 51 211 51q208 0 316 -153h2l37 137h358l-258 -971q-42 -152 -80 -221
q-183 -336 -553 -336q-159 0 -273.5 53t-176.5 142q-80 111 -80 237l327 66q0 -81 54 -138q56 -53 147 -53zM602 317q95 0 166 74q72 75 72 174q0 69 -47 113q-46 43 -119 43q-97 0 -168 -74q-70 -73 -70 -176q0 -69 45.5 -111.5t120.5 -42.5z" />
    <glyph glyph-name="Aringacute" unicode="&#x1fa;" horiz-adv-x="1560" 
d="M1767 2062l-448 -393q6 -27 6 -61q0 -113 -72 -203l220 -1405h-390l-39 274h-595l-173 -274h-405l903 1432q-26 57 -26 116q0 132 92 224q91 94 223 94q60 0 115 -25l184 221h405zM1049 1688q-52 0 -86 -37q-35 -35 -35 -88q0 -43 26.5 -69t69.5 -26q51 0 88 37
q35 35 35 88q0 41 -27.5 68t-70.5 27zM932 1081l-293 -487h362z" />
    <glyph glyph-name="aringacute" unicode="&#x1fb;" horiz-adv-x="1314" 
d="M1583 1931l-448 -395q6 -27 6 -61q0 -134 -92 -226t-224 -92q-114 0 -188 74q-74 71 -74 184q0 130 92 225q90 93 222 93q59 0 116 -23l187 221h403zM864 1556q-53 0 -86 -36q-37 -37 -37 -88q0 -43 27 -70t70 -27q51 0 88 37q37 34 37 88q0 41 -28 68.5t-71 27.5z
M731 111h-4q-131 -131 -293 -131q-118 0 -201 59q-85 59 -129 154q-41 93 -41 202q0 122 46 246q48 124 120 207q75 88 179.5 139t216.5 51q198 0 307 -149h2l37 129h362l-223 -832q-22 -84 -25 -151v-35h-364v33q1 11 3 28t3.5 29t3.5 21zM606 299q99 0 172 76
q74 77 74 182q0 76 -47 117q-48 45 -125 45q-101 0 -174 -76q-74 -77 -74 -184q0 -72 47.5 -116t126.5 -44z" />
    <glyph glyph-name="AEacute" unicode="&#x1fc;" horiz-adv-x="2082" 
d="M1528 1624h-293l315 375h404zM457 236l-170 -236h-430l1091 1493h1295l-89 -334h-661l-66 -244h601l-86 -321h-601l-69 -258h667l-90 -336h-1030l64 236h-426zM1133 1169h-21l-434 -614h291z" />
    <glyph glyph-name="aeacute" unicode="&#x1fd;" horiz-adv-x="1800" 
d="M1171 1188h-292l315 373h403zM676 1042q84 0 163 -25.5t134 -72.5q155 96 311 96q124 0 227 -48.5t168 -143.5q68 -95 68 -223q0 -103 -43 -207h-698q0 -73 59 -115q55 -43 123 -43q67 0 122 25.5t83 76.5l280 -126q-88 -164 -284 -226q-103 -33 -209 -33q-129 0 -235 44
t-177 126q-88 -93 -195 -133q-101 -37 -243 -37h-8q-127 0 -213 74q-89 74 -89 197q0 186 191 276q108 48 213 54l211 16q42 2 72 28t30 64t-32.5 60t-79.5 22q-66 0 -115 -36t-70 -93l-307 98q47 127 189 216t354 89zM1268 764q-69 0 -131 -39q-69 -41 -95 -107h363
q8 24 8 31q0 56 -39.5 85.5t-105.5 29.5zM471 231q70 0 121 39.5t63 106.5l9 39l-127 -15q-49 -3 -97 -20q-51 -19 -51 -74q0 -31 23.5 -53.5t58.5 -22.5z" />
    <glyph glyph-name="Oslashacute" unicode="&#x1fe;" horiz-adv-x="1738" 
d="M1188 1624h-291l313 375h406zM852 -23q-240 0 -428 125l-182 -174l-156 164l172 166q-115 168 -115 385q0 184 72 344q71 164 191 281q117 114 282 182t340 68q248 0 430 -123l178 172l156 -164l-174 -168q119 -165 119 -381q0 -144 -46 -278.5t-130 -241.5
q-84 -111 -191 -189q-110 -81 -244 -124.5t-274 -43.5zM700 360q79 -43 183 -43q94 0 182.5 43t153.5 115q63 70 99 162.5t36 187.5q0 73 -25 140zM995 1178q-93 0 -181 -42t-152 -114q-64 -70 -101 -163t-37 -187q0 -77 25 -144l635 605q-80 45 -189 45z" />
    <glyph glyph-name="oslashacute" unicode="&#x1ff;" horiz-adv-x="1247" 
d="M860 1188h-291l314 373h405zM575 -20q-188 0 -313 88l-141 -134l-101 107l136 127q-84 118 -84 285q0 112 45.5 218t126.5 189q80 83 194 131q113 49 244 49q189 0 317 -88l140 131l100 -106l-135 -129q84 -122 84 -283q0 -111 -46 -218t-126 -187q-79 -82 -195 -131
t-246 -49zM510 301q40 -16 84 -16q106 0 180 80t74 188q0 35 -8 59zM664 733q-108 0 -181 -82t-73 -186q0 -32 10 -62l330 312q-34 18 -86 18z" />
    <glyph glyph-name="Scommaaccent" unicode="&#x218;" horiz-adv-x="1343" 
d="M877 438q0 91 -136 133l-125 39q-167 52 -268 162q-102 111 -102 244q0 97 33 180t90 142t132.5 100t160 61t172.5 19q232 0 370 -103q69 -52 103 -104q75 -109 75 -242l-350 -57q0 68 -43 125q-49 69 -166 69q-103 0 -149 -53q-43 -46 -43 -92q0 -94 125 -131l127 -39
q98 -29 173.5 -78.5t119.5 -107.5t66 -117.5t22 -116.5q0 -231 -162 -362q-160 -129 -436 -129q-133 0 -257 41.5t-210 121.5q-60 55 -94.5 134.5t-34.5 171.5q0 10 1 24.5t1 18.5l336 59q-5 -30 -5 -37q0 -103 74 -162q70 -61 176 -61q110 0 166 47q58 46 58 100zM295 -750
l29 119q31 0 65 8t70.5 24.5t67.5 49t46 76.5q-29 -19 -71 -19q-68 0 -111 42.5t-43 111.5q0 75 60 129q57 51 135 51q91 0 140.5 -56.5t49.5 -152.5q0 -106 -52.5 -189t-143.5 -132q-118 -68 -242 -62z" />
    <glyph glyph-name="scommaaccent" unicode="&#x219;" horiz-adv-x="1024" 
d="M578 1040q98 0 180 -29.5t131 -78.5q96 -93 96 -201v-6l-303 -35q0 50 -35 74t-74 24q-42 0 -67 -21t-25 -46q0 -39 60 -57l100 -33q145 -46 215 -131q55 -72 55 -181q0 -132 -116 -235q-59 -49 -148.5 -78t-193.5 -29q-97 0 -178 21.5t-130 56.5q-48 35 -77 78
q-58 80 -58 160v14l295 49q0 -55 43 -90q42 -33 103 -33q52 0 80 21.5t28 50.5q0 47 -76 74l-71 22q-105 40 -156 76q-35 22 -61 55q-54 68 -54 162q0 150 125 248q122 98 312 98zM84 -750l31 119q43 0 88.5 12.5t93.5 50.5t68 95q-29 -19 -72 -19q-68 0 -111 42.5
t-43 111.5q0 75 60 129q54 51 135 51q90 0 139 -56.5t49 -152.5q0 -106 -52.5 -189t-141.5 -132q-118 -68 -244 -62z" />
    <glyph glyph-name="uni021A" unicode="&#x21a;" horiz-adv-x="1284" 
d="M1008 1151l-306 -1151h-378l307 1151h-422l92 342h1217l-88 -342h-422zM156 -750l28 119q31 0 65 8t71 24.5t68.5 49t47.5 76.5q-32 -19 -74 -19q-68 0 -109.5 42.5t-41.5 111.5q0 78 57 129t138 51q90 0 139 -56.5t49 -152.5q0 -106 -53 -189t-144 -132
q-118 -68 -241 -62z" />
    <glyph glyph-name="uni021B" unicode="&#x21b;" horiz-adv-x="894" 
d="M758 297l-76 -287q-77 -26 -197 -26q-141 0 -225 75q-86 74 -86 211q0 56 19 127l83 320h-190l80 301h201l88 330h354l-88 -330h235l-79 -301h-236l-82 -307q-6 -14 -6 -41q0 -82 111 -82q53 0 94 10zM12 -750l31 119q43 0 88.5 12.5t93.5 50.5t68 95q-29 -19 -72 -19
q-68 0 -110.5 42.5t-42.5 111.5q0 76 59 129q54 51 135 51q90 0 139.5 -56.5t49.5 -152.5q0 -105 -53 -188.5t-142 -132.5q-118 -68 -244 -62z" />
    <glyph glyph-name="uni0237" unicode="&#x237;" horiz-adv-x="622" 
d="M276 1018h367l-305 -1143q-52 -191 -166.5 -284t-306.5 -93q-41 0 -109 15q-63 15 -98 36l72 273q48 -23 92 -23q132 0 162 121z" />
    <glyph glyph-name="gravecomb" unicode="&#x300;" horiz-adv-x="0" 
d="M-270 1561h376l164 -373h-256z" />
    <glyph glyph-name="acutecomb" unicode="&#x301;" horiz-adv-x="0" 
d="M-68 1188h-290l313 373h403z" />
    <glyph glyph-name="uni0302" unicode="&#x302;" horiz-adv-x="0" 
d="M408 1190h-281l-66 192l-165 -192h-304l336 360h328z" />
    <glyph glyph-name="tildecomb" unicode="&#x303;" horiz-adv-x="0" 
d="M127 1190q-83 0 -154 51q-66 51 -116 51q-41 0 -62 -35q-18 -29 -31 -65h-200l16 65q29 119 107 197q77 74 190 74q81 0 150 -49q73 -52 116 -52q27 0 48.5 15.5t29.5 34.5q7 11 21 47h194q-4 -20 -10.5 -44.5t-7.5 -29.5q-29 -113 -107 -188q-78 -72 -184 -72z" />
    <glyph glyph-name="uni0304" unicode="&#x304;" horiz-adv-x="0" 
d="M-401 1198l67 260h735l-67 -260h-735z" />
    <glyph glyph-name="uni0306" unicode="&#x306;" horiz-adv-x="0" 
d="M143 1548h252q-49 -162 -166 -264q-114 -102 -278 -102q-145 0 -246 88q-100 87 -100 231q0 33 2 47h243q-5 -63 28 -104t93 -41q118 0 172 145z" />
    <glyph glyph-name="uni0307" unicode="&#x307;" horiz-adv-x="0" 
d="M-20 1155q-82 0 -138 53q-53 50 -53 133q0 98 68 166t163 68q82 0 136 -51q55 -55 55 -138q0 -95 -68 -163t-163 -68z" />
    <glyph glyph-name="uni0308" unicode="&#x308;" horiz-adv-x="0" 
d="M-49 1176q-76 0 -123 47q-49 46 -49 120q0 89 61 150t148 61q75 0 125 -47q47 -50 47 -123q0 -87 -60 -147q-61 -61 -149 -61zM446 1176q-75 0 -122 47q-48 45 -48 120q0 87 60 150q61 61 147 61q75 0 125 -47q47 -47 47 -123q0 -85 -59 -147q-61 -61 -150 -61z" />
    <glyph glyph-name="uni030A" unicode="&#x30a;" horiz-adv-x="0" 
d="M-27 1157q-114 0 -188 74q-74 71 -74 184q0 130 92 225q90 93 222 93q115 0 190 -72q74 -74 74 -186q0 -134 -92 -226t-224 -92zM12 1556q-53 0 -86 -36q-37 -37 -37 -88q0 -43 27 -70t70 -27q51 0 88 37q37 34 37 88q0 41 -28 68.5t-71 27.5z" />
    <glyph glyph-name="uni030B" unicode="&#x30b;" horiz-adv-x="0" 
d="M-311 1188h-293l315 373h404zM178 1188h-293l316 373h403z" />
    <glyph glyph-name="uni030C" unicode="&#x30c;" horiz-adv-x="0" 
d="M-408 1550h281l66 -192l165 192h304l-336 -360h-328z" />
    <glyph glyph-name="uni0312" unicode="&#x312;" horiz-adv-x="0" 
d="M248 1765l-29 -116q-102 0 -182 -62q-49 -37 -70 -96q40 18 74 18q69 0 110.5 -42t41.5 -111q0 -80 -58 -129q-54 -51 -135 -51q-90 0 -139 56t-49 152q0 104 51.5 186.5t142.5 135.5q119 68 242 59z" />
    <glyph glyph-name="uni0326" unicode="&#x326;" horiz-adv-x="0" 
d="M-250 -750l31 119q43 0 88.5 12.5t93.5 50.5t68 95q-32 -19 -72 -19q-69 0 -111.5 42.5t-42.5 111.5q0 74 58 129q57 51 137 51q90 0 139 -56.5t49 -152.5q0 -106 -52.5 -189t-143.5 -132q-115 -68 -242 -62z" />
    <glyph glyph-name="uni0327" unicode="&#x327;" horiz-adv-x="0" 
d="M41 0h225q27 -46 27 -133q0 -186 -119.5 -280.5t-310.5 -94.5q-89 0 -156 23l53 202q52 -6 86 -6q93 0 148 64t55 157q0 28 -8 68z" />
    <glyph glyph-name="uni0328" unicode="&#x328;" horiz-adv-x="0" 
d="M20 -225q0 -37 37 -58q35 -18 76 -18q2 0 12.5 1t18.5 1l-53 -199q-41 -8 -113 -8q-97 0 -176 43q-42 22 -66 60.5t-24 87.5q0 92 69 170q72 81 179 145h288q-63 -29 -147 -92q-101 -73 -101 -133z" />
    <glyph glyph-name="Theta" unicode="&#x398;" horiz-adv-x="1738" 
d="M1028 1518q154 0 288 -51t226 -142q93 -90 144 -212t51 -259q0 -177 -72 -344q-71 -164 -192 -279q-119 -116 -283 -184q-162 -70 -338 -70q-138 0 -265 44t-227 126q-99 82 -157 211q-60 126 -60 287q0 182 72 342q71 164 191 281q118 115 280 182q168 68 342 68z
M532 674q0 -163 103 -252q100 -92 250 -92q122 0 231 71q104 68 168 183q62 115 62 239q0 144 -97 246q-94 98 -256 98q-91 0 -176.5 -41.5t-148.5 -111.5q-63 -69 -99.5 -158.5t-36.5 -181.5zM655 606l76 295h498l-78 -295h-496z" />
    <glyph glyph-name="uni03A9" unicode="&#x3a9;" horiz-adv-x="1740" 
d="M1571 332l-88 -332h-678l108 410q177 24 299 155q119 131 119 309q0 135 -98 211q-98 82 -232 82q-90 0 -171.5 -38.5t-141.5 -104.5q-58 -67 -90.5 -152.5t-32.5 -175.5q0 -103 58 -182q56 -78 155 -98l-112 -416h-676l90 332h258q-74 72 -117 172.5t-43 202.5
q0 168 74 319q74 154 192 260q121 106 279 168q158 64 321 64q126 0 248 -41t221 -115q102 -79 158 -188q60 -111 60 -246q0 -187 -109 -340q-110 -157 -279 -256h228z" />
    <glyph glyph-name="theta" unicode="&#x3b8;" horiz-adv-x="1437" 
d="M655 -23q-108 0 -196 33t-148.5 89.5t-102 134t-60.5 165.5t-19 185q0 174 54 348t155 311q145 200 348 277q107 39 234 39q156 0 268.5 -70.5t175.5 -192.5q80 -151 80 -344q3 -203 -76 -409t-217 -350q-97 -101 -221 -156q-132 -60 -275 -60zM543 922h549v22
q0 141 -50.5 214t-162.5 73q-120 0 -205 -88q-90 -87 -131 -221zM1034 629h-553v-37q0 -133 43 -207q47 -78 166 -78t211 92q90 93 133 230z" />
    <glyph glyph-name="pi" unicode="&#x3c0;" horiz-adv-x="1495" 
d="M1239 717l-82 -307q-6 -24 -6 -41q0 -82 113 -82q51 0 90 8l-74 -285q-74 -26 -195 -26q-137 0 -219 73q-84 75 -84 213q0 59 19 127l86 320h-219l-193 -717h-356l192 717h-205l80 301h1360l-80 -301h-227z" />
    <glyph glyph-name="uni0401" unicode="&#x401;" horiz-adv-x="1306" 
d="M752 1649q-74 0 -123 49q-47 44 -47 121q0 85 61 149q59 62 145 62q74 0 125 -48q50 -50 50 -122q0 -88 -62 -150q-61 -61 -149 -61zM1266 1649q-74 0 -123 49q-47 44 -47 121q0 85 61 149q59 62 146 62q73 0 124 -48q48 -48 48 -122q0 -87 -60 -150q-61 -61 -149 -61z
M27 0l399 1493h1040l-90 -334h-663l-68 -244h606l-86 -321h-604l-69 -258h671l-90 -336h-1046z" />
    <glyph glyph-name="uni0402" unicode="&#x402;" horiz-adv-x="1656" 
d="M1561 1493l-91 -342h-540l-74 -279q180 86 363 86q116 0 202 -57q88 -64 131 -156q45 -91 45 -210q0 -139 -43.5 -263t-123.5 -215q-83 -93 -201.5 -144.5t-257.5 -51.5q-117 0 -215 28l86 326h59q61 0 111 11.5t92 37t65 72t23 110.5q0 74 -55 117q-52 43 -129 43
q-122 0 -240 -59l-145 -547h-377l307 1151h-340l90 342h1258z" />
    <glyph glyph-name="uni0403" unicode="&#x403;" horiz-adv-x="1187" 
d="M1034 1624h-293l314 375h405zM711 1147l-308 -1147h-376l399 1493h995l-92 -346h-618z" />
    <glyph glyph-name="uni0404" unicode="&#x404;" horiz-adv-x="1652" 
d="M889 326q182 0 309 131q57 59 98 143l330 -129q-86 -200 -250 -324q-225 -173 -528 -170q-146 0 -276.5 49t-225.5 138q-97 89 -151 215t-54 270q0 176 70 334q72 162 190 277q118 118 283 188q162 70 340 70q132 0 245 -30.5t187 -82.5q77 -55 129 -121
q96 -123 121 -276l-360 -113q-20 102 -97 184q-86 92 -266 92q-132 0 -244 -71q-111 -73 -166 -193h545l-82 -305h-504q21 -130 115 -203q91 -73 242 -73z" />
    <glyph glyph-name="uni0405" unicode="&#x405;" horiz-adv-x="1349" 
d="M877 438q0 91 -136 133l-125 39q-168 53 -268 162t-100 244q0 97 33 180t90 142t132.5 100t160 61t172.5 19q113 0 208.5 -28t159.5 -75q68 -51 105 -104q75 -113 75 -242l-350 -57q0 64 -43 125q-52 69 -168 69q-99 0 -149 -53q-41 -44 -41 -92q0 -93 123 -131l127 -39
q98 -29 173.5 -78.5t119.5 -107.5t66 -117.5t22 -116.5q0 -234 -162 -362q-160 -129 -436 -129q-133 0 -257 41.5t-210 121.5q-60 55 -93.5 134.5t-33.5 171.5v43l336 59q-2 -12 -2 -37q0 -103 71 -162q73 -61 178 -61q110 0 166 47t56 100z" />
    <glyph glyph-name="uni0406" unicode="&#x406;" horiz-adv-x="690" 
d="M27 0l399 1493h377l-400 -1493h-376z" />
    <glyph glyph-name="uni0407" unicode="&#x407;" horiz-adv-x="690" 
d="M430 1649q-77 0 -123 49q-49 46 -49 121q0 85 61 149q62 62 148 62q74 0 125 -48q47 -47 47 -122q0 -88 -59 -150q-61 -61 -150 -61zM936 1649q-74 0 -123 49q-47 44 -47 121q0 85 61 149q59 62 146 62q74 0 125 -48q49 -49 49 -122q0 -88 -62 -150q-61 -61 -149 -61z
M27 0l399 1493h377l-400 -1493h-376z" />
    <glyph glyph-name="uni0408" unicode="&#x408;" horiz-adv-x="1226" 
d="M489 -20q-190 0 -317 100q-66 51 -103.5 130t-37.5 175q0 40 8 80q0 7 8 47q5 27 10 41q1 2 15 51q2 9 12 49l362 23l-16 -66q-19 -83 -20 -90q-11 -50 -11 -65q0 -125 125 -125q64 0 110 41t64 110l271 1012h383l-279 -1036q-62 -233 -208.5 -355t-375.5 -122z" />
    <glyph glyph-name="uni0409" unicode="&#x409;" horiz-adv-x="2424" 
d="M1331 1159h-403l-201 -569q-79 -226 -182 -359q-56 -77 -131 -129q-155 -110 -383 -110q-72 0 -113 14l84 322h12q122 0 211 82q35 32 74 96q34 53 61 119q40 98 56 143l260 725h1120l-139 -526h217q146 3 264 -46.5t185 -142.5t65 -213q0 -133 -50.5 -242t-142.5 -180
q-188 -143 -479 -143h-694zM1833 649h-262l-84 -317h268q107 0 178 47q68 47 68 137q0 61 -46 97t-122 36z" />
    <glyph glyph-name="uni040A" unicode="&#x40a;" horiz-adv-x="2355" 
d="M1354 1493h379l-146 -547h228q233 0 366 -112q135 -111 135 -281q0 -135 -51.5 -243t-144.5 -175q-189 -135 -461 -135h-703l166 621h-553l-166 -621h-376l399 1493h377l-148 -547h553zM1774 635h-271l-80 -303h277q235 0 235 176q0 62 -42.5 94.5t-118.5 32.5z" />
    <glyph glyph-name="uni040B" unicode="&#x40b;" horiz-adv-x="1656" 
d="M1462 0h-377l95 352q16 66 16 109q0 145 -172 145q-147 0 -256 -59l-145 -547h-377l309 1151h-342l90 342h1258l-91 -342h-540l-74 -279q180 86 363 86q110 0 196.5 -35.5t140.5 -113.5t54 -188q0 -58 -19 -132z" />
    <glyph glyph-name="uni040C" unicode="&#x40c;" horiz-adv-x="1454" 
d="M1167 1624h-293l316 375h403zM915 0l-319 713l-188 -713h-381l399 1493h379l-170 -633h2l602 633h479l-745 -756l364 -737h-422z" />
    <glyph glyph-name="uni040E" unicode="&#x40e;" horiz-adv-x="1409" 
d="M662 1989l194 36q8 -78 53 -125t117 -47q74 0 139 52q63 48 84 123l197 -39q-50 -157 -166 -258q-114 -99 -274 -99q-148 0 -248 92q-99 91 -99 240q0 16 3 25zM1698 1493l-766 -1030q-58 -83 -111 -141q-46 -57 -121 -129q-70 -67 -141 -113t-159 -74.5t-175 -28.5
q-121 0 -235 43l88 326q82 -33 166 -33q157 0 295 164l-285 1016h403l154 -637l461 637h426z" />
    <glyph glyph-name="uni040F" unicode="&#x40f;" horiz-adv-x="1599" 
d="M1712 1493l-399 -1493h-463l-82 -313h-362l83 313h-462l399 1493h377l-307 -1147h532l307 1147h377z" />
    <glyph glyph-name="uni0410" unicode="&#x410;" horiz-adv-x="1560" 
d="M1083 0l-39 274h-595l-173 -274h-405l940 1493h430l232 -1493h-390zM932 1081l-293 -487h362z" />
    <glyph glyph-name="uni0411" unicode="&#x411;" horiz-adv-x="1441" 
d="M850 633h-283l-80 -301h285q104 0 168 43q66 45 66 133q0 47 -39 86q-42 39 -117 39zM27 0l399 1493h1094l-88 -332h-723l-60 -221h240q226 0 362 -109q135 -111 135 -282q0 -175 -83 -297q-87 -128 -232 -189q-144 -63 -338 -63h-706z" />
    <glyph glyph-name="uni0412" unicode="&#x412;" horiz-adv-x="1439" 
d="M778 604h-223l-74 -280h250q94 -2 163.5 40.5t70.5 120.5q0 119 -187 119zM893 1171h-186l-72 -270h209q101 0 166 39q67 37 67 117q0 114 -184 114zM672 0h-645l399 1493h494q100 0 186 -14q114 -18 199 -68q155 -91 155 -276q0 -151 -96 -250q-93 -101 -242 -131v-2
q108 -34 169 -113t61 -184q0 -199 -166 -324q-177 -131 -514 -131z" />
    <glyph glyph-name="uni0413" unicode="&#x413;" horiz-adv-x="1187" 
d="M711 1147l-308 -1147h-376l399 1493h995l-92 -346h-618z" />
    <glyph glyph-name="uni0414" unicode="&#x414;" horiz-adv-x="1789" 
d="M479 856l230 637h1110l-310 -1147h156l-176 -659h-363l84 313h-954l-84 -313h-362l174 651q74 0 149 41.5t141 114.5q131 153 205 362zM537 346h596l219 813h-391l-123 -346q-14 -38 -47 -117q-12 -30 -58 -116q-71 -134 -196 -234z" />
    <glyph glyph-name="uni0415" unicode="&#x415;" horiz-adv-x="1306" 
d="M27 0l399 1493h1040l-90 -334h-663l-68 -244h606l-86 -321h-604l-69 -258h671l-90 -336h-1046z" />
    <glyph glyph-name="uni0416" unicode="&#x416;" horiz-adv-x="2222" 
d="M987 725h-4l-629 -725h-487l747 809l-344 684h389l340 -700l7 2l186 698h379l-187 -700h9l624 700h467l-731 -778l346 -715h-401l-326 725h-6l-192 -725h-379z" />
    <glyph glyph-name="uni0417" unicode="&#x417;" horiz-adv-x="1349" 
d="M594 -23q-150 -2 -276 58t-199 169t-70 242q0 44 2 58l352 37q-4 -36 -4 -45q0 -86 62 -142q61 -55 155 -55q115 0 191 61q76 64 76 164q0 73 -54 112.5t-149 39.5q-60 0 -121 -25l-106 248l473 268h-658l82 326h1125l-89 -352l-413 -236q133 -47 213 -139
q80 -95 80 -219q0 -128 -54.5 -237t-150.5 -181q-93 -72 -214.5 -112t-252.5 -40z" />
    <glyph glyph-name="uni0418" unicode="&#x418;" horiz-adv-x="1644" 
d="M27 0l399 1493h373l-242 -901h2l774 901h422l-399 -1493h-373l242 903h-2l-772 -903h-424z" />
    <glyph glyph-name="uni0419" unicode="&#x419;" horiz-adv-x="1644" 
d="M815 1989l195 36q8 -78 53 -125t119 -47q71 0 139 52q60 45 84 123l197 -39q-54 -160 -166 -258q-117 -99 -277 -99q-146 0 -246 92q-98 91 -98 240v25zM27 0l399 1493h373l-242 -901h2l774 901h422l-399 -1493h-373l242 903h-2l-772 -903h-424z" />
    <glyph glyph-name="uni041A" unicode="&#x41a;" horiz-adv-x="1454" 
d="M915 0l-319 713l-188 -713h-381l399 1493h379l-170 -633h2l602 633h479l-745 -756l364 -737h-422z" />
    <glyph glyph-name="uni041B" unicode="&#x41b;" horiz-adv-x="1685" 
d="M-82 6l84 322h12q144 0 250 125q56 70 105 194q29 69 47 121l260 725h1120l-397 -1493h-379l311 1159h-403l-201 -569q-79 -226 -182 -359q-56 -77 -131 -129q-155 -110 -383 -110q-72 0 -113 14z" />
    <glyph glyph-name="uni041C" unicode="&#x41c;" horiz-adv-x="2011" 
d="M1354 0l252 944h-4l-609 -944h-227l-123 938h-4l-250 -938h-362l399 1493h463l123 -915l590 915h520l-398 -1493h-370z" />
    <glyph glyph-name="uni041D" unicode="&#x41d;" horiz-adv-x="1619" 
d="M954 0l158 582h-553l-153 -582h-379l399 1493h377l-152 -563h553l150 563h377l-400 -1493h-377z" />
    <glyph glyph-name="uni041E" unicode="&#x41e;" horiz-adv-x="1738" 
d="M1026 1518q155 0 288.5 -51t227.5 -142q92 -90 142.5 -212t50.5 -259q0 -177 -72 -344t-190 -279q-119 -116 -283 -184q-162 -70 -338 -70q-139 0 -265.5 44t-226.5 126q-97 81 -159 211q-60 132 -60 287q0 175 72 342q71 165 190 281q121 115 283 182q165 68 340 68z
M532 674q0 -164 101 -252q100 -92 250 -92q124 0 233 71q104 68 168 183q59 115 59 239q0 148 -94 246q-98 98 -256 98q-92 0 -178 -41t-149 -112q-62 -68 -98 -158t-36 -182z" />
    <glyph glyph-name="uni041F" unicode="&#x41f;" horiz-adv-x="1601" 
d="M936 0l305 1147h-528l-307 -1147h-379l399 1493h1286l-399 -1493h-377z" />
    <glyph glyph-name="uni0420" unicode="&#x420;" horiz-adv-x="1357" 
d="M543 516l-137 -516h-379l399 1493h465q225 0 356 -70q100 -54 152.5 -145t52.5 -209v-27q-1 -4 -2.5 -20t-3.5 -29q-5 -60 -39 -137q-35 -86 -107 -158q-43 -43 -92 -71q-170 -111 -420 -111h-245zM870 1163h-155l-86 -327h155q104 0 191 41q90 47 90 151q0 56 -37 90
q-48 45 -158 45z" />
    <glyph glyph-name="uni0421" unicode="&#x421;" horiz-adv-x="1648" 
d="M141 645q0 180 70 338q73 165 190 279q125 122 283 186q162 70 340 70q136 0 248 -32t185.5 -83t127.5 -120.5t81.5 -137.5t39.5 -141l-365 -113q-21 104 -94 182q-41 44 -109.5 69t-154.5 25q-90 0 -174.5 -42t-146.5 -113q-60 -72 -95 -160.5t-35 -175.5
q0 -155 95 -250q101 -96 262 -96q180 0 309 133q53 58 94 141l336 -129q-59 -147 -178 -264q-65 -63 -154 -119q-86 -53 -203.5 -84t-244.5 -31q-146 0 -276.5 49t-225.5 138q-97 87 -151 212.5t-54 268.5z" />
    <glyph glyph-name="uni0422" unicode="&#x422;" horiz-adv-x="1280" 
d="M1006 1151l-306 -1151h-378l307 1151h-422l92 342h1217l-89 -342h-421z" />
    <glyph glyph-name="uni0423" unicode="&#x423;" horiz-adv-x="1409" 
d="M1698 1493l-766 -1030q-58 -83 -111 -141q-46 -57 -121 -129q-70 -67 -141 -113t-159 -74.5t-175 -28.5q-121 0 -235 43l88 326q82 -33 166 -33q157 0 295 164l-285 1016h403l154 -637l461 637h426z" />
    <glyph glyph-name="uni0424" unicode="&#x424;" horiz-adv-x="2007" 
d="M1178 113h-88l-43 -160h-377l41 160q-270 21 -420 168t-150 383q0 155 60 292t168 236q111 100 269.5 156.5t344.5 56.5h74l37 135h376l-36 -135q271 -18 426 -164q157 -145 157 -373q0 -168 -63.5 -311.5t-177.5 -241.5q-111 -97 -265.5 -149.5t-332.5 -52.5zM526 702
q0 -117 78 -180q77 -62 197 -71l166 616h-35q-171 5 -289 -96.5t-117 -268.5zM1628 811q0 114 -82 184q-83 68 -203 68l-163 -612h47q178 0 289 96q112 95 112 264z" />
    <glyph glyph-name="uni0425" unicode="&#x425;" horiz-adv-x="1474" 
d="M952 0l-198 479l-435 -479h-452l725 782l-316 711h414l180 -438l394 438h450l-682 -737l334 -756h-414z" />
    <glyph glyph-name="uni0426" unicode="&#x426;" horiz-adv-x="1685" 
d="M1712 1493l-307 -1147h156l-177 -659h-360l82 313h-1079l399 1493h377l-307 -1147h532l307 1147h377z" />
    <glyph glyph-name="uni0427" unicode="&#x427;" horiz-adv-x="1501" 
d="M836 0l153 573q-240 -102 -418 -102q-163 0 -272 92q-106 87 -106 256q0 76 30 187l129 487h379l-119 -446q-16 -62 -16 -99q0 -133 145 -133q85 0 177 25q94 28 161 69l156 584h377l-400 -1493h-376z" />
    <glyph glyph-name="uni0428" unicode="&#x428;" horiz-adv-x="2383" 
d="M27 0l399 1493h377l-307 -1147h469l307 1147h377l-308 -1147h471l306 1147h376l-399 -1493h-2068z" />
    <glyph glyph-name="uni0429" unicode="&#x429;" horiz-adv-x="2467" 
d="M2494 1493l-307 -1147h156l-176 -659h-361l84 313h-1863l399 1493h377l-307 -1147h469l307 1147h377l-308 -1147h471l306 1147h376z" />
    <glyph glyph-name="uni042A" unicode="&#x42a;" horiz-adv-x="1609" 
d="M842 967h217q223 5 370 -108t146 -294q0 -175 -90 -309q-90 -131 -238 -193q-147 -63 -346 -63h-694l311 1161h-305l86 332h684zM1018 649h-260l-86 -317h270q108 0 176 47q70 48 70 137q0 61 -47 97t-123 36z" />
    <glyph glyph-name="uni042B" unicode="&#x42b;" horiz-adv-x="2183" 
d="M803 1493l-139 -526h215q147 3 265 -46.5t185.5 -142.5t65.5 -213q0 -133 -50.5 -242t-142.5 -180q-188 -143 -481 -143h-694l399 1493h377zM1520 0l399 1493h377l-400 -1493h-376zM840 649h-262l-86 -317h270q108 0 176 47q70 48 70 137q0 61 -46 97t-122 36z" />
    <glyph glyph-name="uni042C" unicode="&#x42c;" horiz-adv-x="1431" 
d="M803 1493l-139 -526h215q147 3 265 -46.5t185.5 -142.5t65.5 -213q0 -133 -50.5 -242t-142.5 -180q-188 -143 -481 -143h-694l399 1493h377zM840 649h-262l-86 -317h270q108 0 176 47q70 48 70 137q0 61 -46 97t-122 36z" />
    <glyph glyph-name="uni042D" unicode="&#x42d;" horiz-adv-x="1648" 
d="M1479 1290q161 -182 161 -434q0 -163 -48.5 -306.5t-135.5 -248.5q-80 -98 -196 -178q-223 -146 -494 -146q-178 0 -325.5 62.5t-245.5 181.5q-100 115 -125 275l360 114q35 -150 133 -215q98 -67 236 -67q130 0 239 75q107 71 168 199h-540l82 305h505q-21 109 -116 189
q-93 75 -226 75q-134 0 -240 -72t-163 -202l-334 131q66 155 195 272q121 112 272 166q143 52 303 52t299.5 -60t235.5 -168z" />
    <glyph glyph-name="uni042E" unicode="&#x42e;" horiz-adv-x="2361" 
d="M1696 1518q202 0 356 -86q153 -90 229 -236q78 -144 78 -334q0 -184 -69 -344q-70 -165 -187 -282q-114 -117 -276 -189q-158 -70 -330 -70q-274 0 -461 158q-92 76 -147 194.5t-62 264.5h-264l-157 -594h-379l399 1493h377l-156 -582h223q88 263 318 437
q228 170 508 170zM1534 330q116 0 219 71q100 69 160 183q55 113 55 239q0 145 -84 246q-88 98 -237 98q-117 0 -217 -71q-95 -66 -158 -185q-58 -116 -58 -241q0 -159 91 -250q90 -90 229 -90z" />
    <glyph glyph-name="uni042F" unicode="&#x42f;" horiz-adv-x="1419" 
d="M-61 0l475 596q-195 109 -195 346q-2 166 85.5 292.5t242.5 193.5t354 65h629l-400 -1493h-376l139 524h-137l-400 -524h-417zM1065 1167h-178q-126 0 -197 -51q-76 -54 -76 -137q0 -74 64 -109q49 -24 115 -24h186z" />
    <glyph glyph-name="uni0430" unicode="&#x430;" horiz-adv-x="1314" 
d="M731 111h-4q-131 -131 -293 -131q-118 0 -201 59q-88 63 -127 154q-43 90 -43 202q0 122 46 246q48 124 120 207q75 88 179.5 139t216.5 51q198 0 307 -149h2l37 129h362l-223 -832q-22 -84 -25 -151v-35h-364v33q1 11 3 28t3.5 29t3.5 21zM606 299q99 0 172 76
q74 77 74 182q0 76 -47 117q-48 45 -125 45q-101 0 -174 -76q-74 -77 -74 -184q0 -72 47.5 -116t126.5 -44z" />
    <glyph glyph-name="uni0431" unicode="&#x431;" horiz-adv-x="1310" 
d="M436 844l4 -2q134 155 369 155q186 0 309 -114q61 -55 96 -138t35 -180q0 -123 -48.5 -233.5t-133.5 -188.5t-197.5 -122t-234.5 -44q-242 0 -379 146q-133 148 -133 391q0 183 45 352q23 97 70 193q44 89 120 180q82 91 179 150q85 53 176 75q98 28 254 52l301 47v-291
l-316 -53q-151 -26 -258 -78q-111 -55 -175 -134t-83 -163zM659 295q100 0 170 76q68 74 68 178q0 78 -49 133q-48 51 -129 51q-102 0 -170 -74q-68 -77 -68 -180q0 -82 49 -131q50 -53 129 -53z" />
    <glyph glyph-name="uni0432" unicode="&#x432;" horiz-adv-x="1228" 
d="M647 0h-657l272 1018h555q178 0 273.5 -64.5t95.5 -179.5q0 -99 -62.5 -167t-171.5 -95q74 -23 115 -76.5t41 -124.5q0 -149 -121 -229q-122 -82 -340 -82zM512 618h180q59 0 93 21t34 63q0 62 -100 62h-168zM416 258h196q59 0 96 24.5t37 67.5q0 68 -106 68h-180z" />
    <glyph glyph-name="uni0433" unicode="&#x433;" horiz-adv-x="972" 
d="M543 717l-191 -717h-362l272 1018h817l-80 -301h-456z" />
    <glyph glyph-name="uni0434" unicode="&#x434;" horiz-adv-x="1445" 
d="M426 1018h942l-192 -721h143l-164 -610h-330l84 313h-663l-82 -313h-332l164 610q61 0 121 43q38 31 96 125q39 81 45 96q19 47 45 115q30 80 51 137zM420 297h401l113 422h-268q-11 -30 -28.5 -72.5t-21.5 -52.5q-12 -32 -47 -107q-59 -114 -149 -190z" />
    <glyph glyph-name="uni0435" unicode="&#x435;" horiz-adv-x="1204" 
d="M1110 418h-700q0 -71 59 -115q58 -43 125 -43q66 0 120.5 25.5t82.5 76.5l282 -126q-88 -164 -284 -226q-103 -33 -211 -33q-225 0 -369 129q-145 130 -145 345q0 117 49 227q55 114 135 188q84 81 197 127q118 47 237 47q189 0 322 -108q66 -54 103.5 -134t37.5 -173
q0 -104 -41 -207zM674 764q-71 0 -133 -39q-69 -44 -92 -107h360q8 20 8 31q0 56 -39 85.5t-104 29.5z" />
    <glyph glyph-name="uni0436" unicode="&#x436;" horiz-adv-x="1824" 
d="M872 1018h365l-125 -471h4l400 471h428l-474 -537l213 -481h-389l-190 494h-8l-131 -494h-365l129 485h-6l-385 -485h-455l492 563l-213 455h368l209 -477h6z" />
    <glyph glyph-name="uni0437" unicode="&#x437;" horiz-adv-x="1044" 
d="M379 430l-23 172l271 135v6l-328 -6h-156l74 281h854l-82 -301l-252 -127q76 -21 133 -84q56 -62 56 -139q0 -102 -45 -180t-121 -122.5t-164 -66t-186 -21.5q-101 0 -189 38.5t-145 113.5q-60 75 -60 178q0 39 4 55l299 48v-15q0 -57 33.5 -93t87.5 -36q55 0 93 28.5
t38 74.5q0 33 -30.5 52t-75.5 19q-47 0 -86 -10z" />
    <glyph glyph-name="uni0438" unicode="&#x438;" horiz-adv-x="1267" 
d="M797 500l-4 2l-463 -502h-340l272 1018h352l-131 -488l4 -2l455 490h346l-272 -1018h-352z" />
    <glyph glyph-name="uni0439" unicode="&#x439;" horiz-adv-x="1267" 
d="M479 1536l195 37q8 -77 53.5 -123.5t118.5 -46.5q76 0 137 49q62 50 86 123l197 -37q-55 -164 -166 -258q-118 -100 -277 -100q-145 0 -245 92q-99 92 -99 241v23zM797 500l-4 2l-463 -502h-340l272 1018h352l-131 -488l4 -2l455 490h346l-272 -1018h-352z" />
    <glyph glyph-name="uni043A" unicode="&#x43a;" horiz-adv-x="1249" 
d="M719 0l-230 485h-8l-129 -485h-362l272 1018h363l-123 -455h6l434 455h453l-531 -520l258 -498h-403z" />
    <glyph glyph-name="uni043B" unicode="&#x43b;" horiz-adv-x="1339" 
d="M-72 0l78 291q85 0 144 71q55 63 120 242l148 414h942l-273 -1018h-362l193 717h-256l-89 -242q-57 -152 -145 -264q-55 -71 -111 -113q-131 -106 -305 -106q-56 0 -84 8z" />
    <glyph glyph-name="uni043C" unicode="&#x43c;" horiz-adv-x="1611" 
d="M1010 0l155 582h-4l-389 -582h-190l-76 606h-4l-162 -606h-350l272 1018h453l73 -559l377 559h467l-270 -1018h-352z" />
    <glyph glyph-name="uni043D" unicode="&#x43d;" horiz-adv-x="1255" 
d="M641 0l96 362h-286l-99 -362h-362l272 1018h363l-99 -365h291l96 365h363l-272 -1018h-363z" />
    <glyph glyph-name="uni043E" unicode="&#x43e;" horiz-adv-x="1247" 
d="M594 299q99 0 170 74q67 73 67 178q0 75 -47.5 121.5t-124.5 46.5q-100 0 -167 -76q-70 -73 -70 -176q0 -74 45.5 -121t126.5 -47zM575 -23q-236 0 -370 134q-135 132 -135 340q0 112 45.5 219t126.5 190q80 83 194 131q113 49 242 49q117 0 214 -35.5t163 -99.5
q133 -136 133 -336q0 -114 -45.5 -221t-128.5 -190q-74 -80 -195 -131q-115 -50 -244 -50z" />
    <glyph glyph-name="uni043F" unicode="&#x43f;" horiz-adv-x="1247" 
d="M995 0h-362l192 719h-282l-193 -719h-360l272 1018h1006z" />
    <glyph glyph-name="uni0440" unicode="&#x440;" horiz-adv-x="1312" 
d="M1257 625q0 -137 -45 -256q-47 -121 -122 -205q-78 -86 -180.5 -135t-209.5 -49q-204 0 -311 157h-4l-170 -639h-358l405 1520h363l-29 -105h4q134 125 289 125q140 0 252 -98q54 -48 85 -131t31 -184zM645 301q99 0 172 76q74 77 74 184q0 72 -47.5 116t-124.5 44
q-98 0 -176 -78q-74 -77 -74 -182q0 -72 49 -115q48 -45 127 -45z" />
    <glyph glyph-name="uni0441" unicode="&#x441;" horiz-adv-x="1189" 
d="M580 -23q-238 0 -373 132q-135 129 -135 346q0 121 49 231q51 111 135 186q85 79 197 124.5t231 45.5q107 0 198 -31.5t152 -86.5q123 -111 144 -258l-334 -95q-13 67 -58.5 107.5t-119.5 40.5q-104 0 -174 -76q-68 -77 -68 -178q0 -75 48 -120.5t132 -45.5
q67 0 122.5 37t82.5 96l303 -115q-60 -144 -207 -243q-148 -97 -325 -97z" />
    <glyph glyph-name="uni0442" unicode="&#x442;" horiz-adv-x="1052" 
d="M770 717l-190 -717h-369l192 717h-311l82 301h987l-80 -301h-311z" />
    <glyph glyph-name="uni0443" unicode="&#x443;" horiz-adv-x="1191" 
d="M354 -502h-379l314 500l-133 1020h356l63 -604h3l358 604h383z" />
    <glyph glyph-name="uni0444" unicode="&#x444;" horiz-adv-x="1806" 
d="M971 61l-140 -526h-366l139 522q-107 -73 -233 -73q-77 0 -137.5 32.5t-97 89t-55 127t-18.5 150.5q-2 131 50 268t145 236q67 68 159.5 107.5t198.5 39.5q135 0 226 -88l157 588h367l-158 -590q59 45 114 64.5t122 19.5q77 0 137.5 -33t96.5 -89.5t54.5 -127
t18.5 -151.5q3 -128 -48.5 -263.5t-146.5 -234.5q-63 -69 -156 -109t-198 -40q-138 0 -231 81zM436 446q0 -149 133 -149q55 0 107 22l98 373q-17 13 -49.5 22t-58.5 9q-105 0 -166 -82q-64 -82 -64 -195zM1380 563q0 75 -33.5 114.5t-97.5 39.5q-44 0 -110 -27l-99 -371
q22 -15 54 -20q31 -8 59 -8q104 0 166 80q61 79 61 192z" />
    <glyph glyph-name="uni0445" unicode="&#x445;" horiz-adv-x="1200" 
d="M680 0l-121 268l-242 -268h-432l516 526l-258 492h398l116 -266l236 266h426l-506 -516l262 -502h-395z" />
    <glyph glyph-name="uni0446" unicode="&#x446;" horiz-adv-x="1345" 
d="M1268 1018l-193 -721h144l-164 -610h-330l84 313h-819l272 1018h363l-195 -721h283l192 721h363z" />
    <glyph glyph-name="uni0447" unicode="&#x447;" horiz-adv-x="1181" 
d="M569 0l84 311q-69 -25 -137 -35q-76 -12 -137 -12q-167 0 -246 119q-45 62 -45 156q0 43 18 110l99 369h366l-84 -307q-6 -27 -6 -62q0 -38 23.5 -60t58.5 -22q97 0 168 41l109 410h362l-270 -1018h-363z" />
    <glyph glyph-name="uni0448" unicode="&#x448;" horiz-adv-x="1853" 
d="M-10 0l272 1018h363l-193 -721h262l193 721h362l-192 -721h260l192 721h365l-272 -1018h-1612z" />
    <glyph glyph-name="uni0449" unicode="&#x449;" horiz-adv-x="1953" 
d="M1874 1018l-193 -721h144l-164 -610h-330l84 313h-1425l272 1018h363l-193 -721h262l193 721h362l-192 -721h260l192 721h365z" />
    <glyph glyph-name="uni044A" unicode="&#x44a;" horiz-adv-x="1355" 
d="M786 1018l-75 -283h157q113 1 210 -37t156.5 -109.5t57.5 -160.5q0 -106 -41.5 -189.5t-113.5 -134.5t-162.5 -77.5t-194.5 -26.5h-628l192 723h-252l80 295h614zM819 481h-174l-59 -213h180q74 0 120 32t46 91q0 41 -32.5 65.5t-80.5 24.5z" />
    <glyph glyph-name="uni044B" unicode="&#x44b;" horiz-adv-x="1800" 
d="M618 0h-628l272 1018h363l-76 -283h158q113 1 210 -37t156 -109.5t57 -160.5q0 -104 -41 -188.5t-114 -137.5q-141 -102 -357 -102zM1548 0h-364l272 1018h365zM655 481h-174l-57 -213h180q73 0 118.5 32t45.5 91q0 41 -32.5 65.5t-80.5 24.5z" />
    <glyph glyph-name="uni044C" unicode="&#x44c;" horiz-adv-x="1193" 
d="M618 0h-628l272 1018h363l-76 -283h158q113 1 210 -37t156 -109.5t57 -160.5q0 -104 -41 -188.5t-114 -137.5q-141 -102 -357 -102zM655 481h-174l-57 -213h180q73 0 118.5 32t45.5 91q0 41 -32.5 65.5t-80.5 24.5z" />
    <glyph glyph-name="uni044D" unicode="&#x44d;" horiz-adv-x="1159" 
d="M594 1042q113 0 210 -36.5t163 -100.5q133 -136 133 -336q0 -128 -53 -243q-52 -114 -140 -189q-87 -76 -197 -118t-223 -42q-78 0 -151 18.5t-138.5 57t-113 104t-66.5 152.5l320 90q30 -118 174 -118q67 0 122.5 35.5t90.5 97.5h-274l53 194h254q-17 58 -66 93.5
t-112 35.5q-134 0 -201 -119l-289 101q67 148 207 235q137 88 297 88z" />
    <glyph glyph-name="uni044E" unicode="&#x44e;" horiz-adv-x="1771" 
d="M1233 1040q217 0 346 -129q131 -125 131 -340q0 -121 -45.5 -231.5t-124.5 -189.5q-78 -81 -185 -127t-225 -46q-193 0 -331 105t-162 285h-186l-97 -367h-364l272 1018h363l-97 -367h142q65 175 219 281q153 108 344 108zM1147 299q88 0 147 80q62 83 62 174
q0 76 -41 122t-113 46q-90 0 -151 -76q-60 -78 -60 -172q0 -76 43 -125t113 -49z" />
    <glyph glyph-name="uni044F" unicode="&#x44f;" 
d="M633 0l82 305h-125l-254 -305h-414l354 385q-69 37 -110 98q-43 64 -43 142q0 102 44 180.5t117.5 123.5t158.5 67t178 22h643l-273 -1018h-358zM782 551l52 194h-191q-75 0 -117.5 -29.5t-42.5 -84.5q0 -38 28.5 -59t80.5 -21h190z" />
    <glyph glyph-name="uni0451" unicode="&#x451;" horiz-adv-x="1204" 
d="M487 1176q-75 0 -122 47q-50 47 -50 120q0 88 62 150q61 61 147 61q73 0 123 -47q49 -49 49 -123q0 -89 -61 -147q-61 -61 -148 -61zM983 1176q-79 0 -123 47q-49 46 -49 120q0 89 61 150q58 61 148 61q75 0 125 -47q47 -47 47 -123q0 -85 -59 -147q-61 -61 -150 -61z
M1110 418h-700q0 -71 59 -115q58 -43 125 -43q66 0 120.5 25.5t82.5 76.5l282 -126q-88 -164 -284 -226q-103 -33 -211 -33q-225 0 -369 129q-145 130 -145 345q0 117 49 227q55 114 135 188q84 81 197 127q118 47 237 47q189 0 322 -108q66 -54 103.5 -134t37.5 -173
q0 -104 -41 -207zM674 764q-71 0 -133 -39q-69 -44 -92 -107h360q8 20 8 31q0 56 -39 85.5t-104 29.5z" />
    <glyph glyph-name="uni0452" unicode="&#x452;" horiz-adv-x="1222" 
d="M430 -188q85 0 137 55q58 61 78 143l139 525q9 37 9 63q0 109 -109 109q-142 0 -186 -164l-146 -543h-362l309 1159h-139l65 242h137l41 153h361l-41 -153h293l-64 -242h-293l-65 -254q139 133 295 133q142 0 218 -85t73 -216q0 -76 -29 -186l-156 -584
q-49 -192 -166 -327q-128 -144 -325 -144q-74 0 -182 23l79 295q8 -2 29 -2z" />
    <glyph glyph-name="uni0453" unicode="&#x453;" horiz-adv-x="972" 
d="M825 1188h-293l316 373h403zM543 717l-191 -717h-362l272 1018h817l-80 -301h-456z" />
    <glyph glyph-name="uni0454" unicode="&#x454;" horiz-adv-x="1187" 
d="M604 283q72 0 130.5 36t90.5 95l283 -107q-65 -145 -207 -235q-142 -95 -319 -95q-237 0 -372.5 135t-135.5 351q0 159 82 295q82 134 223 209t299 75q107 0 198 -30t152 -82q120 -105 148 -252l-316 -90q-15 68 -64.5 108.5t-125.5 40.5q-70 0 -127.5 -35.5t-93.5 -97.5
h270l-47 -186h-250q14 -64 61 -99.5t121 -35.5z" />
    <glyph glyph-name="uni0455" unicode="&#x455;" horiz-adv-x="1024" 
d="M578 1040q98 0 180 -29.5t131 -78.5q96 -93 96 -201v-6l-303 -35q0 50 -35 74t-74 24q-42 0 -67 -21t-25 -46q0 -39 60 -57l100 -33q145 -46 215 -131q55 -72 55 -181q0 -132 -116 -235q-59 -49 -148.5 -78t-193.5 -29q-97 0 -178 21.5t-130 56.5q-48 35 -77 78
q-58 80 -58 160v14l295 49q0 -55 43 -90q42 -33 103 -33q52 0 80 21.5t28 50.5q0 47 -76 74l-71 22q-105 40 -156 76q-35 22 -61 55q-54 68 -54 162q0 150 125 248q122 98 312 98z" />
    <glyph glyph-name="uni0456" unicode="&#x456;" horiz-adv-x="606" 
d="M518 1155q-81 0 -137 53q-53 50 -53 133q0 99 67 166q68 68 164 68q78 0 135 -51q54 -54 54 -138q0 -97 -66 -163q-71 -68 -164 -68zM356 0h-366l272 1018h365z" />
    <glyph glyph-name="uni0457" unicode="&#x457;" horiz-adv-x="610" 
d="M244 1176q-77 0 -121 47q-49 46 -49 120q0 88 59 150q61 61 148 61q75 0 125 -47q49 -49 49 -123q0 -85 -62 -147q-61 -61 -149 -61zM731 1176q-76 0 -123 47q-47 44 -47 120q0 87 60 150q61 61 147 61q75 0 125 -47q49 -49 49 -123q0 -86 -61 -147t-150 -61zM358 0h-368
l272 1018h369z" />
    <glyph glyph-name="uni0458" unicode="&#x458;" horiz-adv-x="622" 
d="M532 1155q-80 0 -133 53q-55 49 -55 133q0 98 68 166t161 68q84 0 138 -51q55 -55 55 -138q0 -95 -68 -163t-166 -68zM276 1018h367l-305 -1143q-52 -191 -166.5 -284t-306.5 -93q-41 0 -109 15q-63 15 -98 36l72 273q48 -23 92 -23q132 0 162 121z" />
    <glyph glyph-name="uni0459" unicode="&#x459;" horiz-adv-x="1929" 
d="M918 717h-256l-89 -242q-57 -152 -145 -264q-55 -71 -111 -113q-131 -106 -305 -106q-56 0 -84 8l78 291q85 0 144 71q55 63 120 242l148 414h942l-76 -283h158q113 1 210 -37t156.5 -109.5t57.5 -160.5q0 -106 -41.5 -189.5t-113.5 -134.5t-162.5 -77.5t-194.5 -26.5
h-627zM1393 481h-174l-60 -213h180q74 0 120 32t46 91q0 41 -32 65.5t-80 24.5z" />
    <glyph glyph-name="uni045A" unicode="&#x45a;" horiz-adv-x="1847" 
d="M1782 420q0 -133 -66.5 -229.5t-183.5 -143.5q-115 -47 -262 -47h-629l113 430h-287l-115 -430h-362l272 1018h363l-82 -301h288l82 301h363l-82 -301h190q184 0 291 -82t107 -215zM1421 385q0 36 -34 60t-87 24h-172l-53 -201h178q168 0 168 117z" />
    <glyph glyph-name="uni045B" unicode="&#x45b;" horiz-adv-x="1241" 
d="M889 1038q145 0 217 -84q74 -86 74 -217q0 -67 -29 -186l-147 -551h-363l143 537q9 35 9 61q0 52 -28.5 80.5t-80.5 28.5q-143 0 -186 -166l-146 -541h-362l309 1159h-139l65 242h137l41 153h361l-41 -153h293l-64 -242h-293l-67 -254h2q139 133 295 133z" />
    <glyph glyph-name="uni045C" unicode="&#x45c;" horiz-adv-x="1249" 
d="M936 1188h-293l315 373h404zM719 0l-230 485h-8l-129 -485h-362l272 1018h363l-123 -455h6l434 455h453l-531 -520l258 -498h-403z" />
    <glyph glyph-name="uni045E" unicode="&#x45e;" horiz-adv-x="1191" 
d="M348 1536l195 37q8 -77 53 -123.5t117 -46.5q75 0 139 49q63 51 84 123l197 -37q-51 -161 -166 -258q-115 -100 -275 -100q-148 0 -248 92q-98 91 -98 241q0 19 2 23zM936 1018h383l-965 -1520h-379l314 500l-133 1020h356l63 -604h3z" />
    <glyph glyph-name="uni045F" unicode="&#x45f;" horiz-adv-x="1247" 
d="M1268 1018l-273 -1018h-338l-84 -313h-329l84 313h-338l272 1018h363l-195 -721h283l192 721h363z" />
    <glyph glyph-name="uni0490" unicode="&#x490;" horiz-adv-x="1187" 
d="M711 1147l-305 -1147h-379l399 1493h633l84 317h362l-176 -663h-618z" />
    <glyph glyph-name="uni0491" unicode="&#x491;" horiz-adv-x="972" 
d="M1167 1339l-168 -622h-456l-191 -717h-362l272 1018h488l86 321h331z" />
    <glyph glyph-name="uni0496" unicode="&#x496;" horiz-adv-x="2285" 
d="M2021 -313h-362l84 313h-45l-326 725h-6l-192 -725h-379l192 725h-4l-629 -725h-487l747 809l-344 684h389l340 -700l7 2l186 698h379l-187 -700h9l624 700h467l-731 -778l178 -369h267z" />
    <glyph glyph-name="uni0497" unicode="&#x497;" horiz-adv-x="1875" 
d="M1604 -313h-330l84 313h-64l-190 494h-8l-131 -494h-365l129 485h-6l-385 -485h-455l492 563l-213 455h368l209 -477h6l127 477h365l-125 -471h4l400 471h428l-474 -537l82 -184h215z" />
    <glyph glyph-name="uni0498" unicode="&#x498;" horiz-adv-x="1349" 
d="M696 -313h-360l84 313q-168 43 -268 164q-103 115 -103 282q0 44 2 58l352 37q-4 -36 -4 -45q0 -86 62 -142q61 -55 155 -55q115 0 191 61q76 64 76 164q0 73 -54 112.5t-149 39.5q-60 0 -121 -25l-106 248l473 268h-658l82 326h1125l-89 -352l-413 -236
q133 -47 213 -139q80 -95 80 -219q0 -104 -37.5 -198.5t-104.5 -162.5q-134 -141 -344 -188z" />
    <glyph glyph-name="uni0499" unicode="&#x499;" horiz-adv-x="1044" 
d="M379 430l-23 172l271 135l-2 6l-326 -6h-156l74 281h854l-82 -301l-252 -127q76 -21 133 -84q56 -62 56 -139q0 -166 -105 -254q-96 -89 -243 -119l-82 -307h-332l86 317q-103 38 -168 115q-66 81 -66 188q0 39 4 55l299 48v-15q0 -57 33.5 -93t87.5 -36q55 0 93 28.5
t38 74.5q0 33 -30.5 52t-75.5 19q-47 0 -86 -10z" />
    <glyph glyph-name="uni049A" unicode="&#x49a;" horiz-adv-x="1521" 
d="M1260 -313h-363l86 313h-68l-319 713l-188 -713h-381l399 1493h379l-170 -633h2l602 633h479l-745 -756l194 -391h267z" />
    <glyph glyph-name="uni049B" unicode="&#x49b;" horiz-adv-x="1302" 
d="M1044 -313h-331l84 313h-78l-230 485h-8l-129 -485h-362l272 1018h363l-123 -455h6l434 455h453l-531 -520l105 -201h237z" />
    <glyph glyph-name="uni04A2" unicode="&#x4a2;" horiz-adv-x="1703" 
d="M1405 -313h-363l84 313h-172l158 582h-553l-153 -582h-379l399 1493h377l-152 -563h553l150 563h377l-308 -1147h156z" />
    <glyph glyph-name="uni04A3" unicode="&#x4a3;" horiz-adv-x="1353" 
d="M1065 -313h-332l84 313h-176l96 362h-286l-99 -362h-362l272 1018h363l-99 -365h291l96 365h363l-193 -721h144z" />
    <glyph glyph-name="uni04AA" unicode="&#x4aa;" horiz-adv-x="1648" 
d="M942 -313h-360l84 311q-237 56 -379 229q-146 174 -146 418q0 180 70 338q73 165 190 279q125 122 283 186q162 70 340 70q136 0 248 -32t185.5 -83t127.5 -120.5t81.5 -137.5t39.5 -141l-365 -113q-21 104 -94 182q-41 44 -109.5 69t-154.5 25q-90 0 -174.5 -42
t-146.5 -113q-60 -72 -95 -160.5t-35 -175.5q0 -155 95 -250q101 -96 262 -96q180 0 309 133q53 58 94 141l336 -129q-61 -151 -198 -282q-74 -72 -180 -125t-226 -74z" />
    <glyph glyph-name="uni04AB" unicode="&#x4ab;" horiz-adv-x="1189" 
d="M655 -313h-329l84 311q-163 43 -250 164q-88 119 -88 293q0 121 49 231q51 111 135 186q85 79 197 124.5t231 45.5q107 0 198 -31.5t152 -86.5q123 -111 144 -258l-334 -95q-13 67 -58.5 107.5t-119.5 40.5q-104 0 -174 -76q-68 -77 -68 -178q0 -75 48 -120.5t132 -45.5
q67 0 122.5 37t82.5 96l303 -115q-48 -115 -145 -196q-99 -89 -228 -123z" />
    <glyph glyph-name="uni04AC" unicode="&#x4ac;" horiz-adv-x="1292" 
d="M772 -313h-362l84 313h-172l307 1151h-422l92 342h1217l-89 -342h-421l-213 -805h153z" />
    <glyph glyph-name="uni04AD" unicode="&#x4ad;" horiz-adv-x="1062" 
d="M639 -313h-332l86 313h-182l192 717h-311l82 301h987l-80 -301h-311l-113 -420h144z" />
    <glyph glyph-name="uni04B2" unicode="&#x4b2;" horiz-adv-x="1538" 
d="M1282 -313h-360l82 313h-52l-198 479l-435 -479h-452l725 782l-316 711h414l180 -438l394 438h450l-682 -737l180 -410h246z" />
    <glyph glyph-name="uni04B3" unicode="&#x4b3;" horiz-adv-x="1259" 
d="M995 -313h-329l84 313h-70l-121 268l-242 -268h-432l516 526l-258 492h398l116 -266l236 266h426l-506 -516l107 -205h237z" />
    <glyph glyph-name="uni04B6" unicode="&#x4b6;" horiz-adv-x="1585" 
d="M1284 -313h-362l86 313h-172l153 573q-240 -102 -418 -102q-163 0 -272 92q-106 87 -106 256q0 76 30 187l129 487h379l-119 -446q-16 -62 -16 -99q0 -133 145 -133q85 0 177 25q94 28 161 69l156 584h377l-307 -1147h155z" />
    <glyph glyph-name="uni04B7" unicode="&#x4b7;" horiz-adv-x="1282" 
d="M991 -313h-329l83 313h-176l84 311q-69 -25 -137 -35q-76 -12 -137 -12q-167 0 -246 119q-45 62 -45 156q0 43 18 110l99 369h366l-84 -307q-6 -27 -6 -62q0 -38 23.5 -60t58.5 -22q97 0 168 41l109 410h362l-190 -721h143z" />
    <glyph glyph-name="uni04C0" unicode="&#x4c0;" horiz-adv-x="690" 
d="M27 0l399 1493h377l-400 -1493h-376z" />
    <glyph glyph-name="uni04C1" unicode="&#x4c1;" horiz-adv-x="2222" 
d="M1077 1989l195 36q8 -78 53 -125t119 -47q71 0 139 52q60 45 84 123l197 -39q-50 -157 -166 -258q-117 -99 -275 -99q-147 0 -247 92q-99 91 -99 240v25zM987 725h-4l-629 -725h-487l747 809l-344 684h389l340 -700l7 2l186 698h379l-187 -700h9l624 700h467l-731 -778
l346 -715h-401l-326 725h-6l-192 -725h-379z" />
    <glyph glyph-name="uni04C2" unicode="&#x4c2;" horiz-adv-x="1824" 
d="M745 1536l195 37q8 -77 53 -123.5t117 -46.5q78 0 139 49q63 51 84 123l197 -37q-51 -161 -166 -258q-115 -100 -274 -100q-148 0 -248 92q-99 92 -99 241q0 19 2 23zM872 1018h365l-125 -471h4l400 471h428l-474 -537l213 -481h-389l-190 494h-8l-131 -494h-365l129 485
h-6l-385 -485h-455l492 563l-213 455h368l209 -477h6z" />
    <glyph glyph-name="uni04CF" unicode="&#x4cf;" horiz-adv-x="606" 
d="M354 0h-364l272 1018h365z" />
    <glyph glyph-name="uni04D0" unicode="&#x4d0;" horiz-adv-x="1560" 
d="M721 1989l194 36q8 -78 53 -125t119 -47q72 0 140 52q60 45 84 123l196 -39q-50 -157 -166 -258q-117 -99 -276 -99q-146 0 -246 92q-98 91 -98 240v25zM1083 0l-39 274h-595l-173 -274h-405l940 1493h430l232 -1493h-390zM932 1081l-293 -487h362z" />
    <glyph glyph-name="uni04D1" unicode="&#x4d1;" horiz-adv-x="1314" 
d="M451 1536l194 37q8 -77 53.5 -123.5t118.5 -46.5q75 0 139 49q59 48 84 123l197 -37q-51 -161 -166 -258q-118 -100 -274 -100q-148 0 -248 92q-98 91 -98 241v23zM731 111h-4q-131 -131 -293 -131q-118 0 -201 59q-85 59 -129 154q-41 93 -41 202q0 122 46 246
q48 124 120 207q75 88 179.5 139t216.5 51q198 0 307 -149h2l37 129h362l-223 -832q-22 -84 -25 -151v-35h-364v33q1 11 3 28t3.5 29t3.5 21zM606 299q99 0 172 76q74 77 74 182q0 76 -47 117q-48 45 -125 45q-101 0 -174 -76q-74 -77 -74 -184q0 -72 47.5 -116t126.5 -44z
" />
    <glyph glyph-name="uni04D2" unicode="&#x4d2;" horiz-adv-x="1560" 
d="M993 1839q0 -82 -53 -135q-55 -55 -135 -55q-83 0 -135 55q-56 56 -56 135q0 81 56 137q57 54 135 54t135 -54q53 -53 53 -137zM1546 1839q0 -80 -55 -135t-135 -55q-83 0 -135 55q-54 54 -54 135q0 83 54 137q57 54 135 54t135 -54q55 -55 55 -137zM1083 0l-39 274h-595
l-173 -274h-405l940 1493h430l232 -1493h-390zM932 1081l-293 -487h362z" />
    <glyph glyph-name="uni04D3" unicode="&#x4d3;" horiz-adv-x="1314" 
d="M604 1176q-76 0 -123 47t-47 120q0 88 62 150q58 61 147 61q73 0 123 -47q49 -49 49 -123q0 -89 -61 -147q-61 -61 -150 -61zM1100 1176q-77 0 -121 47q-49 46 -49 120q0 89 61 150q58 61 146 61q75 0 125 -47q49 -49 49 -123q0 -85 -62 -147q-61 -61 -149 -61zM731 111
h-4q-131 -131 -293 -131q-118 0 -201 59q-85 59 -129 154q-41 93 -41 202q0 122 46 246q48 124 120 207q75 88 179.5 139t216.5 51q198 0 307 -149h2l37 129h362l-223 -832q-22 -84 -25 -151v-35h-364v33q1 11 3 28t3.5 29t3.5 21zM606 299q99 0 172 76q74 77 74 182
q0 76 -47 117q-48 45 -125 45q-101 0 -174 -76q-74 -77 -74 -184q0 -72 47.5 -116t126.5 -44z" />
    <glyph glyph-name="uni04D4" unicode="&#x4d4;" horiz-adv-x="2084" 
d="M459 236l-170 -236h-432l1093 1493h1293l-89 -334h-659l-65 -244h598l-84 -321h-601l-69 -258h665l-88 -336h-1032l64 236h-424zM1133 1169h-19l-436 -614h291z" />
    <glyph glyph-name="uni04D5" unicode="&#x4d5;" horiz-adv-x="1800" 
d="M676 1042q84 0 163 -25.5t134 -72.5q155 96 311 96q124 0 227 -48.5t168 -143.5q68 -95 68 -223q0 -103 -43 -207h-698q0 -73 59 -115q55 -43 123 -43q67 0 122 25.5t83 76.5l280 -126q-88 -164 -284 -226q-103 -33 -209 -33q-129 0 -235 44t-177 126q-88 -93 -195 -133
q-101 -37 -243 -37h-8q-127 0 -213 74q-89 74 -89 197q0 186 191 276q108 48 213 54l211 16q42 2 72 28t30 64t-32.5 60t-79.5 22q-66 0 -115 -36t-70 -93l-307 98q47 127 189 216t354 89zM1268 764q-69 0 -131 -39q-69 -41 -95 -107h363q8 24 8 31q0 56 -39.5 85.5
t-105.5 29.5zM471 231q70 0 121 39.5t63 106.5l9 39l-127 -15q-49 -3 -97 -20q-51 -19 -51 -74q0 -31 23.5 -53.5t58.5 -22.5z" />
    <glyph glyph-name="uni04D6" unicode="&#x4d6;" horiz-adv-x="1306" 
d="M649 1989l195 36q8 -78 53 -125t117 -47q74 0 139 52q62 47 86 123l195 -39q-49 -155 -164 -258q-117 -99 -277 -99q-150 0 -245 92q-101 91 -101 240q0 19 2 25zM27 0l399 1493h1040l-90 -334h-663l-68 -244h606l-86 -321h-604l-69 -258h671l-90 -336h-1046z" />
    <glyph glyph-name="uni04D7" unicode="&#x4d7;" horiz-adv-x="1204" 
d="M412 1536l194 37q8 -77 53.5 -123.5t118.5 -46.5q76 0 140 49q58 47 83 123l197 -37q-51 -161 -166 -258q-118 -100 -274 -100q-148 0 -248 92q-98 91 -98 241v23zM1110 418h-700q0 -71 59 -115q58 -43 125 -43q66 0 120.5 25.5t82.5 76.5l282 -126q-88 -164 -284 -226
q-103 -33 -211 -33q-225 0 -369 129q-145 130 -145 345q0 117 49 227q55 114 135 188q84 81 197 127q118 47 237 47q189 0 322 -108q66 -54 103.5 -134t37.5 -173q0 -104 -41 -207zM674 764q-71 0 -133 -39q-69 -44 -92 -107h360q8 20 8 31q0 56 -39 85.5t-104 29.5z" />
    <glyph glyph-name="uni04DC" unicode="&#x4dc;" horiz-adv-x="2222" 
d="M1198 1649q-77 0 -123 49q-49 46 -49 121q0 85 61 149q59 62 148 62q72 0 123 -48q49 -49 49 -122q0 -89 -61 -150t-148 -61zM1704 1649q-77 0 -123 49q-49 46 -49 121q0 85 61 149q62 62 148 62q75 0 123 -48q49 -49 49 -122q0 -87 -60 -150q-61 -61 -149 -61zM987 725
h-4l-629 -725h-487l747 809l-344 684h389l340 -700l7 2l186 698h379l-187 -700h9l624 700h467l-731 -778l346 -715h-401l-326 725h-6l-192 -725h-379z" />
    <glyph glyph-name="uni04DD" unicode="&#x4dd;" horiz-adv-x="1824" 
d="M866 1176q-76 0 -123 47q-47 44 -47 120q0 88 62 150q58 61 145 61q75 0 125 -47q47 -47 47 -123q0 -88 -59 -147q-61 -61 -150 -61zM1362 1176q-76 0 -123 47t-47 120q0 88 59 150q61 61 148 61q75 0 125 -47q49 -49 49 -123q0 -85 -62 -147q-61 -61 -149 -61zM872 1018
h365l-125 -471h4l400 471h428l-474 -537l213 -481h-389l-190 494h-8l-131 -494h-365l129 485h-6l-385 -485h-455l492 563l-213 455h368l209 -477h6z" />
    <glyph glyph-name="uni04DE" unicode="&#x4de;" horiz-adv-x="1349" 
d="M907 1839q0 -82 -53 -135q-55 -55 -137 -55q-81 0 -133 55q-56 56 -56 135q0 81 56 137q54 54 133 54q80 0 137 -54q53 -53 53 -137zM1458 1839q0 -82 -53 -135q-55 -55 -135 -55q-83 0 -135 55q-56 56 -56 135q0 81 56 137q54 54 135 54q78 0 135 -54q53 -53 53 -137z
M594 -23q-150 -2 -276 58t-199 169t-70 242q0 44 2 58l352 37q-4 -36 -4 -45q0 -86 62 -142q61 -55 155 -55q115 0 191 61q76 64 76 164q0 73 -54 112.5t-149 39.5q-60 0 -121 -25l-106 248l473 268h-658l82 326h1125l-89 -352l-413 -236q133 -47 213 -139q80 -95 80 -219
q0 -128 -54.5 -237t-150.5 -181q-93 -72 -214.5 -112t-252.5 -40z" />
    <glyph glyph-name="uni04DF" unicode="&#x4df;" horiz-adv-x="1044" 
d="M668 1384q0 -88 -62 -147q-61 -61 -147 -61q-76 0 -123 47q-49 46 -49 120q0 89 61 150t148 61q72 0 122 -47q50 -50 50 -123zM1163 1384q0 -86 -61 -147t-150 -61q-77 0 -121 47q-49 46 -49 120q0 88 62 150q58 61 147 61q75 0 125 -47q47 -50 47 -123zM379 430l-23 172
l271 135v6l-328 -6h-156l74 281h854l-82 -301l-252 -127q76 -21 133 -84q56 -62 56 -139q0 -102 -45 -180t-121 -122.5t-164 -66t-186 -21.5q-101 0 -189 38.5t-145 113.5q-60 75 -60 178q0 39 4 55l299 48v-15q0 -57 33.5 -93t87.5 -36q55 0 93 28.5t38 74.5q0 33 -30.5 52
t-75.5 19q-47 0 -86 -10z" />
    <glyph glyph-name="uni04E2" unicode="&#x4e2;" horiz-adv-x="1644" 
d="M764 1655l67 260h736l-68 -260h-735zM27 0l399 1493h373l-242 -901h2l774 901h422l-399 -1493h-373l242 903h-2l-772 -903h-424z" />
    <glyph glyph-name="uni04E3" unicode="&#x4e3;" horiz-adv-x="1267" 
d="M449 1198l67 260h735l-67 -260h-735zM797 500l-4 2l-463 -502h-340l272 1018h352l-131 -488l4 -2l455 490h346l-272 -1018h-352z" />
    <glyph glyph-name="uni04E4" unicode="&#x4e4;" horiz-adv-x="1644" 
d="M1083 1839q0 -80 -55 -135q-52 -55 -135 -55t-135 55q-53 53 -53 135q0 84 53 137q57 54 135 54q81 0 135 -54q55 -55 55 -137zM1634 1839q0 -80 -55 -135q-52 -55 -135 -55t-135 55q-54 54 -54 135q0 83 54 137q57 54 135 54q81 0 135 -54q55 -55 55 -137zM27 0
l399 1493h373l-242 -901h2l774 901h422l-399 -1493h-373l242 903h-2l-772 -903h-424z" />
    <glyph glyph-name="uni04E5" unicode="&#x4e5;" horiz-adv-x="1267" 
d="M590 1176q-76 0 -123 47q-49 46 -49 120q0 89 61 150t148 61q73 0 123 -47q49 -49 49 -123q0 -88 -62 -147q-61 -61 -147 -61zM1085 1176q-78 0 -122 47q-50 47 -50 120q0 88 62 150q58 61 147 61q75 0 125 -47q47 -47 47 -123q0 -85 -59 -147q-61 -61 -150 -61zM797 500
l-4 2l-463 -502h-340l272 1018h352l-131 -488l4 -2l455 490h346l-272 -1018h-352z" />
    <glyph glyph-name="uni04E6" unicode="&#x4e6;" horiz-adv-x="1738" 
d="M834 1649q-77 0 -123 49q-49 46 -49 121q0 85 61 149q62 62 147 62q75 0 123 -48q49 -49 49 -122q0 -88 -59 -150q-61 -61 -149 -61zM1348 1649q-77 0 -123 49q-49 46 -49 121q0 85 61 149q62 62 147 62q72 0 123 -48q49 -49 49 -122q0 -89 -61 -150t-147 -61zM1026 1518
q155 0 288.5 -51t227.5 -142q92 -90 142.5 -212t50.5 -259q0 -177 -72 -344t-190 -279q-119 -116 -283 -184q-162 -70 -338 -70q-139 0 -265.5 44t-226.5 126q-97 81 -159 211q-60 132 -60 287q0 175 72 342q71 165 190 281q121 115 283 182q165 68 340 68zM532 674
q0 -164 101 -252q100 -92 250 -92q124 0 233 71q104 68 168 183q59 115 59 239q0 148 -94 246q-98 98 -256 98q-92 0 -178 -41t-149 -112q-62 -68 -98 -158t-36 -182z" />
    <glyph glyph-name="uni04E7" unicode="&#x4e7;" horiz-adv-x="1247" 
d="M518 1176q-76 0 -123 47q-49 46 -49 120q0 88 62 150q61 61 147 61q73 0 123 -47q49 -49 49 -123q0 -89 -61 -147q-61 -61 -148 -61zM1014 1176q-79 0 -123 47q-49 46 -49 120q0 89 61 150q58 61 148 61q75 0 125 -47q47 -47 47 -123q0 -85 -62 -147q-61 -61 -147 -61z
M575 -23q-236 0 -370 134q-135 132 -135 340q0 112 45.5 219t126.5 190q80 83 194 131q113 49 242 49q117 0 214 -35.5t163 -99.5q133 -136 133 -336q0 -114 -45.5 -221t-128.5 -190q-74 -80 -195 -131q-115 -50 -244 -50zM594 299q99 0 170 74q67 73 67 178
q0 75 -47.5 121.5t-124.5 46.5q-100 0 -167 -76q-70 -73 -70 -176q0 -74 45.5 -121t126.5 -47z" />
    <glyph glyph-name="uni04E8" unicode="&#x4e8;" horiz-adv-x="1738" 
d="M1026 1518q155 0 288.5 -51t227.5 -142q92 -90 142.5 -212t50.5 -259q0 -177 -72 -344t-190 -279q-119 -116 -283 -184q-162 -70 -338 -70q-139 0 -265.5 44t-226.5 126q-97 81 -159 211q-60 132 -60 287q0 175 72 342q71 165 190 281q121 115 283 182q165 68 340 68z
M993 1167q-128 0 -243 -77q-111 -76 -164 -189h753q-21 113 -114 191q-96 75 -232 75zM883 330q132 0 247 80q111 74 164 196h-757q21 -131 116 -205q95 -71 230 -71z" />
    <glyph glyph-name="uni04E9" unicode="&#x4e9;" horiz-adv-x="1247" 
d="M575 -23q-236 0 -370 134q-135 132 -135 340q0 112 45.5 219t126.5 190q80 83 194 131q113 49 242 49q117 0 214 -35.5t163 -99.5q133 -136 133 -336q0 -114 -45.5 -221t-128.5 -190q-74 -80 -195 -131q-115 -50 -244 -50zM834 420h-443q12 -71 64 -113.5t135 -42.5
q77 0 147 43q67 45 97 113zM422 602h440q-10 69 -64.5 110.5t-131.5 41.5q-82 0 -146 -43q-62 -42 -98 -109z" />
    <glyph glyph-name="uni04EA" unicode="&#x4ea;" horiz-adv-x="1738" 
d="M834 1649q-77 0 -123 49q-49 46 -49 121q0 85 61 149q62 62 147 62q75 0 123 -48q49 -49 49 -122q0 -88 -59 -150q-61 -61 -149 -61zM1348 1649q-77 0 -123 49q-49 46 -49 121q0 85 61 149q62 62 147 62q72 0 123 -48q49 -49 49 -122q0 -89 -61 -150t-147 -61zM1026 1518
q155 0 288.5 -51t227.5 -142q92 -90 142.5 -212t50.5 -259q0 -177 -72 -344t-190 -279q-119 -116 -283 -184q-162 -70 -338 -70q-139 0 -265.5 44t-226.5 126q-97 81 -159 211q-60 132 -60 287q0 175 72 342q71 165 190 281q121 115 283 182q165 68 340 68zM993 1167
q-128 0 -243 -77q-111 -76 -164 -189h753q-21 113 -114 191q-96 75 -232 75zM883 330q132 0 247 80q111 74 164 196h-757q21 -131 116 -205q95 -71 230 -71z" />
    <glyph glyph-name="uni04EB" unicode="&#x4eb;" horiz-adv-x="1247" 
d="M518 1176q-76 0 -123 47q-49 46 -49 120q0 88 62 150q61 61 147 61q73 0 123 -47q49 -49 49 -123q0 -89 -61 -147q-61 -61 -148 -61zM1014 1176q-79 0 -123 47q-49 46 -49 120q0 89 61 150q58 61 148 61q75 0 125 -47q47 -47 47 -123q0 -85 -62 -147q-61 -61 -147 -61z
M575 -23q-236 0 -370 134q-135 132 -135 340q0 112 45.5 219t126.5 190q80 83 194 131q113 49 242 49q117 0 214 -35.5t163 -99.5q133 -136 133 -336q0 -114 -45.5 -221t-128.5 -190q-74 -80 -195 -131q-115 -50 -244 -50zM834 420h-443q12 -71 64 -113.5t135 -42.5
q77 0 147 43q67 45 97 113zM422 602h440q-10 69 -64.5 110.5t-131.5 41.5q-82 0 -146 -43q-62 -42 -98 -109z" />
    <glyph glyph-name="uni04EC" unicode="&#x4ec;" horiz-adv-x="1648" 
d="M864 1704q-55 -55 -137 -55q-81 0 -133 55q-55 55 -55 135q0 82 55 137q54 54 133 54q80 0 137 -54q54 -54 54 -137q0 -81 -54 -135zM1415 1704q-55 -55 -135 -55q-83 0 -135 55q-55 55 -55 135q0 82 55 137q54 54 135 54q78 0 135 -54q53 -53 53 -137q0 -82 -53 -135z
M1479 1290q161 -182 161 -434q0 -163 -48.5 -306.5t-135.5 -248.5q-80 -98 -196 -178q-223 -146 -494 -146q-178 0 -325.5 62.5t-245.5 181.5q-100 115 -125 275l360 114q35 -150 133 -215q98 -67 236 -67q130 0 239 75q107 71 168 199h-540l82 305h505q-21 109 -116 189
q-93 75 -226 75q-134 0 -240 -72t-163 -202l-334 131q66 155 195 272q121 112 272 166q143 52 303 52t299.5 -60t235.5 -168z" />
    <glyph glyph-name="uni04ED" unicode="&#x4ed;" horiz-adv-x="1159" 
d="M379 1176q-76 0 -123 47q-49 46 -49 120q0 89 61 150t148 61q75 0 125 -47q47 -47 47 -123q0 -87 -60 -147q-61 -61 -149 -61zM874 1176q-75 0 -122 47q-47 44 -47 120q0 88 59 150q61 61 147 61q75 0 125 -47q49 -49 49 -123q0 -86 -61 -147t-150 -61zM594 1042
q113 0 210 -36.5t163 -100.5q133 -136 133 -336q0 -128 -53 -243q-52 -114 -140 -189q-87 -76 -197 -118t-223 -42q-78 0 -151 18.5t-138.5 57t-113 104t-66.5 152.5l320 90q30 -118 174 -118q67 0 122.5 35.5t90.5 97.5h-274l53 194h254q-17 58 -66 93.5t-112 35.5
q-134 0 -201 -119l-289 101q67 148 207 235q137 88 297 88z" />
    <glyph glyph-name="uni04EE" unicode="&#x4ee;" horiz-adv-x="1409" 
d="M627 1655l69 260h736l-70 -260h-735zM1698 1493l-766 -1030q-58 -83 -111 -141q-46 -57 -121 -129q-70 -67 -141 -113t-159 -74.5t-175 -28.5q-121 0 -235 43l88 326q82 -33 166 -33q157 0 295 164l-285 1016h403l154 -637l461 637h426z" />
    <glyph glyph-name="uni04EF" unicode="&#x4ef;" horiz-adv-x="1191" 
d="M420 1198l67 260h736l-68 -260h-735zM354 -502h-379l314 500l-133 1020h356l63 -604h3l358 604h383z" />
    <glyph glyph-name="uni04F0" unicode="&#x4f0;" horiz-adv-x="1409" 
d="M965 1839q0 -78 -54 -135q-55 -55 -137 -55q-80 0 -135 55q-53 56 -53 135q0 81 53 137q57 54 135 54q80 0 137 -54q54 -57 54 -137zM1516 1839q0 -78 -54 -135q-55 -55 -137 -55q-80 0 -135 55q-53 56 -53 135q0 81 53 137q57 54 135 54q80 0 137 -54q54 -57 54 -137z
M1698 1493l-766 -1030q-58 -83 -111 -141q-46 -57 -121 -129q-70 -67 -141 -113t-159 -74.5t-175 -28.5q-121 0 -235 43l88 326q82 -33 166 -33q157 0 295 164l-285 1016h403l154 -637l461 637h426z" />
    <glyph glyph-name="uni04F1" unicode="&#x4f1;" horiz-adv-x="1191" 
d="M563 1176q-76 0 -123 47q-49 46 -49 120q0 88 62 150q61 61 147 61q75 0 125 -47q47 -47 47 -123q0 -88 -59 -147q-61 -61 -150 -61zM1059 1176q-76 0 -123 47q-47 44 -47 120q0 88 59 150q61 61 148 61q75 0 125 -47q49 -49 49 -123q0 -85 -62 -147q-61 -61 -149 -61z
M354 -502h-379l314 500l-133 1020h356l63 -604h3l358 604h383z" />
    <glyph glyph-name="uni04F2" unicode="&#x4f2;" horiz-adv-x="1409" 
d="M872 1624h-290l313 375h405zM1362 1624h-291l313 375h406zM1698 1493l-766 -1030q-58 -83 -111 -141q-46 -57 -121 -129q-70 -67 -141 -113t-159 -74.5t-175 -28.5q-121 0 -235 43l88 326q82 -33 166 -33q157 0 295 164l-285 1016h403l154 -637l461 637h426z" />
    <glyph glyph-name="uni04F3" unicode="&#x4f3;" horiz-adv-x="1191" 
d="M623 1188h-293l315 373h404zM1112 1188h-293l316 373h403zM354 -502h-379l314 500l-133 1020h356l63 -604h3l358 604h383z" />
    <glyph glyph-name="uni04F4" unicode="&#x4f4;" horiz-adv-x="1501" 
d="M973 1839q0 -82 -53 -135q-55 -55 -136 -55q-83 0 -135 55q-55 55 -55 135q0 82 55 137q57 54 135 54q79 0 136 -54q53 -53 53 -137zM1526 1839q0 -79 -56 -135q-55 -55 -135 -55q-83 0 -135 55q-53 53 -53 135q0 84 53 137q57 54 135 54t135 -54q56 -56 56 -137zM836 0
l153 573q-240 -102 -418 -102q-163 0 -272 92q-106 87 -106 256q0 76 30 187l129 487h379l-119 -446q-16 -62 -16 -99q0 -133 145 -133q85 0 177 25q94 28 161 69l156 584h377l-400 -1493h-376z" />
    <glyph glyph-name="uni04F5" unicode="&#x4f5;" horiz-adv-x="1181" 
d="M528 1176q-75 0 -122 47q-48 45 -48 120q0 88 62 150q58 61 145 61q75 0 125 -47q47 -47 47 -123q0 -88 -59 -147q-61 -61 -150 -61zM1024 1176q-76 0 -123 47t-47 120q0 88 59 150q61 61 148 61q75 0 125 -47q49 -49 49 -123q0 -86 -61 -147t-150 -61zM569 0l84 311
q-69 -25 -137 -35q-76 -12 -137 -12q-167 0 -246 119q-45 62 -45 156q0 43 18 110l99 369h366l-84 -307q-6 -27 -6 -62q0 -38 23.5 -60t58.5 -22q97 0 168 41l109 410h362l-270 -1018h-363z" />
    <glyph glyph-name="uni04F8" unicode="&#x4f8;" horiz-adv-x="2183" 
d="M1350 1839q0 -79 -56 -135q-52 -55 -135 -55t-135 55q-53 53 -53 135q0 84 53 137q57 54 135 54q81 0 135 -54q56 -56 56 -137zM1901 1839q0 -79 -56 -135q-52 -55 -135 -55t-135 55q-53 53 -53 135q0 84 53 137q57 54 135 54q81 0 135 -54q56 -56 56 -137zM803 1493
l-139 -526h215q147 3 265 -46.5t185.5 -142.5t65.5 -213q0 -133 -50.5 -242t-142.5 -180q-188 -143 -481 -143h-694l399 1493h377zM1520 0l399 1493h377l-400 -1493h-376zM840 649h-262l-86 -317h270q108 0 176 47q70 48 70 137q0 61 -46 97t-122 36z" />
    <glyph glyph-name="uni04F9" unicode="&#x4f9;" horiz-adv-x="1800" 
d="M862 1176q-76 0 -123 47q-49 46 -49 120q0 88 62 150q61 61 147 61q75 0 125 -47q47 -50 47 -123q0 -88 -59 -147q-61 -61 -150 -61zM1358 1176q-76 0 -123 47q-47 44 -47 120q0 88 59 150q61 61 148 61q75 0 125 -47q47 -47 47 -123q0 -85 -62 -147q-61 -61 -147 -61z
M618 0h-628l272 1018h363l-76 -283h158q113 1 210 -37t156 -109.5t57 -160.5q0 -104 -41 -188.5t-114 -137.5q-141 -102 -357 -102zM1548 0h-364l272 1018h365zM655 481h-174l-57 -213h180q73 0 118.5 32t45.5 91q0 41 -32.5 65.5t-80.5 24.5z" />
    <glyph glyph-name="uni0E3F" unicode="&#xe3f;" horiz-adv-x="1452" 
d="M604 -195h-141l53 195h-485l397 1493h485l56 207h141l-55 -213q126 -13 223 -60q56 -27 94 -65q41 -38 66.5 -97.5t25.5 -129.5q0 -146 -96 -250q-98 -101 -242 -131v-2q107 -34 167.5 -113t60.5 -184q0 -204 -172 -330q-174 -125 -506 -125h-19zM760 905l76 281h-127
l-74 -281h125zM969 1180l-74 -273q88 8 140 48.5t52 111.5q0 95 -118 113zM604 317l78 289h-127l-78 -289h127zM815 606l-78 -289q96 -3 166 41t70 125q0 114 -158 123z" />
    <glyph glyph-name="uni1E20" unicode="&#x1e20;" horiz-adv-x="1665" 
d="M688 1636l70 258h735l-70 -258h-735zM1673 1065l-368 -111q-21 89 -101 154q-81 66 -217 66q-119 0 -229 -72q-109 -74 -172 -189q-64 -122 -64 -239q0 -150 96 -254q94 -101 269 -101q122 0 217 56q92 51 141 145h-430l70 295h792q-6 -197 -85.5 -373.5t-219.5 -294.5
q-99 -81 -233 -126.5t-289 -45.5q-153 -2 -285.5 48t-226 138.5t-145.5 214t-50 269.5q0 179 72 346q69 160 191 279q118 112 282 180q160 66 340 66q119 0 224 -28t178 -75q70 -46 122 -104q98 -112 121 -244z" />
    <glyph glyph-name="uni1E21" unicode="&#x1e21;" horiz-adv-x="1306" 
d="M444 1198l68 260h737l-69 -260h-736zM434 -203q98 0 167.5 66t103.5 188l20 80q-75 -57 -137 -84q-64 -27 -150 -27q-150 -4 -261.5 114.5t-108.5 277.5q0 127 45 237q44 118 116 199q75 84 174 135q105 51 211 51q208 0 316 -153h2l37 137h358l-258 -971
q-42 -152 -80 -221q-183 -336 -553 -336q-159 0 -273.5 53t-176.5 142q-80 111 -80 237l327 66q0 -81 54 -138q56 -53 147 -53zM602 317q95 0 166 74q72 75 72 174q0 69 -47 113q-46 43 -119 43q-97 0 -168 -74q-70 -73 -70 -176q0 -69 45.5 -111.5t120.5 -42.5z" />
    <glyph glyph-name="uni1E30" unicode="&#x1e30;" horiz-adv-x="1454" 
d="M1167 1624h-290l313 375h405zM918 0l-320 713l-190 -713h-379l397 1493h381l-170 -633h2l600 633h481l-747 -756l364 -737h-419z" />
    <glyph glyph-name="uni1E31" unicode="&#x1e31;" horiz-adv-x="1216" 
d="M1122 1188h-293l316 373h403zM352 0h-362l416 1554h362l-256 -952h6l383 416h451l-492 -506l227 -512h-393l-209 502z" />
    <glyph glyph-name="uni1E60" unicode="&#x1e60;" horiz-adv-x="1343" 
d="M858 1630q-81 0 -135 51q-55 52 -55 136q0 95 67 165q68 68 164 68q82 0 135 -53q56 -53 56 -135q0 -96 -68 -164t-164 -68zM877 438q0 91 -136 133l-125 39q-167 52 -268 162q-102 111 -102 244q0 97 33 180t90 142t132.5 100t160 61t172.5 19q232 0 370 -103
q69 -52 103 -104q75 -109 75 -242l-350 -57q0 68 -43 125q-49 69 -166 69q-103 0 -149 -53q-43 -46 -43 -92q0 -94 125 -131l127 -39q98 -29 173.5 -78.5t119.5 -107.5t66 -117.5t22 -116.5q0 -231 -162 -362q-160 -129 -436 -129q-133 0 -257 41.5t-210 121.5
q-60 55 -94.5 134.5t-34.5 171.5q0 10 1 24.5t1 18.5l336 59q-5 -30 -5 -37q0 -103 74 -162q70 -61 176 -61q110 0 166 47q58 46 58 100z" />
    <glyph glyph-name="uni1E61" unicode="&#x1e61;" horiz-adv-x="1024" 
d="M598 1155q-82 0 -135 53q-53 47 -53 133q0 101 65 166q68 68 164 68q80 0 137 -51q53 -56 53 -138q0 -96 -67 -163q-68 -68 -164 -68zM578 1040q98 0 180 -29.5t131 -78.5q96 -93 96 -201v-6l-303 -35q0 50 -35 74t-74 24q-42 0 -67 -21t-25 -46q0 -39 60 -57l100 -33
q145 -46 215 -131q55 -72 55 -181q0 -132 -116 -235q-59 -49 -148.5 -78t-193.5 -29q-97 0 -178 21.5t-130 56.5q-48 35 -77 78q-58 80 -58 160v14l295 49q0 -55 43 -90q42 -33 103 -33q52 0 80 21.5t28 50.5q0 47 -76 74l-71 22q-105 40 -156 76q-35 22 -61 55
q-54 68 -54 162q0 150 125 248q122 98 312 98z" />
    <glyph glyph-name="Wgrave" unicode="&#x1e80;" horiz-adv-x="2289" 
d="M979 1999h377l164 -375h-256zM1272 995h-2l-535 -995h-383l-86 1493h385l29 -944h6l510 944h363l71 -946h4l480 946h401l-795 -1493h-387z" />
    <glyph glyph-name="wgrave" unicode="&#x1e81;" horiz-adv-x="1732" 
d="M606 1561h377l164 -373h-256zM557 0h-344l-53 1018h356l12 -547h2l324 547h295l37 -551h2l315 551h350l-596 -1018h-344l-30 545h-2z" />
    <glyph glyph-name="Wacute" unicode="&#x1e82;" horiz-adv-x="2289" 
d="M1548 1624h-293l316 375h403zM1272 995h-2l-535 -995h-383l-86 1493h385l29 -944h6l510 944h363l71 -946h4l480 946h401l-795 -1493h-387z" />
    <glyph glyph-name="wacute" unicode="&#x1e83;" horiz-adv-x="1732" 
d="M1171 1188h-290l313 373h403zM557 0h-344l-53 1018h356l12 -547h2l324 547h295l37 -551h2l315 551h350l-596 -1018h-344l-30 545h-2z" />
    <glyph glyph-name="Wdieresis" unicode="&#x1e84;" horiz-adv-x="2289" 
d="M1370 1839q0 -79 -53 -135q-55 -55 -137 -55q-81 0 -136 55q-53 56 -53 135q0 81 53 137q57 54 136 54q80 0 137 -54q53 -56 53 -137zM1921 1839q0 -82 -53 -135q-55 -55 -137 -55t-134 55q-55 55 -55 135q0 82 55 137q54 54 134 54t137 -54q53 -53 53 -137zM1272 995h-2
l-535 -995h-383l-86 1493h385l29 -944h6l510 944h363l71 -946h4l480 946h401l-795 -1493h-387z" />
    <glyph glyph-name="wdieresis" unicode="&#x1e85;" horiz-adv-x="1732" 
d="M819 1176q-79 0 -123 47q-49 46 -49 120q0 88 62 150q58 61 147 61q73 0 123 -47q49 -49 49 -123q0 -89 -61 -147q-61 -61 -148 -61zM1313 1176q-77 0 -121 47q-49 46 -49 120q0 89 61 150q58 61 148 61q76 0 123 -47q49 -49 49 -123q0 -84 -60 -147q-61 -61 -151 -61z
M557 0h-344l-53 1018h356l12 -547h2l324 547h295l37 -551h2l315 551h350l-596 -1018h-344l-30 545h-2z" />
    <glyph glyph-name="uni1E90" unicode="&#x1e90;" horiz-adv-x="1327" 
d="M1366 1628h-279l-65 193l-168 -193h-301l336 361h328zM1419 1178l-889 -842h668l-92 -336h-1159l84 317l887 844h-631l90 332h1126z" />
    <glyph glyph-name="uni1E91" unicode="&#x1e91;" horiz-adv-x="1060" 
d="M1098 1190h-279l-65 192l-168 -192h-301l336 360h325zM926 297l-78 -297h-901l80 287l536 432h-405l78 299h878l-72 -268l-561 -453h445z" />
    <glyph glyph-name="uni1EBC" unicode="&#x1ebc;" horiz-adv-x="1308" 
d="M1147 1628q-44 0 -86 14.5t-68 36.5q-73 52 -119 52q-40 0 -61 -35q-18 -30 -29 -66h-200l16 66q31 123 107 196q77 74 188 74q41 0 82 -15t67 -36q69 -49 119 -49q26 0 47 15t29 34q11 18 21 47h194q-12 -57 -18 -74q-30 -117 -107 -188q-72 -72 -182 -72zM29 0
l397 1493h1040l-88 -334h-665l-66 -244h606l-86 -321h-606l-69 -258h671l-88 -336h-1046z" />
    <glyph glyph-name="uni1EBD" unicode="&#x1ebd;" horiz-adv-x="1204" 
d="M909 1190q-86 0 -153 51q-66 51 -119 51q-41 0 -62 -35q-17 -28 -28 -65h-201l16 65q30 123 107 197t188 74q83 0 152 -49q69 -52 117 -52q26 0 47 15t31 35q14 35 20 47h193q-10 -48 -19 -74q-30 -118 -106 -188q-75 -72 -183 -72zM1110 418h-700q0 -71 59 -115
q58 -43 125 -43q66 0 120.5 25.5t82.5 76.5l282 -126q-88 -164 -284 -226q-103 -33 -211 -33q-225 0 -369 129q-145 130 -145 345q0 117 49 227q55 114 135 188q84 81 197 127q118 47 237 47q189 0 322 -108q66 -54 103.5 -134t37.5 -173q0 -104 -41 -207zM674 764
q-71 0 -133 -39q-69 -44 -92 -107h360q8 20 8 31q0 56 -39 85.5t-104 29.5z" />
    <glyph glyph-name="Ygrave" unicode="&#x1ef2;" horiz-adv-x="1449" 
d="M594 1999h377l164 -375h-256zM922 549l-146 -549h-377l156 592l-272 901h401l145 -549l441 549h446z" />
    <glyph glyph-name="ygrave" unicode="&#x1ef3;" horiz-adv-x="1191" 
d="M358 1561h377l164 -373h-254zM354 -502h-379l314 500l-133 1020h356l63 -604h3l358 604h383z" />
    <glyph glyph-name="uni2000" unicode="&#x2000;" horiz-adv-x="1163" 
 />
    <glyph glyph-name="uni2001" unicode="&#x2001;" horiz-adv-x="2326" 
 />
    <glyph glyph-name="uni2002" unicode="&#x2002;" horiz-adv-x="1163" 
 />
    <glyph glyph-name="uni2003" unicode="&#x2003;" horiz-adv-x="2326" 
 />
    <glyph glyph-name="uni2004" unicode="&#x2004;" horiz-adv-x="776" 
 />
    <glyph glyph-name="uni2005" unicode="&#x2005;" horiz-adv-x="581" 
 />
    <glyph glyph-name="uni2006" unicode="&#x2006;" horiz-adv-x="387" 
 />
    <glyph glyph-name="uni2007" unicode="&#x2007;" horiz-adv-x="387" 
 />
    <glyph glyph-name="uni2008" unicode="&#x2008;" horiz-adv-x="290" 
 />
    <glyph glyph-name="uni2009" unicode="&#x2009;" horiz-adv-x="464" 
 />
    <glyph glyph-name="uni200A" unicode="&#x200a;" horiz-adv-x="129" 
 />
    <glyph glyph-name="uni2010" unicode="&#x2010;" horiz-adv-x="860" 
d="M819 772l-82 -303h-628l79 303h631z" />
    <glyph glyph-name="uni2011" unicode="&#x2011;" horiz-adv-x="860" 
d="M819 772l-82 -303h-628l79 303h631z" />
    <glyph glyph-name="figuredash" unicode="&#x2012;" horiz-adv-x="860" 
d="M819 772l-82 -303h-628l79 303h631z" />
    <glyph glyph-name="endash" unicode="&#x2013;" horiz-adv-x="1171" 
d="M106 471l80 299h944l-79 -299h-945z" />
    <glyph glyph-name="emdash" unicode="&#x2014;" horiz-adv-x="1902" 
d="M106 471l80 299h1676l-80 -299h-1676z" />
    <glyph glyph-name="quoteleft" unicode="&#x2018;" horiz-adv-x="622" 
d="M750 1511l-41 -151q-110 -17 -184.5 -71.5t-96.5 -133.5q13 8 64 8q82 0 131 -48.5t49 -131.5q0 -92 -68 -154q-67 -61 -162 -61q-105 0 -166 70q-57 69 -57 178q0 130 82 246q76 113 203 182q122 67 246 67z" />
    <glyph glyph-name="quoteright" unicode="&#x2019;" horiz-adv-x="624" 
d="M221 772l41 150q110 17 184.5 71.5t96.5 134.5q-17 -10 -64 -10q-82 0 -131 49.5t-49 132.5q0 92 68 154q68 59 161 59q108 0 166 -67t58 -180q0 -126 -80 -244q-83 -118 -205 -182q-124 -68 -246 -68z" />
    <glyph glyph-name="quotesinglbase" unicode="&#x201a;" horiz-adv-x="632" 
d="M-61 -369l41 152q111 17 184.5 71.5t95.5 135.5q-12 -10 -65 -10q-80 0 -129.5 49.5t-49.5 132.5q0 89 68 151t162 62q107 0 166 -68q57 -69 57 -180q0 -124 -80 -246q-83 -115 -205 -182q-124 -68 -245 -68z" />
    <glyph glyph-name="quotedblleft" unicode="&#x201c;" horiz-adv-x="1144" 
d="M750 1511l-41 -151q-110 -17 -184.5 -71.5t-96.5 -133.5q13 8 64 8q82 0 131 -48.5t49 -131.5q0 -92 -68 -154q-67 -61 -162 -61q-105 0 -166 70q-57 69 -57 178q0 130 82 246q76 113 203 182q122 67 246 67zM1272 1511l-41 -151q-111 -17 -186 -71.5t-97 -133.5
q16 8 66 8q80 0 130 -49t50 -131q0 -92 -68 -154q-67 -61 -161 -61q-105 0 -166 70q-58 67 -58 178q0 128 80 246q76 113 203 182q122 67 248 67z" />
    <glyph glyph-name="quotedblright" unicode="&#x201d;" horiz-adv-x="1146" 
d="M221 772l41 150q110 17 184.5 71.5t96.5 134.5q-17 -10 -64 -10q-82 0 -131 49.5t-49 132.5q0 92 68 154q68 59 161 59q108 0 166 -67t58 -180q0 -126 -80 -244q-83 -118 -205 -182q-124 -68 -246 -68zM741 772l41 150q112 17 186.5 71.5t96.5 134.5q-17 -10 -66 -10
q-80 0 -130 49.5t-50 132.5q0 93 70 154q65 59 160 59q110 0 168 -67q55 -67 55 -180q0 -126 -80 -244q-80 -117 -203 -182q-124 -68 -248 -68z" />
    <glyph glyph-name="quotedblbase" unicode="&#x201e;" horiz-adv-x="1155" 
d="M-61 -369l41 152q111 17 184.5 71.5t95.5 135.5q-12 -10 -65 -10q-80 0 -129.5 49.5t-49.5 132.5q0 89 68 151t162 62q107 0 166 -68q57 -69 57 -180q0 -124 -80 -246q-83 -115 -205 -182q-124 -68 -245 -68zM459 -369l41 152q111 17 185.5 71.5t96.5 135.5
q-15 -10 -65 -10q-80 0 -130 49.5t-50 132.5q0 90 67 151q68 62 162 62q110 0 166 -68q57 -69 57 -180q0 -128 -80 -246q-80 -115 -202 -182q-124 -68 -248 -68z" />
    <glyph glyph-name="dagger" unicode="&#x2020;" horiz-adv-x="1351" 
d="M918 758l-203 -758h-340l200 758h-356l80 301h356l117 436h342l-117 -436h359l-80 -301h-358z" />
    <glyph glyph-name="daggerdbl" unicode="&#x2021;" horiz-adv-x="1351" 
d="M717 0l-107 -391h-340l105 391h-404l80 303h406l108 414h-401l80 301h403l105 395h342l-107 -395h406l-80 -301h-406l-110 -414h405l-82 -303h-403z" />
    <glyph glyph-name="bullet" unicode="&#x2022;" horiz-adv-x="942" 
d="M489 362q-145 0 -235 84q-88 82 -88 213q0 98 50 183t140 137q92 53 199 53q148 0 238 -84q88 -88 88 -213q0 -147 -113 -260t-279 -113z" />
    <glyph glyph-name="ellipsis" unicode="&#x2026;" horiz-adv-x="1890" 
d="M227 -23q-83 0 -145 62q-62 59 -62 143q0 86 62 148q59 59 145 59t148 -59q59 -62 59 -148q0 -85 -61 -143q-59 -62 -146 -62zM881 -23q-85 0 -144 62q-61 58 -61 143q0 86 59 148q62 59 146 59q85 0 147 -59q59 -62 59 -148q0 -84 -59 -143q-62 -62 -147 -62zM1536 -23
q-83 0 -145 62q-60 60 -60 143q0 85 60 148q62 59 145 59q85 0 147 -59q60 -63 60 -148q0 -84 -62 -143q-59 -62 -145 -62z" />
    <glyph glyph-name="uni202F" unicode="&#x202f;" horiz-adv-x="464" 
 />
    <glyph glyph-name="perthousand" unicode="&#x2030;" horiz-adv-x="2875" 
d="M588 782q-161 0 -254 90q-96 93 -96 234q0 104 54.5 196t151.5 150q94 55 213 55q162 0 258 -90q99 -91 99 -231q0 -76 -33 -150t-90 -131q-56 -58 -135.5 -90.5t-167.5 -32.5zM602 0h-317l1296 1493h315zM612 1020q59 0 99 43q41 44 41 96q0 48 -32 79.5t-85 31.5
q-58 0 -96 -41q-39 -42 -39 -96q0 -49 30.5 -81t81.5 -32zM1526 -10q-160 0 -256 90q-94 94 -94 231q0 105 54.5 197t151.5 149q94 58 213 58q162 0 258 -90q97 -94 97 -232q0 -77 -32.5 -150.5t-88.5 -129.5q-58 -58 -137 -90.5t-166 -32.5zM1548 227q61 0 101 43
q41 41 41 97q0 48 -32.5 79t-84.5 31q-58 0 -98 -43q-39 -42 -39 -96q0 -47 30.5 -79t81.5 -32zM2351 -10q-158 0 -254 90q-94 91 -94 231q0 105 54.5 197t150.5 149q98 58 213 58q159 0 260 -90q96 -93 96 -232q0 -77 -32.5 -150.5t-90.5 -129.5q-56 -58 -135.5 -90.5
t-167.5 -32.5zM2376 227q57 0 100 43q41 41 41 97q0 48 -33 79t-86 31q-56 0 -96 -43q-39 -39 -39 -96q0 -47 31 -79t82 -32z" />
    <glyph glyph-name="guilsinglleft" unicode="&#x2039;" horiz-adv-x="770" 
d="M420 541l190 -252l-209 -160l-329 444l561 441l149 -193z" />
    <glyph glyph-name="guilsinglright" unicode="&#x203a;" horiz-adv-x="770" 
d="M395 608l-190 252l207 160l331 -447l-561 -438l-149 193z" />
    <glyph glyph-name="uni203D" unicode="&#x203d;" horiz-adv-x="1187" 
d="M801 1518q195 0 323 -101q129 -99 129 -264q0 -147 -65 -254q-22 -41 -80 -102q-37 -39 -96 -90q-28 -22 -121 -101q-77 -62 -129 -108h-352l69 452h299l-26 -121q84 68 127 130t43 128q0 61 -50 99q-46 37 -112 37q-101 0 -170 -60q-66 -63 -66 -139l-295 35
q0 167 150 311q75 69 180 107q112 41 242 41zM559 393q79 0 135 -53q54 -51 54 -133q0 -96 -68 -164q-69 -66 -162 -66q-83 0 -135 52q-53 53 -53 133q0 94 67 164q64 67 162 67z" />
    <glyph glyph-name="uni2042" unicode="&#x2042;" horiz-adv-x="1763" 
d="M1106 1032l78 -203l-187 -71l-82 205l-170 -138l-127 156l168 137l-182 119l111 166l180 -117l57 215l201 -55l-57 -213l215 10l14 -199zM563 240l76 -201l-186 -74l-82 205l-170 -137l-127 155l168 138l-183 120l111 166l180 -118l60 215l198 -54l-57 -215l215 11
l14 -199zM1427 240l78 -201l-186 -74l-82 205l-172 -137l-125 155l168 138l-182 120l108 166l183 -118l57 215l201 -54l-60 -215l217 11l15 -199z" />
    <glyph glyph-name="fraction" unicode="&#x2044;" horiz-adv-x="937" 
d="M211 0h-324l979 1493h322z" />
    <glyph glyph-name="uni2051" unicode="&#x2051;" horiz-adv-x="931" 
d="M786 1032l78 -203l-188 -71l-80 205l-172 -138l-125 156l168 137l-182 119l108 166l182 -117l58 215l198 -55l-57 -213l217 10l13 -199zM573 240l78 -201l-186 -74l-82 205l-170 -137l-127 155l168 138l-182 120l110 166l180 -118l58 215l201 -54l-58 -215l215 11
l15 -199z" />
    <glyph glyph-name="uni205F" unicode="&#x205f;" horiz-adv-x="581" 
 />
    <glyph glyph-name="lira" unicode="&#x20a4;" horiz-adv-x="1372" 
d="M1376 1049l-358 -39q4 28 4 41q0 60 -39 102q-37 43 -100 43q-83 0 -127 -68q-45 -62 -45 -155v-31h293l-43 -166h-236q0 -13 1 -29.5t1 -19.5q0 -4 -1 -20t-1 -27h209l-43 -166h-211q-56 -115 -186 -190h243q212 0 258 204l301 -53q-38 -224 -186 -348
q-145 -127 -350 -127h-780l79 303q86 19 158 76q73 55 117 135h-211l45 166h211q0 4 -0.5 16t-1.5 35t-2 45h-180l43 166h129q12 266 163 420q156 156 404 156q123 0 224 -46.5t162.5 -139t61.5 -214.5q0 -14 -6 -69z" />
    <glyph glyph-name="uni20A9" unicode="&#x20a9;" horiz-adv-x="2428" 
d="M2591 1493l-267 -504h140l-56 -215h-198l-51 -96h223l-55 -215h-283l-246 -463h-387l-61 995h-2l-537 -995h-381l-27 463h-299l56 215h231l-6 96h-201l58 215h131l-29 504h385l29 -944h6l510 944h362l72 -946h4l479 946h400z" />
    <glyph glyph-name="dong" unicode="&#x20ab;" horiz-adv-x="1435" 
d="M1608 1401l-64 -236h-162l-262 -979q-21 -79 -24 -151v-35h-365v33q0 23 10 78h-4q-134 -131 -293 -131q-117 0 -200 59q-85 59 -129 154q-41 93 -41 202q0 125 45 246q47 121 121 207q75 88 179 139t216 51q198 0 307 -149h2l76 276h-287l64 236h284l41 153h363
l-41 -153h164zM614 299q101 0 174 76q74 77 74 182q0 76 -47 117q-48 45 -125 45q-104 0 -174 -76q-74 -77 -74 -184q0 -72 47 -116t125 -44zM-82 -410l80 299h1042l-79 -299h-1043z" />
    <glyph glyph-name="Euro" unicode="&#x20ac;" horiz-adv-x="1853" 
d="M1026 502h-299q32 -82 117.5 -128t202.5 -46q79 0 151 27t123 73q83 75 131 176l334 -129q-58 -149 -178 -264q-63 -63 -154 -119q-88 -53 -204.5 -84t-243.5 -31q-256 -3 -451.5 144.5t-241.5 380.5h-225l55 200h158q3 54 12 97h-145l53 200h156q105 234 323 375
q220 144 484 144q130 0 243 -31t189 -84q79 -56 127 -121q99 -127 121 -276l-363 -115q-11 53 -33 97t-62 87t-107.5 67.5t-155.5 24.5q-115 0 -205 -47q-96 -52 -137 -121h448l-92 -200h-452q-13 -45 -19 -97h434z" />
    <glyph glyph-name="uni20AE" unicode="&#x20ae;" horiz-adv-x="1378" 
d="M1481 1151h-424l-60 -225l365 112l-62 -229l-364 -113l-27 -102l365 113l-62 -230l-364 -112l-98 -365h-371l63 242l-364 -111l61 229l365 111l26 102l-364 -112l61 231l365 111l94 348h-426l92 342h1221z" />
    <glyph glyph-name="uni20B1" unicode="&#x20b1;" horiz-adv-x="1595" 
d="M1688 1085l-46 -167h-118q-53 -187 -221 -291q-173 -111 -420 -111h-246l-139 -516h-377l244 918h-158l45 167h158l110 408h465q223 0 354 -70q199 -109 205 -338h144zM979 1167h-170l-23 -84h373q-3 23 -20 37q-50 47 -160 47zM721 831h178q166 0 234 89h-390z" />
    <glyph glyph-name="uni20B4" unicode="&#x20b4;" horiz-adv-x="1462" 
d="M236 1026h780q20 36 20 70q0 52 -36.5 81t-94.5 29q-73 0 -149 -49q-71 -43 -131 -113l-222 205q105 129 247 199t302 70q87 0 165.5 -18t148.5 -56.5t111.5 -108t41.5 -161.5q0 -78 -33 -148h125l-59 -217h-1276zM1425 713l-57 -219h-795q-34 -40 -34 -95
q0 -53 39.5 -79.5t101.5 -26.5q106 0 205 51q108 55 174 133l219 -209q-108 -129 -272 -209q-162 -79 -381 -79q-68 0 -132.5 10.5t-127.5 36t-110 63t-76 97t-29 132.5q0 100 47 175h-105l60 219h1273z" />
    <glyph glyph-name="uni20B8" unicode="&#x20b8;" horiz-adv-x="1394" 
d="M350 1493h1221l-90 -340h-1221zM940 702l-188 -702h-379l188 702h-422l90 340h1221l-90 -340h-420z" />
    <glyph glyph-name="uni20B9" unicode="&#x20b9;" horiz-adv-x="1257" 
d="M1378 1221h-278q43 -52 49 -125h194l-45 -174h-165q-35 -125 -133 -214.5t-259 -134.5l170 -573h-383l-143 524h-283l82 303h273q87 0 158.5 24.5t111.5 70.5h-518l47 174h502q-10 23 -25 41q-50 53 -190 53h-262l79 303h1090z" />
    <glyph glyph-name="uni20BA" unicode="&#x20ba;" horiz-adv-x="1429" 
d="M1053 694l356 -39q-58 -224 -184 -379q-67 -81 -162 -145q-198 -131 -488 -131h-403l135 504l-219 -86l64 239l219 88l24 93l-219 -88l64 239l219 88l110 416h375l-65 -248l342 137l-64 -239l-342 -137l-24 -93l342 138l-66 -242l-340 -135l-92 -338q223 3 334 168
q60 90 84 190z" />
    <glyph glyph-name="uni20BD" unicode="&#x20bd;" horiz-adv-x="1484" 
d="M1556 1069v-27q0 -24 -4 -49q-8 -59 -39 -137q-54 -133 -196 -229q-175 -111 -420 -111h-229l-31 -113h324l-52 -188h-321l-58 -215h-376l57 215h-176l49 188h176l31 113h-176l78 291h176l182 686h446q227 0 355 -70q204 -109 204 -354zM754 831h137q52 0 100 10.5
t90 32.5t67.5 61.5t25.5 92.5q0 54 -39 90q-48 45 -156 45h-139z" />
    <glyph glyph-name="uni2113" unicode="&#x2113;" horiz-adv-x="921" 
d="M481 502q0 -3 -7.5 -30.5t-8.5 -33.5q-5 -9 -8 -30q-8 -36 -8 -68q0 -107 174 -107q48 0 110 19l-65 -244q-85 -26 -166 -26q-146 0 -240 73q-92 71 -92 213q0 50 25 142q-80 -22 -156 -25l65 244q90 16 160 41l117 440q42 161 134.5 239t250.5 78q121 0 197 -67
q79 -67 79 -184q0 -83 -34.5 -169.5t-92.5 -158.5q-61 -77 -131 -141q-141 -124 -303 -205zM778 1137q0 45 -49 45q-67 0 -88 -86l-78 -293q85 52 148 147q67 98 67 187z" />
    <glyph glyph-name="uni2116" unicode="&#x2116;" horiz-adv-x="2533" 
d="M954 0l-303 926h-2l-248 -926h-374l399 1493h422l297 -911l246 911h372l-397 -1493h-412zM2144 563q114 0 219 60q97 60 152 151q53 95 53 201q0 142 -94 233q-95 92 -258 92q-88 0 -167 -32.5t-134 -89.5q-56 -58 -88.5 -133t-32.5 -152q0 -142 94 -236t256 -94z
M2159 788q-57 0 -88 32t-31 85q0 68 47 121q45 51 117 51q53 0 85.5 -31t32.5 -83q0 -70 -47 -123q-49 -52 -116 -52zM2345 178h-731l69 258h732z" />
    <glyph glyph-name="trademark" unicode="&#x2122;" horiz-adv-x="2021" 
d="M743 1296l-178 -663h-217l178 663h-243l53 197h702l-53 -197h-242zM1698 633l145 545h-2l-350 -545h-131l-72 541h-2l-145 -541h-207l229 860h269l69 -528l340 528h299l-229 -860h-213z" />
    <glyph glyph-name="estimated" unicode="&#x212e;" horiz-adv-x="1685" 
d="M928 -23q-168 0 -309.5 60.5t-235.5 167.5q-94 106 -144.5 248.5t-50.5 304.5q0 155 53.5 294.5t149.5 241.5q92 99 236 162q142 60 301 60q214 0 385 -101q173 -104 262 -272q92 -173 92 -381v-17h-1153v-483q73 -76 188 -123q110 -45 226 -45q193 0 334 82.5t217 235.5
l100 -56q-79 -175 -250 -276q-174 -103 -401 -103zM1343 862v377q-75 78 -188 121q-118 41 -229 41q-241 0 -412 -160v-379h829z" />
    <glyph glyph-name="uni2153" unicode="&#x2153;" horiz-adv-x="2312" 
d="M948 1493l-227 -864h-301l143 553l-205 -101l-96 199l434 213h252zM1839 1493l-977 -1493h-323l979 1493h321zM1757 205q38 0 82 26q39 28 39 66q0 30 -23 46.5t-55 16.5q-40 0 -90 -20l-59 156l219 133h-344l61 231h701l-54 -203l-229 -139q59 -23 102 -84
q41 -62 41 -125q0 -77 -33.5 -142.5t-91.5 -105.5q-124 -84 -270 -84q-69 0 -129 14.5t-108.5 44t-76.5 78.5t-28 113v25l248 70l-2 -7q0 -46 28 -78t72 -32z" />
    <glyph glyph-name="uni2154" unicode="&#x2154;" horiz-adv-x="2351" 
d="M836 629h-713l12 63q24 127 108.5 213.5t229.5 145.5l125 51q42 16 86 49q39 36 39 70q0 28 -23 43.5t-55 15.5q-59 0 -92 -41q-37 -43 -37 -96l-250 28q21 145 140 246q122 96 278 96q75 0 145 -27t119 -84t49 -132q0 -213 -292 -342q-146 -56 -177 -78h367zM1907 1493
l-977 -1493h-324l979 1493h322zM1823 205q40 0 84 26q39 28 39 66q0 30 -23.5 46.5t-56.5 16.5q-38 0 -88 -20l-60 156l219 133h-344l64 231h698l-53 -203l-229 -139q59 -23 102 -84q41 -62 41 -125q0 -76 -34.5 -141.5t-92.5 -106.5q-117 -84 -268 -84q-69 0 -129.5 14.5
t-109 44t-77 78.5t-28.5 113q0 3 1 12.5t1 12.5l245 70v-7q0 -47 27.5 -78.5t71.5 -31.5z" />
    <glyph glyph-name="oneeighth" unicode="&#x215b;" horiz-adv-x="2275" 
d="M948 1493l-227 -864h-301l143 553l-205 -101l-96 199l434 213h252zM1839 1493l-977 -1493h-323l979 1493h321zM1872 887q-151 0 -264 -78q-111 -80 -111 -199q0 -85 80 -147q-89 -27 -145 -92q-60 -66 -60 -154q0 -108 107 -174q103 -66 262 -66q161 0 270 78
q109 77 109 203q0 48 -27 91t-72 71q82 32 131.5 90.5t49.5 134.5q0 100 -99 170q-101 72 -231 72zM1849 666q33 0 58.5 -17t25.5 -43q0 -35 -30 -53q-35 -21 -68 -21q-31 0 -56.5 17.5t-25.5 44.5q0 32 29 52t67 20zM1759 342q37 0 68 -16q33 -17 33 -52q0 -36 -35 -57
q-35 -18 -76 -18q-36 0 -68 16q-32 17 -32 51q0 39 34 58q35 18 76 18z" />
    <glyph glyph-name="threeeighths" unicode="&#x215c;" horiz-adv-x="2275" 
d="M520 838q43 0 82 26q39 25 39 64q0 32 -22.5 48.5t-55.5 16.5q-32 0 -90 -20l-59 153l221 136h-344l61 231h701l-56 -203l-229 -141q55 -19 102 -82q41 -58 41 -125q0 -77 -33.5 -142.5t-91.5 -105.5q-119 -86 -270 -86q-201 0 -293 109q-49 61 -49 143v23l246 71v-8
q0 -45 28.5 -76.5t71.5 -31.5zM1858 1493l-977 -1493h-324l979 1493h322zM1890 887q-152 0 -262 -78q-112 -80 -112 -199q0 -87 81 -147q-91 -27 -147 -92q-57 -63 -57 -154q0 -110 104 -174q106 -66 262 -66q162 0 271 78q108 77 108 203q0 49 -26.5 91.5t-71.5 70.5
q82 32 131 90.5t49 134.5q0 100 -98 170q-97 72 -232 72zM1868 666q33 0 58.5 -17t25.5 -43q0 -32 -30 -53t-69 -21q-31 0 -56 17.5t-25 44.5q0 32 29 52t67 20zM1778 342q38 0 69 -16q33 -20 33 -52q0 -36 -37 -57q-35 -18 -76 -18q-30 0 -67 16q-33 17 -33 51q0 37 35 58
q34 18 76 18z" />
    </font>
</defs>
</svg>
